999
DXF file: HC6-06_12M.dxf
999
Pro/ENGINEER 2018100 by Parametric Technology Corporation
  0
SECTION
  2
HEADER
  9
$ACADVER
  1
AC1015
  9
$DWGCODEPAGE
  3
ANSI_936
  9
$EXTMAX
 10
420.0
 20
297.0
 30
0.0
  9
$EXTMIN
 10
0.0
 20
0.0
 30
0.0
  9
$LIMMIN
 10
0.0
 20
0.0
  9
$LIMMAX
 10
420.0
 20
297.0
  9
$VIEWCTR
 10
210.0
 20
148.5
  9
$VIEWSIZE
 40
297.0
  9
$CLAYER
  8
0
  9
$LTSCALE
 40
23.1
  9
$CELTYPE
  6
BYLAYER
  9
$DIMSCALE
 40
1.0
  9
$DIMASZ
 40
3.5
  9
$DIMEXO
 40
0.0
  9
$DIMDLI
 40
15.96
  9
$DIMEXE
 40
1.5
  9
$DIMCEN
 40
3.78
  9
$DIMLFAC
 40
1.0
  9
$DIMBLK
  1
_FILLED
  9
$DIMALT
 70
0
  9
$DIMALTF
 40
25.4
  9
$DIMTXT
 40
3.5
  9
$DIMTOL
 70
1
  9
$DIMLIM
 70
0
  9
$DIMTFAC
 40
1.0
  9
$DIMTP
 40
0.01
  9
$DIMTM
 40
0.01
  9
$DIMGAP
 40
0.625
  9
$DIMDSEP
 70
46
  9
$AUNITS
 70
0
  9
$PDMODE
 70
3
  9
$PDSIZE
 40
1.0
  9
$HANDSEED
  5
6A6
  9
$TILEMODE
 70
1
  9
$MEASUREMENT
 70
1
  9
$INSUNITS
 70
4
  0
ENDSEC
  0
SECTION
  2
CLASSES
  0
CLASS
  1
ACDBDICTIONARYWDFLT
  2
AcDbDictionaryWithDefault
  3
AutoCAD 2000
 90
0
280
0
281
0
  0
CLASS
  1
ACDBPLACEHOLDER
  2
AcDbPlaceHolder
  3
AutoCAD 2000
 90
0
280
0
281
0
  0
CLASS
  1
LAYOUT
  2
AcDbLayout
  3
AutoCAD 2000
 90
0
280
0
281
0
  0
ENDSEC
  0
SECTION
  2
TABLES
  0
TABLE
  2
VPORT
  5
8
100
AcDbSymbolTable
 70
2
  0
VPORT
  5
1F4
100
AcDbSymbolTableRecord
100
AcDbViewportTableRecord
  2
*ACTIVE
 70
0
 10
0.0
 20
0.0
 11
1.0
 21
1.0
 12
210.0
 22
148.5
 13
0.0
 23
0.0
 14
1.0
 24
1.0
 15
0.0
 25
0.0
 16
0.0
 26
0.0
 36
1.0
 17
0.0
 27
0.0
 37
0.0
 40
297.0
 41
1.4141414141
 42
50.0
 43
0.0
 44
0.0
 50
0.0
 51
0.0
 71
0
 72
100
 73
1
 74
1
 75
0
 76
0
 77
0
 78
0
  0
ENDTAB
  0
TABLE
  2
LTYPE
  5
5
100
AcDbSymbolTable
 70
6
  0
LTYPE
  5
14
100
AcDbSymbolTableRecord
100
AcDbLinetypeTableRecord
  2
BYBLOCK
 70
0
  3

 72
65
 73
0
 40
0.0
  0
LTYPE
  5
15
100
AcDbSymbolTableRecord
100
AcDbLinetypeTableRecord
  2
BYLAYER
 70
0
  3

 72
65
 73
0
 40
0.0
  0
LTYPE
  5
16
100
AcDbSymbolTableRecord
100
AcDbLinetypeTableRecord
  2
CONTINUOUS
 70
64
  3
Solid line
 72
65
 73
0
 40
0.0
  0
LTYPE
  5
1F5
100
AcDbSymbolTableRecord
100
AcDbLinetypeTableRecord
  2
CENTER
 70
64
  3
____ _ ____ _ ____ _ ____ _ ____ _ ____ _ ____
 72
65
 73
4
 40
0.6
 49
0.375
 74
0
 49
-0.075
 74
0
 49
0.075
 74
0
 49
-0.075
 74
0
  0
LTYPE
  5
1F6
100
AcDbSymbolTableRecord
100
AcDbLinetypeTableRecord
  2
HIDDEN
 70
64
  3
- - - - - - - - - - - - - - - - - - - -
 72
65
 73
2
 40
0.2
 49
0.1
 74
0
 49
-0.1
 74
0
  0
LTYPE
  5
1F7
100
AcDbSymbolTableRecord
100
AcDbLinetypeTableRecord
  2
PHANTOM
 70
64
  3
_____ _ _ _____ _ _ _____ _ _ _____
 72
65
 73
6
 40
0.8
 49
0.45
 74
0
 49
-0.05
 74
0
 49
0.1
 74
0
 49
-0.05
 74
0
 49
0.1
 74
0
 49
-0.05
 74
0
  0
LTYPE
  5
1F8
100
AcDbSymbolTableRecord
100
AcDbLinetypeTableRecord
  2
DOT
 70
64
  3
. . . . . . . . . . . . . . . . . . . .
 72
65
 73
2
 40
0.2
 49
0.1
 74
0
 49
-0.1
 74
0
  0
LTYPE
  5
1F9
100
AcDbSymbolTableRecord
100
AcDbLinetypeTableRecord
  2
DASHED
 70
64
  3
- - - - - - - - - - - - - - - - - - - -
 72
65
 73
2
 40
0.2
 49
0.1
 74
0
 49
-0.1
 74
0
  0
ENDTAB
  0
TABLE
  2
LAYER
  5
2
100
AcDbSymbolTable
 70
36
  0
LAYER
  5
10
100
AcDbSymbolTableRecord
100
AcDbLayerTableRecord
  2
0
 70
0
 62
7
  6
CONTINUOUS
370
-3
390
F
  0
LAYER
  5
1FA
100
AcDbSymbolTableRecord
100
AcDbLayerTableRecord
  2
DEFAULT_1
 70
0
 62
7
  6
CENTER
370
-3
390
F
  0
LAYER
  5
1FB
100
AcDbSymbolTableRecord
100
AcDbLayerTableRecord
  2
DEFAULT_2
 70
0
 62
8
  6
HIDDEN
370
-3
390
F
  0
LAYER
  5
1FC
100
AcDbSymbolTableRecord
100
AcDbLayerTableRecord
  2
DEFAULT_3
 70
0
 62
7
  6
PHANTOM
370
-3
390
F
  0
LAYER
  5
1FD
100
AcDbSymbolTableRecord
100
AcDbLayerTableRecord
  2
00_COMPONENTS
 70
0
 62
7
  6
CONTINUOUS
370
-3
390
F
  0
LAYER
  5
1FE
100
AcDbSymbolTableRecord
100
AcDbLayerTableRecord
  2
01_1_DEFAULT_DATUMS
 70
0
 62
7
  6
CONTINUOUS
370
-3
390
F
  0
LAYER
  5
1FF
100
AcDbSymbolTableRecord
100
AcDbLayerTableRecord
  2
01_ALL_DTM_PLN
 70
0
 62
7
  6
CONTINUOUS
370
-3
390
F
  0
LAYER
  5
200
100
AcDbSymbolTableRecord
100
AcDbLayerTableRecord
  2
01_PLANES
 70
0
 62
7
  6
CONTINUOUS
370
-3
390
F
  0
LAYER
  5
201
100
AcDbSymbolTableRecord
100
AcDbLayerTableRecord
  2
01__ASM_ALL_DTM_PLN
 70
0
 62
7
  6
CONTINUOUS
370
-3
390
F
  0
LAYER
  5
202
100
AcDbSymbolTableRecord
100
AcDbLayerTableRecord
  2
01__ASM_DEF_DTM_PLN
 70
0
 62
7
  6
CONTINUOUS
370
-3
390
F
  0
LAYER
  5
203
100
AcDbSymbolTableRecord
100
AcDbLayerTableRecord
  2
01___PRT_ALL_DTM_PLN
 70
0
 62
7
  6
CONTINUOUS
370
-3
390
F
  0
LAYER
  5
204
100
AcDbSymbolTableRecord
100
AcDbLayerTableRecord
  2
01___PRT_DEF_DTM_PLN
 70
0
 62
7
  6
CONTINUOUS
370
-3
390
F
  0
LAYER
  5
205
100
AcDbSymbolTableRecord
100
AcDbLayerTableRecord
  2
02_ALL_AXES
 70
0
 62
7
  6
CONTINUOUS
370
-3
390
F
  0
LAYER
  5
206
100
AcDbSymbolTableRecord
100
AcDbLayerTableRecord
  2
02_COORD_SYS
 70
0
 62
7
  6
CONTINUOUS
370
-3
390
F
  0
LAYER
  5
207
100
AcDbSymbolTableRecord
100
AcDbLayerTableRecord
  2
02__ASM_ALL_AXES
 70
0
 62
7
  6
CONTINUOUS
370
-3
390
F
  0
LAYER
  5
208
100
AcDbSymbolTableRecord
100
AcDbLayerTableRecord
  2
02___PRT_ALL_AXES
 70
0
 62
7
  6
CONTINUOUS
370
-3
390
F
  0
LAYER
  5
209
100
AcDbSymbolTableRecord
100
AcDbLayerTableRecord
  2
03_ALL_CURVES
 70
0
 62
7
  6
CONTINUOUS
370
-3
390
F
  0
LAYER
  5
20A
100
AcDbSymbolTableRecord
100
AcDbLayerTableRecord
  2
03_AXES
 70
0
 62
7
  6
CONTINUOUS
370
-3
390
F
  0
LAYER
  5
20B
100
AcDbSymbolTableRecord
100
AcDbLayerTableRecord
  2
03__ASM_ALL_CURVES
 70
0
 62
7
  6
CONTINUOUS
370
-3
390
F
  0
LAYER
  5
20C
100
AcDbSymbolTableRecord
100
AcDbLayerTableRecord
  2
03___PRT_ALL_CURVES
 70
0
 62
7
  6
CONTINUOUS
370
-3
390
F
  0
LAYER
  5
20D
100
AcDbSymbolTableRecord
100
AcDbLayerTableRecord
  2
04_ALL_DTM_PNT
 70
0
 62
7
  6
CONTINUOUS
370
-3
390
F
  0
LAYER
  5
20E
100
AcDbSymbolTableRecord
100
AcDbLayerTableRecord
  2
04_POINTS
 70
0
 62
7
  6
CONTINUOUS
370
-3
390
F
  0
LAYER
  5
20F
100
AcDbSymbolTableRecord
100
AcDbLayerTableRecord
  2
04__ASM_ALL_DTM_PNT
 70
0
 62
7
  6
CONTINUOUS
370
-3
390
F
  0
LAYER
  5
210
100
AcDbSymbolTableRecord
100
AcDbLayerTableRecord
  2
04___PRT_ALL_DTM_PNT
 70
0
 62
7
  6
CONTINUOUS
370
-3
390
F
  0
LAYER
  5
211
100
AcDbSymbolTableRecord
100
AcDbLayerTableRecord
  2
05_ALL_DTM_CSYS
 70
0
 62
7
  6
CONTINUOUS
370
-3
390
F
  0
LAYER
  5
212
100
AcDbSymbolTableRecord
100
AcDbLayerTableRecord
  2
05_CURVES
 70
0
 62
7
  6
CONTINUOUS
370
-3
390
F
  0
LAYER
  5
213
100
AcDbSymbolTableRecord
100
AcDbLayerTableRecord
  2
05__ASM_ALL_DTM_CSYS
 70
0
 62
7
  6
CONTINUOUS
370
-3
390
F
  0
LAYER
  5
214
100
AcDbSymbolTableRecord
100
AcDbLayerTableRecord
  2
05__ASM_DEF_DTM_CSYS
 70
0
 62
7
  6
CONTINUOUS
370
-3
390
F
  0
LAYER
  5
215
100
AcDbSymbolTableRecord
100
AcDbLayerTableRecord
  2
05___PRT_ALL_DTM_CSYS
 70
0
 62
7
  6
CONTINUOUS
370
-3
390
F
  0
LAYER
  5
216
100
AcDbSymbolTableRecord
100
AcDbLayerTableRecord
  2
05___PRT_DEF_DTM_CSYS
 70
0
 62
7
  6
CONTINUOUS
370
-3
390
F
  0
LAYER
  5
217
100
AcDbSymbolTableRecord
100
AcDbLayerTableRecord
  2
06_ALL_SURFS
 70
0
 62
7
  6
CONTINUOUS
370
-3
390
F
  0
LAYER
  5
218
100
AcDbSymbolTableRecord
100
AcDbLayerTableRecord
  2
06_SURFS
 70
0
 62
7
  6
CONTINUOUS
370
-3
390
F
  0
LAYER
  5
219
100
AcDbSymbolTableRecord
100
AcDbLayerTableRecord
  2
06__ASM_ALL_SURFS
 70
0
 62
7
  6
CONTINUOUS
370
-3
390
F
  0
LAYER
  5
21A
100
AcDbSymbolTableRecord
100
AcDbLayerTableRecord
  2
06___PRT_ALL_SURFS
 70
0
 62
7
  6
CONTINUOUS
370
-3
390
F
  0
LAYER
  5
21B
100
AcDbSymbolTableRecord
100
AcDbLayerTableRecord
  2
07_COSMETICS
 70
0
 62
7
  6
CONTINUOUS
370
-3
390
F
  0
LAYER
  5
21C
100
AcDbSymbolTableRecord
100
AcDbLayerTableRecord
  2
07__ASM_ALL_SKELETONS
 70
0
 62
7
  6
CONTINUOUS
370
-3
390
F
  0
LAYER
  5
21D
100
AcDbSymbolTableRecord
100
AcDbLayerTableRecord
  2
10_NOTES
 70
0
 62
7
  6
CONTINUOUS
370
-3
390
F
  0
LAYER
  5
21E
100
AcDbSymbolTableRecord
100
AcDbLayerTableRecord
  2
13_REF_GTOL
 70
0
 62
7
  6
CONTINUOUS
370
-3
390
F
  0
LAYER
  5
21F
100
AcDbSymbolTableRecord
100
AcDbLayerTableRecord
  2
16_MISC
 70
0
 62
7
  6
CONTINUOUS
370
-3
390
F
  0
LAYER
  5
220
100
AcDbSymbolTableRecord
100
AcDbLayerTableRecord
  2
17_NO_PRINT
 70
0
 62
7
  6
CONTINUOUS
370
-3
390
F
  0
LAYER
  5
221
100
AcDbSymbolTableRecord
100
AcDbLayerTableRecord
  2
18_DATUM_CAMS_JOINTS
 70
0
 62
7
  6
CONTINUOUS
370
-3
390
F
  0
LAYER
  5
222
100
AcDbSymbolTableRecord
100
AcDbLayerTableRecord
  2
19_DATUM_FUNCTIONAL
 70
0
 62
7
  6
CONTINUOUS
370
-3
390
F
  0
LAYER
  5
223
100
AcDbSymbolTableRecord
100
AcDbLayerTableRecord
  2
20_DATUM_KINEMATIC_SCHEME
 70
0
 62
7
  6
CONTINUOUS
370
-3
390
F
  0
LAYER
  5
224
100
AcDbSymbolTableRecord
100
AcDbLayerTableRecord
  2
AXIS
 70
0
 62
7
  6
CONTINUOUS
370
-3
390
F
  0
LAYER
  5
225
100
AcDbSymbolTableRecord
100
AcDbLayerTableRecord
  2
CURVE
 70
0
 62
7
  6
CONTINUOUS
370
-3
390
F
  0
LAYER
  5
226
100
AcDbSymbolTableRecord
100
AcDbLayerTableRecord
  2
DETAILS
 70
0
 62
7
  6
CONTINUOUS
370
-3
390
F
  0
LAYER
  5
227
100
AcDbSymbolTableRecord
100
AcDbLayerTableRecord
  2
NOTES
 70
0
 62
7
  6
CONTINUOUS
370
-3
390
F
  0
LAYER
  5
228
100
AcDbSymbolTableRecord
100
AcDbLayerTableRecord
  2
ROUNDS
 70
0
 62
7
  6
CONTINUOUS
370
-3
390
F
  0
ENDTAB
  0
TABLE
  2
STYLE
  5
3
100
AcDbSymbolTable
 70
1
  0
STYLE
  5
11
100
AcDbSymbolTableRecord
100
AcDbTextStyleTableRecord
  2
STANDARD
 70
0
 40
0.0
 41
1.0
 50
0.0
 71
0
 42
0.2
  3
changfangsong.ttf
  4

  0
STYLE
  5
229
100
AcDbSymbolTableRecord
100
AcDbTextStyleTableRecord
  2
TEXTSTYLE_1
 70
0
 40
0.0
 41
0.8
 50
0.0
 71
0
 42
0.2
  3
gdt
  4

  0
STYLE
  5
22A
100
AcDbSymbolTableRecord
100
AcDbTextStyleTableRecord
  2
TEXTSTYLE_2
 70
0
 40
0.0
 41
0.7
 50
0.0
 71
0
 42
0.2
  3
gdt
  4

  0
ENDTAB
  0
TABLE
  2
VIEW
  5
6
100
AcDbSymbolTable
 70
0
  0
ENDTAB
  0
TABLE
  2
UCS
  5
7
100
AcDbSymbolTable
 70
0
  0
ENDTAB
  0
TABLE
  2
APPID
  5
9
100
AcDbSymbolTable
 70
1
  0
APPID
  5
22B
100
AcDbSymbolTableRecord
100
AcDbRegAppTableRecord
  2
ACAD
 70
0
  0
ENDTAB
  0
TABLE
  2
BLOCK_RECORD
  5
1
100
AcDbSymbolTable
 70
0
  0
BLOCK_RECORD
  5
22C
100
AcDbSymbolTableRecord
100
AcDbBlockTableRecord
  2
*Model_Space
  0
BLOCK_RECORD
  5
22D
100
AcDbSymbolTableRecord
100
AcDbBlockTableRecord
  2
*Paper_Space
  0
BLOCK_RECORD
  5
22E
100
AcDbSymbolTableRecord
100
AcDbBlockTableRecord
  2
_FILLED
  0
BLOCK_RECORD
  5
22F
100
AcDbSymbolTableRecord
100
AcDbBlockTableRecord
  2
*D0
  0
BLOCK_RECORD
  5
230
100
AcDbSymbolTableRecord
100
AcDbBlockTableRecord
  2
*D1
  0
BLOCK_RECORD
  5
231
100
AcDbSymbolTableRecord
100
AcDbBlockTableRecord
  2
*D2
  0
BLOCK_RECORD
  5
232
100
AcDbSymbolTableRecord
100
AcDbBlockTableRecord
  2
*D3
  0
BLOCK_RECORD
  5
233
100
AcDbSymbolTableRecord
100
AcDbBlockTableRecord
  2
*D4
  0
BLOCK_RECORD
  5
234
100
AcDbSymbolTableRecord
100
AcDbBlockTableRecord
  2
*D5
  0
BLOCK_RECORD
  5
235
100
AcDbSymbolTableRecord
100
AcDbBlockTableRecord
  2
*D6
  0
ENDTAB
  0
TABLE
  2
DIMSTYLE
  5
A
100
AcDbSymbolTable
 70
1
100
AcDbDimStyleTable
 71
0
  0
DIMSTYLE
105
236
100
AcDbSymbolTableRecord
100
AcDbDimStyleTableRecord
  2
STANDARD
 70
0
  3

  4

 40
1.0
 41
3.5
 42
0.0
 43
0.38
 44
1.5
 45
0.0
 46
0.0
 47
0.01
 48
0.01
140
3.5
141
0.09
142
0.0
143
25.4
144
1.0
145
0.0
146
1.0
147
0.625
 71
1.0
 72
0.0
 73
0
 74
0
 75
0
 76
0
 77
1
 78
8
 79
2
170
0
171
1
172
0
173
0
174
0
175
0
176
0
177
0
178
5
270
2
179
2
271
2
272
2
273
2
274
2
275
0
280
0
281
0
282
0
283
1
284
8
285
0
286
0
287
3
288
0
340
11
278
46
341
22E
342
22E
343
22E
344
22E
  0
DIMSTYLE
105
237
100
AcDbSymbolTableRecord
100
AcDbDimStyleTableRecord
  2
DIMSTYLE_1
 70
0
  3

  4

 40
1.0
 41
3.5
 42
0.0
 43
0.38
 44
1.5
 45
0.0
 46
0.0
 47
0.01
 48
0.01
140
3.5
141
0.09
142
0.0
143
25.4
144
1.0
145
0.0
146
1.0
147
0.875
 71
0.0
 72
0.0
 73
0
 74
0
 75
0
 76
0
 77
1
 78
8
 79
2
170
0
171
1
172
0
173
0
174
0
175
0
176
0
177
0
178
5
270
2
179
2
271
2
272
2
273
2
274
2
275
0
280
0
281
0
282
0
283
1
284
8
285
0
286
0
287
3
288
0
340
11
278
46
341
22E
342
22E
343
22E
344
22E
  0
ENDTAB
  0
ENDSEC
  0
SECTION
  2
BLOCKS
  0
BLOCK
  5
20
100
AcDbEntity
  8
0
100
AcDbBlockBegin
  2
*Model_Space
 70
0
 10
0.0
 20
0.0
 30
0.0
  3
*Model_Space
  1

  0
ENDBLK
  5
21
100
AcDbEntity
  8
0
100
AcDbBlockEnd
  0
BLOCK
  5
1C
100
AcDbEntity
  8
0
100
AcDbBlockBegin
  2
*Paper_Space
 70
0
 10
0.0
 20
0.0
 30
0.0
  3
*Paper_Space
  1

  0
ENDBLK
  5
1D
100
AcDbEntity
  8
0
100
AcDbBlockEnd
  0
BLOCK
  5
238
100
AcDbEntity
  8
0
100
AcDbBlockBegin
  2
_FILLED
 70
64
 10
0.0
 20
0.0
  3
_FILLED
  1

  0
SOLID
  5
239
100
AcDbEntity
  8
0
  6
BYBLOCK
 62
0
100
AcDbTrace
 10
0.0
 20
0.0
 11
-1.0
 21
0.1428571429
 12
-1.0
 22
-0.1428571429
 13
-1.0
 23
-0.1428571429
  0
ENDBLK
  5
23A
100
AcDbEntity
  8
0
  6
BYBLOCK
 62
0
100
AcDbBlockEnd
  0
BLOCK
  5
23B
100
AcDbEntity
  8
0
100
AcDbBlockBegin
 62
2
  6
CONTINUOUS
  2
*D0
 70
65
 10
0.0
 20
0.0
  3
*D0
  1

  0
MTEXT
  5
23C
100
AcDbEntity
  8
0
100
AcDbMText
 62
5
  6
CONTINUOUS
  7
STANDARD
 71
2
 72
1
 10
151.1067026756
 20
206.194863143
 30
0.0
 11
1.0
 21
0.0
 31
0.0
 73
2
 44
0.9
  1
45[1.77]
 40
3.5
 41
14.493442623
  0
LINE
  5
23D
100
AcDbEntity
  8
0
100
AcDbLine
 62
2
  6
CONTINUOUS
 10
128.6067026756
 20
169.6127563618
 11
128.6067026756
 21
203.319863143
  0
LINE
  5
23E
100
AcDbEntity
  8
0
100
AcDbLine
 62
2
  6
CONTINUOUS
 10
173.6067026756
 20
180.4056495806
 11
173.6067026756
 21
203.319863143
  0
LINE
  5
23F
100
AcDbEntity
  8
0
100
AcDbLine
 62
2
  6
CONTINUOUS
 10
128.6067026756
 20
201.819863143
 11
151.1067026756
 21
201.819863143
  0
LINE
  5
240
100
AcDbEntity
  8
0
100
AcDbLine
 62
2
  6
CONTINUOUS
 10
173.6067026756
 20
201.819863143
 11
151.1067026756
 21
201.819863143
  0
INSERT
  5
241
100
AcDbEntity
  8
0
100
AcDbBlockReference
 62
2
  6
CONTINUOUS
  2
_FILLED
 10
128.6067026756
 20
201.819863143
 41
3.5
 42
3.5
 43
3.5
 50
180.0
  0
INSERT
  5
242
100
AcDbEntity
  8
0
100
AcDbBlockReference
 62
2
  6
CONTINUOUS
  2
_FILLED
 10
173.6067026756
 20
201.819863143
 41
3.5
 42
3.5
 43
3.5
  0
ENDBLK
  5
243
100
AcDbEntity
  8
0
  6
BYBLOCK
 62
0
100
AcDbBlockEnd
  0
BLOCK
  5
244
100
AcDbEntity
  8
0
100
AcDbBlockBegin
 62
2
  6
CONTINUOUS
  2
*D1
 70
65
 10
0.0
 20
0.0
  3
*D1
  1

  0
MTEXT
  5
245
100
AcDbEntity
  8
0
100
AcDbMText
 62
5
  6
CONTINUOUS
  7
STANDARD
 71
2
 72
1
 10
151.1067026756
 20
200.194863143
 30
0.0
 11
1.0
 21
0.0
 31
0.0
 73
2
 44
0.9
  1
35[1.38]
 40
3.5
 41
15.2393442623
  0
LINE
  5
246
100
AcDbEntity
  8
0
100
AcDbLine
 62
2
  6
CONTINUOUS
 10
133.6067026756
 20
187.919863143
 11
133.6067026756
 21
197.319863143
  0
LINE
  5
247
100
AcDbEntity
  8
0
100
AcDbLine
 62
2
  6
CONTINUOUS
 10
168.6067026756
 20
187.919863143
 11
168.6067026756
 21
197.319863143
  0
LINE
  5
248
100
AcDbEntity
  8
0
100
AcDbLine
 62
2
  6
CONTINUOUS
 10
133.6067026756
 20
195.819863143
 11
151.1067026756
 21
195.819863143
  0
LINE
  5
249
100
AcDbEntity
  8
0
100
AcDbLine
 62
2
  6
CONTINUOUS
 10
168.6067026756
 20
195.819863143
 11
151.1067026756
 21
195.819863143
  0
INSERT
  5
24A
100
AcDbEntity
  8
0
100
AcDbBlockReference
 62
2
  6
CONTINUOUS
  2
_FILLED
 10
133.6067026756
 20
195.819863143
 41
3.5
 42
3.5
 43
3.5
 50
180.0
  0
INSERT
  5
24B
100
AcDbEntity
  8
0
100
AcDbBlockReference
 62
2
  6
CONTINUOUS
  2
_FILLED
 10
168.6067026756
 20
195.819863143
 41
3.5
 42
3.5
 43
3.5
  0
ENDBLK
  5
24C
100
AcDbEntity
  8
0
  6
BYBLOCK
 62
0
100
AcDbBlockEnd
  0
BLOCK
  5
24D
100
AcDbEntity
  8
0
100
AcDbBlockBegin
 62
2
  6
CONTINUOUS
  2
*D2
 70
65
 10
0.0
 20
0.0
  3
*D2
  1

  0
MTEXT
  5
24E
100
AcDbEntity
  8
0
100
AcDbMText
 62
5
  6
CONTINUOUS
  7
STANDARD
 71
2
 72
1
 10
179.2317026756
 20
156.819863143
 30
0.0
 11
0.0
 21
1.0
 31
0.0
 73
2
 44
0.9
  1
50[1.97]
 40
3.5
 41
14.8606557377
  0
LINE
  5
24F
100
AcDbEntity
  8
0
100
AcDbLine
 62
2
  6
CONTINUOUS
 10
174.7067026756
 20
181.819863143
 11
185.1067026756
 21
181.819863143
  0
LINE
  5
250
100
AcDbEntity
  8
0
100
AcDbLine
 62
2
  6
CONTINUOUS
 10
174.7067026756
 20
131.819863143
 11
185.1067026756
 21
131.819863143
  0
LINE
  5
251
100
AcDbEntity
  8
0
100
AcDbLine
 62
2
  6
CONTINUOUS
 10
183.6067026756
 20
181.819863143
 11
183.6067026756
 21
156.819863143
  0
LINE
  5
252
100
AcDbEntity
  8
0
100
AcDbLine
 62
2
  6
CONTINUOUS
 10
183.6067026756
 20
131.819863143
 11
183.6067026756
 21
156.819863143
  0
INSERT
  5
253
100
AcDbEntity
  8
0
100
AcDbBlockReference
 62
2
  6
CONTINUOUS
  2
_FILLED
 10
183.6067026756
 20
181.819863143
 41
3.5
 42
3.5
 43
3.5
 50
90.0
  0
INSERT
  5
254
100
AcDbEntity
  8
0
100
AcDbBlockReference
 62
2
  6
CONTINUOUS
  2
_FILLED
 10
183.6067026756
 20
131.819863143
 41
3.5
 42
3.5
 43
3.5
 50
270.0
  0
ENDBLK
  5
255
100
AcDbEntity
  8
0
  6
BYBLOCK
 62
0
100
AcDbBlockEnd
  0
BLOCK
  5
256
100
AcDbEntity
  8
0
100
AcDbBlockBegin
 62
2
  6
CONTINUOUS
  2
*D3
 70
65
 10
0.0
 20
0.0
  3
*D3
  1

  0
MTEXT
  5
257
100
AcDbEntity
  8
0
100
AcDbMText
 62
5
  6
CONTINUOUS
  7
TEXTSTYLE_2
 71
3
 72
1
 10
161.7612866857
 20
122.194863143
 30
0.0
 11
1.0
 21
0.0
 31
0.0
 73
2
 44
0.9
  1
{\fgdt;n}\fChangFangSong;4.2[0.17]
 40
3.5
 41
21.374863388
  0
LINE
  5
258
100
AcDbEntity
  8
0
100
AcDbLine
 62
2
  6
CONTINUOUS
 10
166.5067026756
 20
131.819863143
 11
166.5067026756
 21
116.319863143
  0
LINE
  5
259
100
AcDbEntity
  8
0
100
AcDbLine
 62
2
  6
CONTINUOUS
 10
170.7067026756
 20
131.819863143
 11
170.7067026756
 21
116.319863143
  0
LINE
  5
25A
100
AcDbEntity
  8
0
100
AcDbLine
 62
2
  6
CONTINUOUS
 10
166.5067026756
 20
117.819863143
 11
140.3864232977
 21
117.819863143
  0
LINE
  5
25B
100
AcDbEntity
  8
0
100
AcDbLine
 62
2
  6
CONTINUOUS
 10
140.3864232977
 20
117.819863143
 11
168.6067026756
 21
117.819863143
  0
LINE
  5
25C
100
AcDbEntity
  8
0
100
AcDbLine
 62
2
  6
CONTINUOUS
 10
170.7067026756
 20
117.819863143
 11
175.7067026756
 21
117.819863143
  0
LINE
  5
25D
100
AcDbEntity
  8
0
100
AcDbLine
 62
2
  6
CONTINUOUS
 10
175.7067026756
 20
117.819863143
 11
168.6067026756
 21
117.819863143
  0
INSERT
  5
25E
100
AcDbEntity
  8
0
100
AcDbBlockReference
 62
2
  6
CONTINUOUS
  2
_FILLED
 10
166.5067026756
 20
117.819863143
 41
3.5
 42
3.5
 43
3.5
  0
INSERT
  5
25F
100
AcDbEntity
  8
0
100
AcDbBlockReference
 62
2
  6
CONTINUOUS
  2
_FILLED
 10
170.7067026756
 20
117.819863143
 41
3.5
 42
3.5
 43
3.5
 50
180.0
  0
ENDBLK
  5
260
100
AcDbEntity
  8
0
  6
BYBLOCK
 62
0
100
AcDbBlockEnd
  0
BLOCK
  5
261
100
AcDbEntity
  8
0
100
AcDbBlockBegin
 62
2
  6
CONTINUOUS
  2
*D4
 70
65
 10
0.0
 20
0.0
  3
*D4
  1

  0
MTEXT
  5
262
100
AcDbEntity
  8
0
100
AcDbMText
 62
5
  6
CONTINUOUS
  7
STANDARD
 71
2
 72
1
 10
251.0292759961
 20
200.194863143
 30
0.0
 11
1.0
 21
0.0
 31
0.0
 73
2
 44
0.9
  1
58[2.28]/62[2.44] with HCAC-1
 40
3.5
 41
54.5770491803
  0
LINE
  5
263
100
AcDbEntity
  8
0
100
AcDbLine
 62
2
  6
CONTINUOUS
 10
280.0292759961
 20
180.4056495806
 11
280.0292759961
 21
197.319863143
  0
LINE
  5
264
100
AcDbEntity
  8
0
100
AcDbLine
 62
2
  6
CONTINUOUS
 10
222.0292759961
 20
185.819863143
 11
222.0292759961
 21
197.319863143
  0
LINE
  5
265
100
AcDbEntity
  8
0
100
AcDbLine
 62
2
  6
CONTINUOUS
 10
280.0292759961
 20
195.819863143
 11
251.0292759961
 21
195.819863143
  0
LINE
  5
266
100
AcDbEntity
  8
0
100
AcDbLine
 62
2
  6
CONTINUOUS
 10
222.0292759961
 20
195.819863143
 11
251.0292759961
 21
195.819863143
  0
INSERT
  5
267
100
AcDbEntity
  8
0
100
AcDbBlockReference
 62
2
  6
CONTINUOUS
  2
_FILLED
 10
280.0292759961
 20
195.819863143
 41
3.5
 42
3.5
 43
3.5
  0
INSERT
  5
268
100
AcDbEntity
  8
0
100
AcDbBlockReference
 62
2
  6
CONTINUOUS
  2
_FILLED
 10
222.0292759961
 20
195.819863143
 41
3.5
 42
3.5
 43
3.5
 50
180.0
  0
ENDBLK
  5
269
100
AcDbEntity
  8
0
  6
BYBLOCK
 62
0
100
AcDbBlockEnd
  0
BLOCK
  5
26A
100
AcDbEntity
  8
0
100
AcDbBlockBegin
 62
2
  6
CONTINUOUS
  2
*D5
 70
65
 10
0.0
 20
0.0
  3
*D5
  1

  0
MTEXT
  5
26B
100
AcDbEntity
  8
0
100
AcDbMText
 62
5
  6
CONTINUOUS
  7
STANDARD
 71
2
 72
1
 10
269.5292759961
 20
206.194863143
 30
0.0
 11
1.0
 21
0.0
 31
0.0
 73
2
 44
0.9
  1
95[3.74] with HCAU-4M
 40
3.5
 41
38.4540983607
  0
LINE
  5
26C
100
AcDbEntity
  8
0
100
AcDbLine
 62
2
  6
CONTINUOUS
 10
222.0292759961
 20
185.819863143
 11
222.0292759961
 21
203.319863143
  0
LINE
  5
26D
100
AcDbEntity
  8
0
100
AcDbLine
 62
2
  6
CONTINUOUS
 10
317.0292759961
 20
169.6127563618
 11
317.0292759961
 21
203.319863143
  0
LINE
  5
26E
100
AcDbEntity
  8
0
100
AcDbLine
 62
2
  6
CONTINUOUS
 10
222.0292759961
 20
201.819863143
 11
269.5292759961
 21
201.819863143
  0
LINE
  5
26F
100
AcDbEntity
  8
0
100
AcDbLine
 62
2
  6
CONTINUOUS
 10
317.0292759961
 20
201.819863143
 11
269.5292759961
 21
201.819863143
  0
INSERT
  5
270
100
AcDbEntity
  8
0
100
AcDbBlockReference
 62
2
  6
CONTINUOUS
  2
_FILLED
 10
222.0292759961
 20
201.819863143
 41
3.5
 42
3.5
 43
3.5
 50
180.0
  0
INSERT
  5
271
100
AcDbEntity
  8
0
100
AcDbBlockReference
 62
2
  6
CONTINUOUS
  2
_FILLED
 10
317.0292759961
 20
201.819863143
 41
3.5
 42
3.5
 43
3.5
  0
ENDBLK
  5
272
100
AcDbEntity
  8
0
  6
BYBLOCK
 62
0
100
AcDbBlockEnd
  0
BLOCK
  5
273
100
AcDbEntity
  8
0
100
AcDbBlockBegin
 62
2
  6
CONTINUOUS
  2
*D6
 70
65
 10
0.0
 20
0.0
  3
*D6
  1

  0
MTEXT
  5
274
100
AcDbEntity
  8
0
100
AcDbMText
 62
5
  6
CONTINUOUS
  7
STANDARD
 71
2
 72
1
 10
206.2281057513
 20
156.819863143
 30
0.0
 11
0.0
 21
1.0
 31
0.0
 73
2
 44
0.9
  1
58[2.28]
 40
3.5
 41
14.9409836066
  0
LINE
  5
275
100
AcDbEntity
  8
0
100
AcDbLine
 62
2
  6
CONTINUOUS
 10
222.0292759961
 20
185.819863143
 11
209.1031057513
 21
185.819863143
  0
LINE
  5
276
100
AcDbEntity
  8
0
100
AcDbLine
 62
2
  6
CONTINUOUS
 10
222.0292759961
 20
127.819863143
 11
209.1031057513
 21
127.819863143
  0
LINE
  5
277
100
AcDbEntity
  8
0
100
AcDbLine
 62
2
  6
CONTINUOUS
 10
210.6031057513
 20
185.819863143
 11
210.6031057513
 21
156.819863143
  0
LINE
  5
278
100
AcDbEntity
  8
0
100
AcDbLine
 62
2
  6
CONTINUOUS
 10
210.6031057513
 20
127.819863143
 11
210.6031057513
 21
156.819863143
  0
INSERT
  5
279
100
AcDbEntity
  8
0
100
AcDbBlockReference
 62
2
  6
CONTINUOUS
  2
_FILLED
 10
210.6031057513
 20
185.819863143
 41
3.5
 42
3.5
 43
3.5
 50
90.0
  0
INSERT
  5
27A
100
AcDbEntity
  8
0
100
AcDbBlockReference
 62
2
  6
CONTINUOUS
  2
_FILLED
 10
210.6031057513
 20
127.819863143
 41
3.5
 42
3.5
 43
3.5
 50
270.0
  0
ENDBLK
  5
27B
100
AcDbEntity
  8
0
  6
BYBLOCK
 62
0
100
AcDbBlockEnd
  0
ENDSEC
  0
SECTION
  2
ENTITIES
  0
DIMENSION
  5
27C
100
AcDbEntity
  8
0
100
AcDbDimension
 62
2
  6
CONTINUOUS
  2
*D0
 10
173.6067026756
 20
201.819863143
 11
151.1067026756
 21
201.819863143
 70
160
 71
2
 72
2
 41
0.9
 42
45.0
  1
<>[1.77]
  3
DIMSTYLE_1
100
AcDbAlignedDimension
 13
128.6067026756
 23
169.6127563618
 14
173.6067026756
 24
180.4056495806
100
AcDbRotatedDimension
  0
DIMENSION
  5
27D
100
AcDbEntity
  8
0
100
AcDbDimension
 62
2
  6
CONTINUOUS
  2
*D1
 10
168.6067026756
 20
195.819863143
 11
151.1067026756
 21
195.819863143
 70
160
 71
2
 72
2
 41
0.9
 42
35.0
  1
<>[1.38]
  3
DIMSTYLE_1
100
AcDbAlignedDimension
 13
133.6067026756
 23
187.919863143
 14
168.6067026756
 24
187.919863143
100
AcDbRotatedDimension
  0
DIMENSION
  5
27E
100
AcDbEntity
  8
0
100
AcDbDimension
 62
2
  6
CONTINUOUS
  2
*D2
 10
183.6067026756
 20
131.819863143
 11
183.6067026756
 21
156.819863143
 70
160
 71
2
 72
2
 41
0.9
 42
50.0
  1
<>[1.97]
  3
DIMSTYLE_1
100
AcDbAlignedDimension
 13
174.7067026756
 23
181.819863143
 14
174.7067026756
 24
131.819863143
 50
270.0
100
AcDbRotatedDimension
  0
DIMENSION
  5
27F
100
AcDbEntity
  8
0
100
AcDbDimension
 62
2
  6
CONTINUOUS
  2
*D3
 10
170.7067026756
 20
117.819863143
 11
151.0738549917
 21
117.819863143
 70
160
 71
3
 72
2
 41
0.9
 42
4.2
  1
%%c<>[0.17]
  3
DIMSTYLE_1
100
AcDbAlignedDimension
 13
166.5067026756
 23
131.819863143
 14
170.7067026756
 24
131.819863143
100
AcDbRotatedDimension
  0
DIMENSION
  5
280
100
AcDbEntity
  8
0
100
AcDbDimension
 62
2
  6
CONTINUOUS
  2
*D4
 10
222.0292759961
 20
195.819863143
 11
251.0292759961
 21
195.819863143
 70
160
 71
2
 72
2
 41
0.9
 42
58.0
  1
<>[2.28]/62[2.44] with HCAC-1
  3
DIMSTYLE_1
100
AcDbAlignedDimension
 13
280.0292759961
 23
180.4056495806
 14
222.0292759961
 24
185.819863143
 50
180.0
100
AcDbRotatedDimension
  0
DIMENSION
  5
281
100
AcDbEntity
  8
0
100
AcDbDimension
 62
2
  6
CONTINUOUS
  2
*D5
 10
317.0292759961
 20
201.819863143
 11
269.5292759961
 21
201.819863143
 70
160
 71
2
 72
2
 41
0.9
 42
95.0
  1
<>[3.74] with HCAU-4M
  3
DIMSTYLE_1
100
AcDbAlignedDimension
 13
222.0292759961
 23
185.819863143
 14
317.0292759961
 24
169.6127563618
100
AcDbRotatedDimension
  0
DIMENSION
  5
282
100
AcDbEntity
  8
0
100
AcDbDimension
 62
2
  6
CONTINUOUS
  2
*D6
 10
210.6031057513
 20
127.819863143
 11
210.6031057513
 21
156.819863143
 70
160
 71
2
 72
2
 41
0.9
 42
58.0
  1
<>[2.28]
  3
DIMSTYLE_1
100
AcDbAlignedDimension
 13
222.0292759961
 23
185.819863143
 14
222.0292759961
 24
127.819863143
 50
270.0
100
AcDbRotatedDimension
  0
LINE
  5
283
100
AcDbEntity
  8
0
100
AcDbLine
 62
7
  6
CONTINUOUS
 10
170.6067026756
 20
127.819863143
 11
131.6067026756
 21
127.819863143
  0
LINE
  5
284
100
AcDbEntity
  8
0
100
AcDbLine
 62
7
  6
CONTINUOUS
 10
173.1067026756
 20
129.319863143
 11
172.1067026756
 21
129.319863143
  0
LINE
  5
285
100
AcDbEntity
  8
0
100
AcDbLine
 62
7
  6
CONTINUOUS
 10
164.6567026756
 20
129.319863143
 11
163.6567026756
 21
129.319863143
  0
LINE
  5
286
100
AcDbEntity
  8
0
100
AcDbLine
 62
7
  6
CONTINUOUS
 10
155.9567026756
 20
129.319863143
 11
154.9567026756
 21
129.319863143
  0
LINE
  5
287
100
AcDbEntity
  8
0
100
AcDbLine
 62
7
  6
CONTINUOUS
 10
147.2567026756
 20
129.319863143
 11
146.2567026756
 21
129.319863143
  0
LINE
  5
288
100
AcDbEntity
  8
0
100
AcDbLine
 62
7
  6
CONTINUOUS
 10
138.5567026756
 20
129.319863143
 11
137.5567026756
 21
129.319863143
  0
LINE
  5
289
100
AcDbEntity
  8
0
100
AcDbLine
 62
7
  6
CONTINUOUS
 10
130.1067026756
 20
129.319863143
 11
129.1067026756
 21
129.319863143
  0
LINE
  5
28A
100
AcDbEntity
  8
02___PRT_ALL_AXES
100
AcDbLine
 62
7
  6
CONTINUOUS
 10
141.0067026756
 20
130.319863143
 11
143.8067026756
 21
130.319863143
  0
LINE
  5
28B
100
AcDbEntity
  8
02___PRT_ALL_AXES
100
AcDbLine
 62
7
  6
CONTINUOUS
 10
158.4067026756
 20
130.319863143
 11
161.2067026756
 21
130.319863143
  0
LINE
  5
28C
100
AcDbEntity
  8
0
100
AcDbLine
 62
7
  6
CONTINUOUS
 10
129.8567026756
 20
130.819863143
 11
130.1067026756
 21
130.819863143
  0
LINE
  5
28D
100
AcDbEntity
  8
0
100
AcDbLine
 62
7
  6
CONTINUOUS
 10
172.1067026756
 20
130.819863143
 11
172.3567026756
 21
130.819863143
  0
LINE
  5
28E
100
AcDbEntity
  8
02___PRT_ALL_AXES
100
AcDbLine
 62
2
  6
CENTER
 10
168.6067026756
 20
131.819863143
 11
162.5067026756
 21
131.819863143
  0
LINE
  5
28F
100
AcDbEntity
  8
02___PRT_ALL_AXES
100
AcDbLine
 62
2
  6
CENTER
 10
133.6067026756
 20
131.819863143
 11
127.5067026756
 21
131.819863143
  0
LINE
  5
290
100
AcDbEntity
  8
02___PRT_ALL_AXES
100
AcDbLine
 62
2
  6
CENTER
 10
133.6067026756
 20
131.819863143
 11
139.7067026756
 21
131.819863143
  0
LINE
  5
291
100
AcDbEntity
  8
02___PRT_ALL_AXES
100
AcDbLine
 62
2
  6
CENTER
 10
168.6067026756
 20
131.819863143
 11
174.7067026756
 21
131.819863143
  0
LINE
  5
292
100
AcDbEntity
  8
0
100
AcDbLine
 62
7
  6
CONTINUOUS
 10
129.4067026756
 20
132.319863143
 11
172.8067026756
 21
132.319863143
  0
LINE
  5
293
100
AcDbEntity
  8
0
100
AcDbLine
 62
7
  6
CONTINUOUS
 10
128.6067026756
 20
129.819863143
 11
128.6067026756
 21
183.819863143
  0
LINE
  5
294
100
AcDbEntity
  8
0
100
AcDbLine
 62
7
  6
CONTINUOUS
 10
129.4067026756
 20
129.4096834219
 11
129.4067026756
 21
140.819863143
  0
LINE
  5
295
100
AcDbEntity
  8
0
100
AcDbLine
 62
7
  6
CONTINUOUS
 10
129.4067026756
 20
172.819863143
 11
129.4067026756
 21
184.2300428641
  0
LINE
  5
296
100
AcDbEntity
  8
0
100
AcDbLine
 62
7
  6
CONTINUOUS
 10
129.6067026756
 20
137.019863143
 11
129.6067026756
 21
140.819863143
  0
LINE
  5
297
100
AcDbEntity
  8
0
100
AcDbLine
 62
7
  6
CONTINUOUS
 10
129.6067026756
 20
172.819863143
 11
129.6067026756
 21
176.619863143
  0
LINE
  5
298
100
AcDbEntity
  8
0
100
AcDbLine
 62
7
  6
CONTINUOUS
 10
129.7067026756
 20
140.819863143
 11
129.7067026756
 21
172.819863143
  0
LINE
  5
299
100
AcDbEntity
  8
0
100
AcDbLine
 62
7
  6
CONTINUOUS
 10
129.8567026756
 20
184.319863143
 11
129.8567026756
 21
181.319863143
  0
LINE
  5
29A
100
AcDbEntity
  8
0
100
AcDbLine
 62
7
  6
CONTINUOUS
 10
129.8567026756
 20
132.319863143
 11
129.8567026756
 21
129.319863143
  0
LINE
  5
29B
100
AcDbEntity
  8
0
100
AcDbLine
 62
7
  6
CONTINUOUS
 10
129.9067026756
 20
137.019863143
 11
129.9067026756
 21
143.819863143
  0
LINE
  5
29C
100
AcDbEntity
  8
0
100
AcDbLine
 62
7
  6
CONTINUOUS
 10
129.9067026756
 20
169.819863143
 11
129.9067026756
 21
176.619863143
  0
LINE
  5
29D
100
AcDbEntity
  8
0
100
AcDbLine
 62
7
  6
CONTINUOUS
 10
130.0567026756
 20
148.219863143
 11
130.0567026756
 21
165.419863143
  0
LINE
  5
29E
100
AcDbEntity
  8
0
100
AcDbLine
 62
7
  6
CONTINUOUS
 10
130.1067026756
 20
184.319863143
 11
130.1067026756
 21
182.819863143
  0
LINE
  5
29F
100
AcDbEntity
  8
0
100
AcDbLine
 62
7
  6
CONTINUOUS
 10
130.1067026756
 20
130.819863143
 11
130.1067026756
 21
129.319863143
  0
LINE
  5
2A0
100
AcDbEntity
  8
0
100
AcDbLine
 62
7
  6
CONTINUOUS
 10
130.1067026756
 20
181.319863143
 11
130.1067026756
 21
181.419656471
  0
LINE
  5
2A1
100
AcDbEntity
  8
0
100
AcDbLine
 62
7
  6
CONTINUOUS
 10
131.0567026756
 20
155.669863143
 11
131.0567026756
 21
157.969863143
  0
LINE
  5
2A2
100
AcDbEntity
  8
0
100
AcDbLine
 62
7
  6
CONTINUOUS
 10
131.3067026756
 20
157.319863143
 11
131.3067026756
 21
156.319863143
  0
LINE
  5
2A3
100
AcDbEntity
  8
0
100
AcDbLine
 62
7
  6
CONTINUOUS
 10
170.8067026756
 20
135.219863143
 11
166.2067026756
 21
135.219863143
  0
LINE
  5
2A4
100
AcDbEntity
  8
0
100
AcDbLine
 62
7
  6
CONTINUOUS
 10
162.1067026756
 20
135.219863143
 11
157.5067026756
 21
135.219863143
  0
LINE
  5
2A5
100
AcDbEntity
  8
0
100
AcDbLine
 62
7
  6
CONTINUOUS
 10
153.4067026756
 20
135.219863143
 11
148.8067026756
 21
135.219863143
  0
LINE
  5
2A6
100
AcDbEntity
  8
0
100
AcDbLine
 62
7
  6
CONTINUOUS
 10
144.7067026756
 20
135.219863143
 11
140.1067026756
 21
135.219863143
  0
LINE
  5
2A7
100
AcDbEntity
  8
0
100
AcDbLine
 62
7
  6
CONTINUOUS
 10
136.0067026756
 20
135.219863143
 11
131.4067026756
 21
135.219863143
  0
LINE
  5
2A8
100
AcDbEntity
  8
0
100
AcDbLine
 62
7
  6
CONTINUOUS
 10
170.8067026756
 20
135.519863143
 11
166.2067026756
 21
135.519863143
  0
LINE
  5
2A9
100
AcDbEntity
  8
0
100
AcDbLine
 62
7
  6
CONTINUOUS
 10
162.1067026756
 20
135.519863143
 11
157.5067026756
 21
135.519863143
  0
LINE
  5
2AA
100
AcDbEntity
  8
0
100
AcDbLine
 62
7
  6
CONTINUOUS
 10
153.4067026756
 20
135.519863143
 11
148.8067026756
 21
135.519863143
  0
LINE
  5
2AB
100
AcDbEntity
  8
0
100
AcDbLine
 62
7
  6
CONTINUOUS
 10
144.7067026756
 20
135.519863143
 11
140.1067026756
 21
135.519863143
  0
LINE
  5
2AC
100
AcDbEntity
  8
0
100
AcDbLine
 62
7
  6
CONTINUOUS
 10
136.0067026756
 20
135.519863143
 11
131.4067026756
 21
135.519863143
  0
LINE
  5
2AD
100
AcDbEntity
  8
0
100
AcDbLine
 62
7
  6
CONTINUOUS
 10
132.2142205131
 20
165.7233795915
 11
132.2142205131
 21
165.4951832762
  0
LINE
  5
2AE
100
AcDbEntity
  8
0
100
AcDbLine
 62
7
  6
CONTINUOUS
 10
132.2142205131
 20
160.1445430097
 11
132.2142205131
 21
159.9170023862
  0
LINE
  5
2AF
100
AcDbEntity
  8
0
100
AcDbLine
 62
7
  6
CONTINUOUS
 10
132.2142205131
 20
153.7232299029
 11
132.2142205131
 21
153.4951832762
  0
LINE
  5
2B0
100
AcDbEntity
  8
0
100
AcDbLine
 62
7
  6
CONTINUOUS
 10
132.2142205131
 20
148.1445430097
 11
132.2142205131
 21
147.9171281804
  0
LINE
  5
2B1
100
AcDbEntity
  8
0
100
AcDbLine
 62
7
  6
CONTINUOUS
 10
132.3642205131
 20
177.1137615889
 11
132.3642205131
 21
176.9951832762
  0
LINE
  5
2B2
100
AcDbEntity
  8
0
100
AcDbLine
 62
7
  6
CONTINUOUS
 10
132.3642205131
 20
171.6445430097
 11
132.3642205131
 21
171.5259646763
  0
LINE
  5
2B3
100
AcDbEntity
  8
0
100
AcDbLine
 62
7
  6
CONTINUOUS
 10
132.3642205131
 20
142.1137615889
 11
132.3642205131
 21
141.9951832762
  0
LINE
  5
2B4
100
AcDbEntity
  8
0
100
AcDbLine
 62
7
  6
CONTINUOUS
 10
132.3642205131
 20
136.6445430097
 11
132.3642205131
 21
136.5259646763
  0
LINE
  5
2B5
100
AcDbEntity
  8
0
100
AcDbLine
 62
7
  6
CONTINUOUS
 10
133.1167026756
 20
147.905296297
 11
133.1167026756
 21
150.379863143
  0
LINE
  5
2B6
100
AcDbEntity
  8
0
100
AcDbLine
 62
7
  6
CONTINUOUS
 10
133.1167026756
 20
151.259863143
 11
133.1167026756
 21
153.7344299889
  0
LINE
  5
2B7
100
AcDbEntity
  8
0
100
AcDbLine
 62
7
  6
CONTINUOUS
 10
133.1167026756
 20
159.905296297
 11
133.1167026756
 21
162.379863143
  0
LINE
  5
2B8
100
AcDbEntity
  8
0
100
AcDbLine
 62
7
  6
CONTINUOUS
 10
133.1167026756
 20
163.259863143
 11
133.1167026756
 21
165.7344299889
  0
LINE
  5
2B9
100
AcDbEntity
  8
0
100
AcDbLine
 62
7
  6
CONTINUOUS
 10
133.2667026756
 20
136.405296297
 11
133.2667026756
 21
138.879863143
  0
LINE
  5
2BA
100
AcDbEntity
  8
0
100
AcDbLine
 62
7
  6
CONTINUOUS
 10
133.2667026756
 20
139.759863143
 11
133.2667026756
 21
142.2344299889
  0
LINE
  5
2BB
100
AcDbEntity
  8
0
100
AcDbLine
 62
7
  6
CONTINUOUS
 10
133.2667026756
 20
171.405296297
 11
133.2667026756
 21
173.879863143
  0
LINE
  5
2BC
100
AcDbEntity
  8
0
100
AcDbLine
 62
7
  6
CONTINUOUS
 10
133.2667026756
 20
174.759863143
 11
133.2667026756
 21
177.2344299889
  0
LINE
  5
2BD
100
AcDbEntity
  8
02___PRT_ALL_AXES
100
AcDbLine
 62
2
  6
CENTER
 10
133.6067026756
 20
181.819863143
 11
133.6067026756
 21
175.719863143
  0
LINE
  5
2BE
100
AcDbEntity
  8
02___PRT_ALL_AXES
100
AcDbLine
 62
2
  6
CENTER
 10
133.6067026756
 20
131.819863143
 11
133.6067026756
 21
125.719863143
  0
LINE
  5
2BF
100
AcDbEntity
  8
02___PRT_ALL_AXES
100
AcDbLine
 62
2
  6
CENTER
 10
133.6067026756
 20
131.819863143
 11
133.6067026756
 21
137.919863143
  0
LINE
  5
2C0
100
AcDbEntity
  8
02___PRT_ALL_AXES
100
AcDbLine
 62
2
  6
CENTER
 10
133.6067026756
 20
181.819863143
 11
133.6067026756
 21
187.919863143
  0
LINE
  5
2C1
100
AcDbEntity
  8
0
100
AcDbLine
 62
7
  6
CONTINUOUS
 10
133.9967026756
 20
165.7344299889
 11
133.9967026756
 21
163.259863143
  0
LINE
  5
2C2
100
AcDbEntity
  8
0
100
AcDbLine
 62
7
  6
CONTINUOUS
 10
133.9967026756
 20
153.7344299889
 11
133.9967026756
 21
151.259863143
  0
LINE
  5
2C3
100
AcDbEntity
  8
0
100
AcDbLine
 62
7
  6
CONTINUOUS
 10
133.9967026756
 20
147.905296297
 11
133.9967026756
 21
150.379863143
  0
LINE
  5
2C4
100
AcDbEntity
  8
0
100
AcDbLine
 62
7
  6
CONTINUOUS
 10
133.9967026756
 20
159.905296297
 11
133.9967026756
 21
162.379863143
  0
LINE
  5
2C5
100
AcDbEntity
  8
0
100
AcDbLine
 62
7
  6
CONTINUOUS
 10
134.1467026756
 20
177.2344299889
 11
134.1467026756
 21
174.759863143
  0
LINE
  5
2C6
100
AcDbEntity
  8
0
100
AcDbLine
 62
7
  6
CONTINUOUS
 10
134.1467026756
 20
142.2344299889
 11
134.1467026756
 21
139.759863143
  0
LINE
  5
2C7
100
AcDbEntity
  8
0
100
AcDbLine
 62
7
  6
CONTINUOUS
 10
134.1467026756
 20
136.405296297
 11
134.1467026756
 21
138.879863143
  0
LINE
  5
2C8
100
AcDbEntity
  8
0
100
AcDbLine
 62
7
  6
CONTINUOUS
 10
134.1467026756
 20
171.405296297
 11
134.1467026756
 21
173.879863143
  0
LINE
  5
2C9
100
AcDbEntity
  8
0
100
AcDbLine
 62
7
  6
CONTINUOUS
 10
171.2717211401
 20
137.919863143
 11
171.1583147124
 21
137.919863143
  0
LINE
  5
2CA
100
AcDbEntity
  8
0
100
AcDbLine
 62
7
  6
CONTINUOUS
 10
165.8550906389
 20
137.919863143
 11
165.7441848544
 21
137.919863143
  0
LINE
  5
2CB
100
AcDbEntity
  8
0
100
AcDbLine
 62
7
  6
CONTINUOUS
 10
162.5717211401
 20
137.919863143
 11
162.4583147124
 21
137.919863143
  0
LINE
  5
2CC
100
AcDbEntity
  8
0
100
AcDbLine
 62
7
  6
CONTINUOUS
 10
157.1550906389
 20
137.919863143
 11
157.0441848544
 21
137.919863143
  0
LINE
  5
2CD
100
AcDbEntity
  8
0
100
AcDbLine
 62
7
  6
CONTINUOUS
 10
153.8718664367
 20
137.919863143
 11
153.7583147124
 21
137.919863143
  0
LINE
  5
2CE
100
AcDbEntity
  8
0
100
AcDbLine
 62
7
  6
CONTINUOUS
 10
148.4550906389
 20
137.919863143
 11
148.3443241468
 21
137.919863143
  0
LINE
  5
2CF
100
AcDbEntity
  8
0
100
AcDbLine
 62
7
  6
CONTINUOUS
 10
145.1718664367
 20
137.919863143
 11
145.0583147124
 21
137.919863143
  0
LINE
  5
2D0
100
AcDbEntity
  8
0
100
AcDbLine
 62
7
  6
CONTINUOUS
 10
139.7550906389
 20
137.919863143
 11
139.6443241468
 21
137.919863143
  0
LINE
  5
2D1
100
AcDbEntity
  8
0
100
AcDbLine
 62
7
  6
CONTINUOUS
 10
136.4718664367
 20
137.919863143
 11
136.3583147124
 21
137.919863143
  0
LINE
  5
2D2
100
AcDbEntity
  8
0
100
AcDbLine
 62
7
  6
CONTINUOUS
 10
131.0550906389
 20
137.919863143
 11
130.9443241468
 21
137.919863143
  0
LINE
  5
2D3
100
AcDbEntity
  8
0
100
AcDbLine
 62
7
  6
CONTINUOUS
 10
171.4212695216
 20
138.879863143
 11
168.9467026756
 21
138.879863143
  0
LINE
  5
2D4
100
AcDbEntity
  8
0
100
AcDbLine
 62
7
  6
CONTINUOUS
 10
162.7212695216
 20
138.879863143
 11
160.2467026756
 21
138.879863143
  0
LINE
  5
2D5
100
AcDbEntity
  8
0
100
AcDbLine
 62
7
  6
CONTINUOUS
 10
154.0212695216
 20
138.879863143
 11
151.5467026756
 21
138.879863143
  0
LINE
  5
2D6
100
AcDbEntity
  8
0
100
AcDbLine
 62
7
  6
CONTINUOUS
 10
145.3212695216
 20
138.879863143
 11
142.8467026756
 21
138.879863143
  0
LINE
  5
2D7
100
AcDbEntity
  8
0
100
AcDbLine
 62
7
  6
CONTINUOUS
 10
136.6212695216
 20
138.879863143
 11
134.1467026756
 21
138.879863143
  0
LINE
  5
2D8
100
AcDbEntity
  8
0
100
AcDbLine
 62
7
  6
CONTINUOUS
 10
130.7921358296
 20
138.879863143
 11
133.2667026756
 21
138.879863143
  0
LINE
  5
2D9
100
AcDbEntity
  8
0
100
AcDbLine
 62
7
  6
CONTINUOUS
 10
139.4921358296
 20
138.879863143
 11
141.9667026756
 21
138.879863143
  0
LINE
  5
2DA
100
AcDbEntity
  8
0
100
AcDbLine
 62
7
  6
CONTINUOUS
 10
148.1921358296
 20
138.879863143
 11
150.6667026756
 21
138.879863143
  0
LINE
  5
2DB
100
AcDbEntity
  8
0
100
AcDbLine
 62
7
  6
CONTINUOUS
 10
156.8921358296
 20
138.879863143
 11
159.3667026756
 21
138.879863143
  0
LINE
  5
2DC
100
AcDbEntity
  8
0
100
AcDbLine
 62
7
  6
CONTINUOUS
 10
165.5921358296
 20
138.879863143
 11
168.0667026756
 21
138.879863143
  0
LINE
  5
2DD
100
AcDbEntity
  8
0
100
AcDbLine
 62
7
  6
CONTINUOUS
 10
130.7921358296
 20
139.759863143
 11
133.2667026756
 21
139.759863143
  0
LINE
  5
2DE
100
AcDbEntity
  8
0
100
AcDbLine
 62
7
  6
CONTINUOUS
 10
134.1467026756
 20
139.759863143
 11
136.6212695216
 21
139.759863143
  0
LINE
  5
2DF
100
AcDbEntity
  8
0
100
AcDbLine
 62
7
  6
CONTINUOUS
 10
139.4921358296
 20
139.759863143
 11
141.9667026756
 21
139.759863143
  0
LINE
  5
2E0
100
AcDbEntity
  8
0
100
AcDbLine
 62
7
  6
CONTINUOUS
 10
142.8467026756
 20
139.759863143
 11
145.3212695216
 21
139.759863143
  0
LINE
  5
2E1
100
AcDbEntity
  8
0
100
AcDbLine
 62
7
  6
CONTINUOUS
 10
148.1921358296
 20
139.759863143
 11
150.6667026756
 21
139.759863143
  0
LINE
  5
2E2
100
AcDbEntity
  8
0
100
AcDbLine
 62
7
  6
CONTINUOUS
 10
151.5467026756
 20
139.759863143
 11
154.0212695216
 21
139.759863143
  0
LINE
  5
2E3
100
AcDbEntity
  8
0
100
AcDbLine
 62
7
  6
CONTINUOUS
 10
156.8921358296
 20
139.759863143
 11
159.3667026756
 21
139.759863143
  0
LINE
  5
2E4
100
AcDbEntity
  8
0
100
AcDbLine
 62
7
  6
CONTINUOUS
 10
160.2467026756
 20
139.759863143
 11
162.7212695216
 21
139.759863143
  0
LINE
  5
2E5
100
AcDbEntity
  8
0
100
AcDbLine
 62
7
  6
CONTINUOUS
 10
165.5921358296
 20
139.759863143
 11
168.0667026756
 21
139.759863143
  0
LINE
  5
2E6
100
AcDbEntity
  8
0
100
AcDbLine
 62
7
  6
CONTINUOUS
 10
168.9467026756
 20
139.759863143
 11
171.4212695216
 21
139.759863143
  0
LINE
  5
2E7
100
AcDbEntity
  8
0
100
AcDbLine
 62
7
  6
CONTINUOUS
 10
134.8991848381
 20
147.916496383
 11
134.8991848381
 21
148.1445430097
  0
LINE
  5
2E8
100
AcDbEntity
  8
0
100
AcDbLine
 62
7
  6
CONTINUOUS
 10
134.8991848381
 20
153.4951832762
 11
134.8991848381
 21
153.7225981056
  0
LINE
  5
2E9
100
AcDbEntity
  8
0
100
AcDbLine
 62
7
  6
CONTINUOUS
 10
134.8991848381
 20
159.9163868116
 11
134.8991848381
 21
160.1445430097
  0
LINE
  5
2EA
100
AcDbEntity
  8
0
100
AcDbLine
 62
7
  6
CONTINUOUS
 10
134.8991848381
 20
165.4951832762
 11
134.8991848381
 21
165.7235837422
  0
LINE
  5
2EB
100
AcDbEntity
  8
0
100
AcDbLine
 62
7
  6
CONTINUOUS
 10
135.0491848381
 20
136.5259646971
 11
135.0491848381
 21
136.6445430097
  0
LINE
  5
2EC
100
AcDbEntity
  8
0
100
AcDbLine
 62
7
  6
CONTINUOUS
 10
135.0491848381
 20
141.9951832762
 11
135.0491848381
 21
142.1137616096
  0
LINE
  5
2ED
100
AcDbEntity
  8
0
100
AcDbLine
 62
7
  6
CONTINUOUS
 10
135.0491848381
 20
171.5259646971
 11
135.0491848381
 21
171.6445430097
  0
LINE
  5
2EE
100
AcDbEntity
  8
0
100
AcDbLine
 62
7
  6
CONTINUOUS
 10
135.0491848381
 20
176.9951832762
 11
135.0491848381
 21
177.1137616096
  0
LINE
  5
2EF
100
AcDbEntity
  8
0
100
AcDbLine
 62
7
  6
CONTINUOUS
 10
135.8067026756
 20
156.319863143
 11
135.8067026756
 21
157.319863143
  0
LINE
  5
2F0
100
AcDbEntity
  8
0
100
AcDbLine
 62
7
  6
CONTINUOUS
 10
136.0567026756
 20
157.969863143
 11
136.0567026756
 21
155.669863143
  0
LINE
  5
2F1
100
AcDbEntity
  8
0
100
AcDbLine
 62
7
  6
CONTINUOUS
 10
130.9415389145
 20
140.719863143
 11
131.0550906389
 21
140.719863143
  0
LINE
  5
2F2
100
AcDbEntity
  8
0
100
AcDbLine
 62
7
  6
CONTINUOUS
 10
136.3583147124
 20
140.719863143
 11
136.4690812044
 21
140.719863143
  0
LINE
  5
2F3
100
AcDbEntity
  8
0
100
AcDbLine
 62
7
  6
CONTINUOUS
 10
139.6415389145
 20
140.719863143
 11
139.7550906389
 21
140.719863143
  0
LINE
  5
2F4
100
AcDbEntity
  8
0
100
AcDbLine
 62
7
  6
CONTINUOUS
 10
145.0583147124
 20
140.719863143
 11
145.1690812044
 21
140.719863143
  0
LINE
  5
2F5
100
AcDbEntity
  8
0
100
AcDbLine
 62
7
  6
CONTINUOUS
 10
148.3415389145
 20
140.719863143
 11
148.4550906389
 21
140.719863143
  0
LINE
  5
2F6
100
AcDbEntity
  8
0
100
AcDbLine
 62
7
  6
CONTINUOUS
 10
153.7583147124
 20
140.719863143
 11
153.8690812044
 21
140.719863143
  0
LINE
  5
2F7
100
AcDbEntity
  8
0
100
AcDbLine
 62
7
  6
CONTINUOUS
 10
157.0416842111
 20
140.719863143
 11
157.1550906389
 21
140.719863143
  0
LINE
  5
2F8
100
AcDbEntity
  8
0
100
AcDbLine
 62
7
  6
CONTINUOUS
 10
162.4583147124
 20
140.719863143
 11
162.5692204968
 21
140.719863143
  0
LINE
  5
2F9
100
AcDbEntity
  8
0
100
AcDbLine
 62
7
  6
CONTINUOUS
 10
165.7416842111
 20
140.719863143
 11
165.8550906389
 21
140.719863143
  0
LINE
  5
2FA
100
AcDbEntity
  8
0
100
AcDbLine
 62
7
  6
CONTINUOUS
 10
171.1583147124
 20
140.719863143
 11
171.2692204968
 21
140.719863143
  0
LINE
  5
2FB
100
AcDbEntity
  8
0
100
AcDbLine
 62
7
  6
CONTINUOUS
 10
164.3067026756
 20
140.819863143
 11
163.5067026756
 21
140.819863143
  0
LINE
  5
2FC
100
AcDbEntity
  8
0
100
AcDbLine
 62
7
  6
CONTINUOUS
 10
155.8067026756
 20
140.819863143
 11
154.8067026756
 21
140.819863143
  0
LINE
  5
2FD
100
AcDbEntity
  8
0
100
AcDbLine
 62
7
  6
CONTINUOUS
 10
147.1067026756
 20
140.819863143
 11
146.1067026756
 21
140.819863143
  0
LINE
  5
2FE
100
AcDbEntity
  8
0
100
AcDbLine
 62
7
  6
CONTINUOUS
 10
138.4067026756
 20
140.819863143
 11
137.4067026756
 21
140.819863143
  0
LINE
  5
2FF
100
AcDbEntity
  8
0
100
AcDbLine
 62
7
  6
CONTINUOUS
 10
129.7067026756
 20
140.819863143
 11
128.9067026756
 21
140.819863143
  0
LINE
  5
300
100
AcDbEntity
  8
0
100
AcDbLine
 62
7
  6
CONTINUOUS
 10
143.7567026756
 20
142.419863143
 11
140.7567026756
 21
142.419863143
  0
LINE
  5
301
100
AcDbEntity
  8
0
100
AcDbLine
 62
7
  6
CONTINUOUS
 10
137.0567026756
 20
165.419863143
 11
137.0567026756
 21
148.219863143
  0
LINE
  5
302
100
AcDbEntity
  8
0
100
AcDbLine
 62
7
  6
CONTINUOUS
 10
137.4067026756
 20
140.819863143
 11
137.4067026756
 21
143.819863143
  0
LINE
  5
303
100
AcDbEntity
  8
0
100
AcDbLine
 62
7
  6
CONTINUOUS
 10
137.4067026756
 20
169.819863143
 11
137.4067026756
 21
172.819863143
  0
LINE
  5
304
100
AcDbEntity
  8
0
100
AcDbLine
 62
7
  6
CONTINUOUS
 10
137.5067026756
 20
176.619863143
 11
137.5067026756
 21
172.819863143
  0
LINE
  5
305
100
AcDbEntity
  8
0
100
AcDbLine
 62
7
  6
CONTINUOUS
 10
137.5067026756
 20
140.819863143
 11
137.5067026756
 21
137.019863143
  0
LINE
  5
306
100
AcDbEntity
  8
0
100
AcDbLine
 62
7
  6
CONTINUOUS
 10
137.5567026756
 20
129.319863143
 11
137.5567026756
 21
132.319863143
  0
LINE
  5
307
100
AcDbEntity
  8
0
100
AcDbLine
 62
7
  6
CONTINUOUS
 10
137.5567026756
 20
181.319863143
 11
137.5567026756
 21
184.319863143
  0
LINE
  5
308
100
AcDbEntity
  8
0
100
AcDbLine
 62
7
  6
CONTINUOUS
 10
137.8067026756
 20
176.619863143
 11
137.8067026756
 21
172.819863143
  0
LINE
  5
309
100
AcDbEntity
  8
0
100
AcDbLine
 62
7
  6
CONTINUOUS
 10
137.8067026756
 20
140.819863143
 11
137.8067026756
 21
137.019863143
  0
LINE
  5
30A
100
AcDbEntity
  8
0
100
AcDbLine
 62
7
  6
CONTINUOUS
 10
138.3067026756
 20
137.019863143
 11
138.3067026756
 21
140.819863143
  0
LINE
  5
30B
100
AcDbEntity
  8
0
100
AcDbLine
 62
7
  6
CONTINUOUS
 10
138.3067026756
 20
172.819863143
 11
138.3067026756
 21
176.619863143
  0
LINE
  5
30C
100
AcDbEntity
  8
0
100
AcDbLine
 62
7
  6
CONTINUOUS
 10
138.4067026756
 20
172.819863143
 11
138.4067026756
 21
169.819863143
  0
LINE
  5
30D
100
AcDbEntity
  8
0
100
AcDbLine
 62
7
  6
CONTINUOUS
 10
138.4067026756
 20
143.819863143
 11
138.4067026756
 21
140.819863143
  0
LINE
  5
30E
100
AcDbEntity
  8
0
100
AcDbLine
 62
7
  6
CONTINUOUS
 10
138.5567026756
 20
184.319863143
 11
138.5567026756
 21
181.319863143
  0
LINE
  5
30F
100
AcDbEntity
  8
0
100
AcDbLine
 62
7
  6
CONTINUOUS
 10
138.5567026756
 20
132.319863143
 11
138.5567026756
 21
129.319863143
  0
LINE
  5
310
100
AcDbEntity
  8
0
100
AcDbLine
 62
7
  6
CONTINUOUS
 10
138.6067026756
 20
137.019863143
 11
138.6067026756
 21
141.619863143
  0
LINE
  5
311
100
AcDbEntity
  8
0
100
AcDbLine
 62
7
  6
CONTINUOUS
 10
138.6067026756
 20
172.019863143
 11
138.6067026756
 21
176.619863143
  0
LINE
  5
312
100
AcDbEntity
  8
0
100
AcDbLine
 62
7
  6
CONTINUOUS
 10
138.7567026756
 20
148.219863143
 11
138.7567026756
 21
153.419863143
  0
LINE
  5
313
100
AcDbEntity
  8
0
100
AcDbLine
 62
7
  6
CONTINUOUS
 10
138.7567026756
 20
160.219863143
 11
138.7567026756
 21
165.419863143
  0
LINE
  5
314
100
AcDbEntity
  8
0
100
AcDbLine
 62
7
  6
CONTINUOUS
 10
131.4067016383
 20
143.119863143
 11
136.0067028657
 21
143.119863143
  0
LINE
  5
315
100
AcDbEntity
  8
0
100
AcDbLine
 62
7
  6
CONTINUOUS
 10
140.1067026756
 20
143.119863143
 11
140.7567026756
 21
143.119863143
  0
LINE
  5
316
100
AcDbEntity
  8
0
100
AcDbLine
 62
7
  6
CONTINUOUS
 10
143.7567026756
 20
143.119863143
 11
144.7067026756
 21
143.119863143
  0
LINE
  5
317
100
AcDbEntity
  8
0
100
AcDbLine
 62
7
  6
CONTINUOUS
 10
148.8067026756
 20
143.119863143
 11
153.4067026756
 21
143.119863143
  0
LINE
  5
318
100
AcDbEntity
  8
0
100
AcDbLine
 62
7
  6
CONTINUOUS
 10
157.5067026756
 20
143.119863143
 11
162.1067026756
 21
143.119863143
  0
LINE
  5
319
100
AcDbEntity
  8
0
100
AcDbLine
 62
7
  6
CONTINUOUS
 10
166.2067024855
 20
143.119863143
 11
170.8067037135
 21
143.119863143
  0
LINE
  5
31A
100
AcDbEntity
  8
0
100
AcDbLine
 62
7
  6
CONTINUOUS
 10
169.6067026756
 20
143.419863143
 11
167.4067026756
 21
143.419863143
  0
LINE
  5
31B
100
AcDbEntity
  8
0
100
AcDbLine
 62
7
  6
CONTINUOUS
 10
140.1067026756
 20
143.419863143
 11
140.7567026756
 21
143.419863143
  0
LINE
  5
31C
100
AcDbEntity
  8
0
100
AcDbLine
 62
7
  6
CONTINUOUS
 10
143.7567026756
 20
143.419863143
 11
144.7067026756
 21
143.419863143
  0
LINE
  5
31D
100
AcDbEntity
  8
0
100
AcDbLine
 62
7
  6
CONTINUOUS
 10
148.8067026756
 20
143.419863143
 11
153.4067026756
 21
143.419863143
  0
LINE
  5
31E
100
AcDbEntity
  8
0
100
AcDbLine
 62
7
  6
CONTINUOUS
 10
157.5067026756
 20
143.419863143
 11
162.1067026756
 21
143.419863143
  0
LINE
  5
31F
100
AcDbEntity
  8
0
100
AcDbLine
 62
7
  6
CONTINUOUS
 10
129.7067026756
 20
143.819863143
 11
163.5067026756
 21
143.819863143
  0
LINE
  5
320
100
AcDbEntity
  8
0
100
AcDbLine
 62
7
  6
CONTINUOUS
 10
167.4067026756
 20
143.819863143
 11
169.6067026756
 21
143.819863143
  0
LINE
  5
321
100
AcDbEntity
  8
0
100
AcDbLine
 62
7
  6
CONTINUOUS
 10
169.6067026756
 20
143.919863143
 11
167.4067026756
 21
143.919863143
  0
LINE
  5
322
100
AcDbEntity
  8
0
100
AcDbLine
 62
7
  6
CONTINUOUS
 10
140.7567026756
 20
142.419863143
 11
140.7567026756
 21
143.819863143
  0
LINE
  5
323
100
AcDbEntity
  8
0
100
AcDbLine
 62
7
  6
CONTINUOUS
 10
140.9142205131
 20
165.7233795915
 11
140.9142205131
 21
165.4951832762
  0
LINE
  5
324
100
AcDbEntity
  8
0
100
AcDbLine
 62
7
  6
CONTINUOUS
 10
140.9142205131
 20
160.1445430097
 11
140.9142205131
 21
159.9170023862
  0
LINE
  5
325
100
AcDbEntity
  8
0
100
AcDbLine
 62
7
  6
CONTINUOUS
 10
140.9142205131
 20
153.7232299029
 11
140.9142205131
 21
153.4951832762
  0
LINE
  5
326
100
AcDbEntity
  8
0
100
AcDbLine
 62
7
  6
CONTINUOUS
 10
140.9142205131
 20
148.1445430097
 11
140.9142205131
 21
147.9171281804
  0
LINE
  5
327
100
AcDbEntity
  8
02___PRT_ALL_AXES
100
AcDbLine
 62
7
  6
CONTINUOUS
 10
141.0067026756
 20
183.319863143
 11
141.0067026756
 21
181.419863143
  0
LINE
  5
328
100
AcDbEntity
  8
02___PRT_ALL_AXES
100
AcDbLine
 62
7
  6
CONTINUOUS
 10
141.0067026756
 20
132.319863143
 11
141.0067026756
 21
130.319863143
  0
LINE
  5
329
100
AcDbEntity
  8
0
100
AcDbLine
 62
7
  6
CONTINUOUS
 10
141.0642205131
 20
177.1137615889
 11
141.0642205131
 21
176.9951832762
  0
LINE
  5
32A
100
AcDbEntity
  8
0
100
AcDbLine
 62
7
  6
CONTINUOUS
 10
141.0642205131
 20
171.6445430097
 11
141.0642205131
 21
171.5259646763
  0
LINE
  5
32B
100
AcDbEntity
  8
0
100
AcDbLine
 62
7
  6
CONTINUOUS
 10
141.0642205131
 20
142.1137615889
 11
141.0642205131
 21
141.9951832762
  0
LINE
  5
32C
100
AcDbEntity
  8
0
100
AcDbLine
 62
7
  6
CONTINUOUS
 10
141.0642205131
 20
136.6445430097
 11
141.0642205131
 21
136.5259646763
  0
LINE
  5
32D
100
AcDbEntity
  8
0
100
AcDbLine
 62
7
  6
CONTINUOUS
 10
167.4067026756
 20
145.419863143
 11
169.6067026756
 21
145.419863143
  0
LINE
  5
32E
100
AcDbEntity
  8
0
100
AcDbLine
 62
7
  6
CONTINUOUS
 10
153.4567026756
 20
147.219863143
 11
148.4567026756
 21
147.219863143
  0
LINE
  5
32F
100
AcDbEntity
  8
0
100
AcDbLine
 62
7
  6
CONTINUOUS
 10
144.7567026756
 20
147.219863143
 11
139.7567026756
 21
147.219863143
  0
LINE
  5
330
100
AcDbEntity
  8
0
100
AcDbLine
 62
7
  6
CONTINUOUS
 10
136.0567026756
 20
147.219863143
 11
131.0567026756
 21
147.219863143
  0
LINE
  5
331
100
AcDbEntity
  8
0
100
AcDbLine
 62
7
  6
CONTINUOUS
 10
157.1567026756
 20
147.219863143
 11
162.1567026756
 21
147.219863143
  0
LINE
  5
332
100
AcDbEntity
  8
0
100
AcDbLine
 62
7
  6
CONTINUOUS
 10
141.8167026756
 20
147.905296297
 11
141.8167026756
 21
150.379863143
  0
LINE
  5
333
100
AcDbEntity
  8
0
100
AcDbLine
 62
7
  6
CONTINUOUS
 10
141.8167026756
 20
151.259863143
 11
141.8167026756
 21
153.7344299889
  0
LINE
  5
334
100
AcDbEntity
  8
0
100
AcDbLine
 62
7
  6
CONTINUOUS
 10
141.8167026756
 20
159.905296297
 11
141.8167026756
 21
162.379863143
  0
LINE
  5
335
100
AcDbEntity
  8
0
100
AcDbLine
 62
7
  6
CONTINUOUS
 10
141.8167026756
 20
163.259863143
 11
141.8167026756
 21
165.7344299889
  0
LINE
  5
336
100
AcDbEntity
  8
0
100
AcDbLine
 62
7
  6
CONTINUOUS
 10
141.9667026756
 20
136.405296297
 11
141.9667026756
 21
138.879863143
  0
LINE
  5
337
100
AcDbEntity
  8
0
100
AcDbLine
 62
7
  6
CONTINUOUS
 10
141.9667026756
 20
139.759863143
 11
141.9667026756
 21
142.2344299889
  0
LINE
  5
338
100
AcDbEntity
  8
0
100
AcDbLine
 62
7
  6
CONTINUOUS
 10
141.9667026756
 20
171.405296297
 11
141.9667026756
 21
173.879863143
  0
LINE
  5
339
100
AcDbEntity
  8
0
100
AcDbLine
 62
7
  6
CONTINUOUS
 10
141.9667026756
 20
174.759863143
 11
141.9667026756
 21
177.2344299889
  0
LINE
  5
33A
100
AcDbEntity
  8
0
100
AcDbLine
 62
7
  6
CONTINUOUS
 10
142.6967026756
 20
165.7344299889
 11
142.6967026756
 21
163.259863143
  0
LINE
  5
33B
100
AcDbEntity
  8
0
100
AcDbLine
 62
7
  6
CONTINUOUS
 10
142.6967026756
 20
153.7344299889
 11
142.6967026756
 21
151.259863143
  0
LINE
  5
33C
100
AcDbEntity
  8
0
100
AcDbLine
 62
7
  6
CONTINUOUS
 10
142.6967026756
 20
147.905296297
 11
142.6967026756
 21
150.379863143
  0
LINE
  5
33D
100
AcDbEntity
  8
0
100
AcDbLine
 62
7
  6
CONTINUOUS
 10
142.6967026756
 20
159.905296297
 11
142.6967026756
 21
162.379863143
  0
LINE
  5
33E
100
AcDbEntity
  8
0
100
AcDbLine
 62
7
  6
CONTINUOUS
 10
142.8467026756
 20
177.2344299889
 11
142.8467026756
 21
174.759863143
  0
LINE
  5
33F
100
AcDbEntity
  8
0
100
AcDbLine
 62
7
  6
CONTINUOUS
 10
142.8467026756
 20
142.2344299889
 11
142.8467026756
 21
139.759863143
  0
LINE
  5
340
100
AcDbEntity
  8
0
100
AcDbLine
 62
7
  6
CONTINUOUS
 10
142.8467026756
 20
136.405296297
 11
142.8467026756
 21
138.879863143
  0
LINE
  5
341
100
AcDbEntity
  8
0
100
AcDbLine
 62
7
  6
CONTINUOUS
 10
142.8467026756
 20
171.405296297
 11
142.8467026756
 21
173.879863143
  0
LINE
  5
342
100
AcDbEntity
  8
0
100
AcDbLine
 62
7
  6
CONTINUOUS
 10
143.5991848381
 20
147.916496383
 11
143.5991848381
 21
148.1445430097
  0
LINE
  5
343
100
AcDbEntity
  8
0
100
AcDbLine
 62
7
  6
CONTINUOUS
 10
143.5991848381
 20
153.4951832762
 11
143.5991848381
 21
153.7225981056
  0
LINE
  5
344
100
AcDbEntity
  8
0
100
AcDbLine
 62
7
  6
CONTINUOUS
 10
143.5991848381
 20
159.9163868116
 11
143.5991848381
 21
160.1445430097
  0
LINE
  5
345
100
AcDbEntity
  8
0
100
AcDbLine
 62
7
  6
CONTINUOUS
 10
143.5991848381
 20
165.4951832762
 11
143.5991848381
 21
165.7235837422
  0
LINE
  5
346
100
AcDbEntity
  8
0
100
AcDbLine
 62
7
  6
CONTINUOUS
 10
143.7491848381
 20
136.5259646971
 11
143.7491848381
 21
136.6445430097
  0
LINE
  5
347
100
AcDbEntity
  8
0
100
AcDbLine
 62
7
  6
CONTINUOUS
 10
143.7491848381
 20
141.9951832762
 11
143.7491848381
 21
142.1137616096
  0
LINE
  5
348
100
AcDbEntity
  8
0
100
AcDbLine
 62
7
  6
CONTINUOUS
 10
143.7491848381
 20
171.5259646971
 11
143.7491848381
 21
171.6445430097
  0
LINE
  5
349
100
AcDbEntity
  8
0
100
AcDbLine
 62
7
  6
CONTINUOUS
 10
143.7491848381
 20
176.9951832762
 11
143.7491848381
 21
177.1137616096
  0
LINE
  5
34A
100
AcDbEntity
  8
0
100
AcDbLine
 62
7
  6
CONTINUOUS
 10
143.7567026756
 20
143.819863143
 11
143.7567026756
 21
142.419863143
  0
LINE
  5
34B
100
AcDbEntity
  8
02___PRT_ALL_AXES
100
AcDbLine
 62
7
  6
CONTINUOUS
 10
143.8067026756
 20
130.319863143
 11
143.8067026756
 21
132.319863143
  0
LINE
  5
34C
100
AcDbEntity
  8
02___PRT_ALL_AXES
100
AcDbLine
 62
7
  6
CONTINUOUS
 10
143.8067026756
 20
181.419863143
 11
143.8067026756
 21
183.319863143
  0
LINE
  5
34D
100
AcDbEntity
  8
0
100
AcDbLine
 62
7
  6
CONTINUOUS
 10
162.5324286493
 20
149.419863143
 11
162.3083147124
 21
149.419863143
  0
LINE
  5
34E
100
AcDbEntity
  8
0
100
AcDbLine
 62
7
  6
CONTINUOUS
 10
157.0050906389
 20
149.419863143
 11
156.7800694546
 21
149.419863143
  0
LINE
  5
34F
100
AcDbEntity
  8
0
100
AcDbLine
 62
7
  6
CONTINUOUS
 10
153.8324286493
 20
149.419863143
 11
153.6083147124
 21
149.419863143
  0
LINE
  5
350
100
AcDbEntity
  8
0
100
AcDbLine
 62
7
  6
CONTINUOUS
 10
148.3050906389
 20
149.419863143
 11
148.0800694546
 21
149.419863143
  0
LINE
  5
351
100
AcDbEntity
  8
0
100
AcDbLine
 62
7
  6
CONTINUOUS
 10
145.1323105313
 20
149.419863143
 11
144.9083147124
 21
149.419863143
  0
LINE
  5
352
100
AcDbEntity
  8
0
100
AcDbLine
 62
7
  6
CONTINUOUS
 10
139.6050906389
 20
149.419863143
 11
139.3807711305
 21
149.419863143
  0
LINE
  5
353
100
AcDbEntity
  8
0
100
AcDbLine
 62
7
  6
CONTINUOUS
 10
136.4323105313
 20
149.419863143
 11
136.2083147124
 21
149.419863143
  0
LINE
  5
354
100
AcDbEntity
  8
0
100
AcDbLine
 62
7
  6
CONTINUOUS
 10
130.9050906389
 20
149.419863143
 11
130.6807711305
 21
149.419863143
  0
LINE
  5
355
100
AcDbEntity
  8
0
100
AcDbLine
 62
7
  6
CONTINUOUS
 10
145.7567026756
 20
165.419863143
 11
145.7567026756
 21
160.219863143
  0
LINE
  5
356
100
AcDbEntity
  8
0
100
AcDbLine
 62
7
  6
CONTINUOUS
 10
145.7567026756
 20
153.419863143
 11
145.7567026756
 21
148.219863143
  0
LINE
  5
357
100
AcDbEntity
  8
0
100
AcDbLine
 62
7
  6
CONTINUOUS
 10
146.1067026756
 20
140.819863143
 11
146.1067026756
 21
143.819863143
  0
LINE
  5
358
100
AcDbEntity
  8
0
100
AcDbLine
 62
7
  6
CONTINUOUS
 10
146.1067026756
 20
169.819863143
 11
146.1067026756
 21
172.819863143
  0
LINE
  5
359
100
AcDbEntity
  8
0
100
AcDbLine
 62
7
  6
CONTINUOUS
 10
146.2067026756
 20
176.619863143
 11
146.2067026756
 21
172.819863143
  0
LINE
  5
35A
100
AcDbEntity
  8
0
100
AcDbLine
 62
7
  6
CONTINUOUS
 10
146.2067026756
 20
140.819863143
 11
146.2067026756
 21
137.019863143
  0
LINE
  5
35B
100
AcDbEntity
  8
0
100
AcDbLine
 62
7
  6
CONTINUOUS
 10
146.2567026756
 20
129.319863143
 11
146.2567026756
 21
132.319863143
  0
LINE
  5
35C
100
AcDbEntity
  8
0
100
AcDbLine
 62
7
  6
CONTINUOUS
 10
146.2567026756
 20
181.319863143
 11
146.2567026756
 21
184.319863143
  0
LINE
  5
35D
100
AcDbEntity
  8
0
100
AcDbLine
 62
7
  6
CONTINUOUS
 10
146.5067026756
 20
176.619863143
 11
146.5067026756
 21
172.819863143
  0
LINE
  5
35E
100
AcDbEntity
  8
0
100
AcDbLine
 62
7
  6
CONTINUOUS
 10
146.5067026756
 20
140.819863143
 11
146.5067026756
 21
137.019863143
  0
LINE
  5
35F
100
AcDbEntity
  8
0
100
AcDbLine
 62
7
  6
CONTINUOUS
 10
162.5712695216
 20
150.379863143
 11
160.0967026756
 21
150.379863143
  0
LINE
  5
360
100
AcDbEntity
  8
0
100
AcDbLine
 62
7
  6
CONTINUOUS
 10
153.8712695216
 20
150.379863143
 11
151.3967026756
 21
150.379863143
  0
LINE
  5
361
100
AcDbEntity
  8
0
100
AcDbLine
 62
7
  6
CONTINUOUS
 10
145.1712695216
 20
150.379863143
 11
142.6967026756
 21
150.379863143
  0
LINE
  5
362
100
AcDbEntity
  8
0
100
AcDbLine
 62
7
  6
CONTINUOUS
 10
136.4712695216
 20
150.379863143
 11
133.9967026756
 21
150.379863143
  0
LINE
  5
363
100
AcDbEntity
  8
0
100
AcDbLine
 62
7
  6
CONTINUOUS
 10
130.6421358296
 20
150.379863143
 11
133.1167026756
 21
150.379863143
  0
LINE
  5
364
100
AcDbEntity
  8
0
100
AcDbLine
 62
7
  6
CONTINUOUS
 10
139.3421358296
 20
150.379863143
 11
141.8167026756
 21
150.379863143
  0
LINE
  5
365
100
AcDbEntity
  8
0
100
AcDbLine
 62
7
  6
CONTINUOUS
 10
148.0421358296
 20
150.379863143
 11
150.5167026756
 21
150.379863143
  0
LINE
  5
366
100
AcDbEntity
  8
0
100
AcDbLine
 62
7
  6
CONTINUOUS
 10
156.7421358296
 20
150.379863143
 11
159.2167026756
 21
150.379863143
  0
LINE
  5
367
100
AcDbEntity
  8
0
100
AcDbLine
 62
7
  6
CONTINUOUS
 10
130.6421358296
 20
151.259863143
 11
133.1167026756
 21
151.259863143
  0
LINE
  5
368
100
AcDbEntity
  8
0
100
AcDbLine
 62
7
  6
CONTINUOUS
 10
133.9967026756
 20
151.259863143
 11
136.4712695216
 21
151.259863143
  0
LINE
  5
369
100
AcDbEntity
  8
0
100
AcDbLine
 62
7
  6
CONTINUOUS
 10
139.3421358296
 20
151.259863143
 11
141.8167026756
 21
151.259863143
  0
LINE
  5
36A
100
AcDbEntity
  8
0
100
AcDbLine
 62
7
  6
CONTINUOUS
 10
142.6967026756
 20
151.259863143
 11
145.1712695216
 21
151.259863143
  0
LINE
  5
36B
100
AcDbEntity
  8
0
100
AcDbLine
 62
7
  6
CONTINUOUS
 10
148.0421358296
 20
151.259863143
 11
150.5167026756
 21
151.259863143
  0
LINE
  5
36C
100
AcDbEntity
  8
0
100
AcDbLine
 62
7
  6
CONTINUOUS
 10
151.3967026756
 20
151.259863143
 11
153.8712695216
 21
151.259863143
  0
LINE
  5
36D
100
AcDbEntity
  8
0
100
AcDbLine
 62
7
  6
CONTINUOUS
 10
156.7421358296
 20
151.259863143
 11
159.2167026756
 21
151.259863143
  0
LINE
  5
36E
100
AcDbEntity
  8
0
100
AcDbLine
 62
7
  6
CONTINUOUS
 10
160.0967026756
 20
151.259863143
 11
162.5712695216
 21
151.259863143
  0
LINE
  5
36F
100
AcDbEntity
  8
0
100
AcDbLine
 62
7
  6
CONTINUOUS
 10
167.6067026756
 20
151.269863143
 11
171.6067026756
 21
151.269863143
  0
LINE
  5
370
100
AcDbEntity
  8
0
100
AcDbLine
 62
7
  6
CONTINUOUS
 10
130.6810948199
 20
152.219863143
 11
130.9050906389
 21
152.219863143
  0
LINE
  5
371
100
AcDbEntity
  8
0
100
AcDbLine
 62
7
  6
CONTINUOUS
 10
136.2083147124
 20
152.219863143
 11
136.4326342207
 21
152.219863143
  0
LINE
  5
372
100
AcDbEntity
  8
0
100
AcDbLine
 62
7
  6
CONTINUOUS
 10
139.3810948199
 20
152.219863143
 11
139.6050906389
 21
152.219863143
  0
LINE
  5
373
100
AcDbEntity
  8
0
100
AcDbLine
 62
7
  6
CONTINUOUS
 10
144.9083147124
 20
152.219863143
 11
145.1326342207
 21
152.219863143
  0
LINE
  5
374
100
AcDbEntity
  8
0
100
AcDbLine
 62
7
  6
CONTINUOUS
 10
148.0809767019
 20
152.219863143
 11
148.3050906389
 21
152.219863143
  0
LINE
  5
375
100
AcDbEntity
  8
0
100
AcDbLine
 62
7
  6
CONTINUOUS
 10
153.6083147124
 20
152.219863143
 11
153.8333358966
 21
152.219863143
  0
LINE
  5
376
100
AcDbEntity
  8
0
100
AcDbLine
 62
7
  6
CONTINUOUS
 10
156.7809767019
 20
152.219863143
 11
157.0050906389
 21
152.219863143
  0
LINE
  5
377
100
AcDbEntity
  8
0
100
AcDbLine
 62
7
  6
CONTINUOUS
 10
162.3083147124
 20
152.219863143
 11
162.5333358966
 21
152.219863143
  0
LINE
  5
378
100
AcDbEntity
  8
0
100
AcDbLine
 62
7
  6
CONTINUOUS
 10
147.0067026756
 20
137.019863143
 11
147.0067026756
 21
140.819863143
  0
LINE
  5
379
100
AcDbEntity
  8
0
100
AcDbLine
 62
7
  6
CONTINUOUS
 10
147.0067026756
 20
172.819863143
 11
147.0067026756
 21
176.619863143
  0
LINE
  5
37A
100
AcDbEntity
  8
0
100
AcDbLine
 62
7
  6
CONTINUOUS
 10
147.1067026756
 20
172.819863143
 11
147.1067026756
 21
169.819863143
  0
LINE
  5
37B
100
AcDbEntity
  8
0
100
AcDbLine
 62
7
  6
CONTINUOUS
 10
147.1067026756
 20
143.819863143
 11
147.1067026756
 21
140.819863143
  0
LINE
  5
37C
100
AcDbEntity
  8
0
100
AcDbLine
 62
7
  6
CONTINUOUS
 10
147.2567026756
 20
184.319863143
 11
147.2567026756
 21
181.319863143
  0
LINE
  5
37D
100
AcDbEntity
  8
0
100
AcDbLine
 62
7
  6
CONTINUOUS
 10
147.2567026756
 20
132.319863143
 11
147.2567026756
 21
129.319863143
  0
LINE
  5
37E
100
AcDbEntity
  8
0
100
AcDbLine
 62
7
  6
CONTINUOUS
 10
147.3067026756
 20
137.019863143
 11
147.3067026756
 21
141.619863143
  0
LINE
  5
37F
100
AcDbEntity
  8
0
100
AcDbLine
 62
7
  6
CONTINUOUS
 10
147.3067026756
 20
172.019863143
 11
147.3067026756
 21
176.619863143
  0
LINE
  5
380
100
AcDbEntity
  8
0
100
AcDbLine
 62
7
  6
CONTINUOUS
 10
147.4567026756
 20
148.219863143
 11
147.4567026756
 21
153.419863143
  0
LINE
  5
381
100
AcDbEntity
  8
0
100
AcDbLine
 62
7
  6
CONTINUOUS
 10
147.4567026756
 20
160.219863143
 11
147.4567026756
 21
165.419863143
  0
LINE
  5
382
100
AcDbEntity
  8
0
100
AcDbLine
 62
7
  6
CONTINUOUS
 10
171.6067026756
 20
153.069863143
 11
167.6067026756
 21
153.069863143
  0
LINE
  5
383
100
AcDbEntity
  8
0
100
AcDbLine
 62
7
  6
CONTINUOUS
 10
131.0567023544
 20
154.419863143
 11
136.0567027217
 21
154.419863143
  0
LINE
  5
384
100
AcDbEntity
  8
0
100
AcDbLine
 62
7
  6
CONTINUOUS
 10
139.7567026756
 20
154.419863143
 11
144.7567026756
 21
154.419863143
  0
LINE
  5
385
100
AcDbEntity
  8
0
100
AcDbLine
 62
7
  6
CONTINUOUS
 10
148.4567026756
 20
154.419863143
 11
153.4567026756
 21
154.419863143
  0
LINE
  5
386
100
AcDbEntity
  8
0
100
AcDbLine
 62
7
  6
CONTINUOUS
 10
157.1567026295
 20
154.419863143
 11
162.156702997
 21
154.419863143
  0
LINE
  5
387
100
AcDbEntity
  8
0
100
AcDbLine
 62
7
  6
CONTINUOUS
 10
149.6142205131
 20
165.7229709725
 11
149.6142205131
 21
165.4951832762
  0
LINE
  5
388
100
AcDbEntity
  8
0
100
AcDbLine
 62
7
  6
CONTINUOUS
 10
149.6142205131
 20
160.1445430097
 11
149.6142205131
 21
159.9171281804
  0
LINE
  5
389
100
AcDbEntity
  8
0
100
AcDbLine
 62
7
  6
CONTINUOUS
 10
149.6142205131
 20
153.7233394744
 11
149.6142205131
 21
153.4951832762
  0
LINE
  5
38A
100
AcDbEntity
  8
0
100
AcDbLine
 62
7
  6
CONTINUOUS
 10
149.6142205131
 20
148.1445430097
 11
149.6142205131
 21
147.9170023862
  0
LINE
  5
38B
100
AcDbEntity
  8
0
100
AcDbLine
 62
7
  6
CONTINUOUS
 10
149.7642205131
 20
177.1137615889
 11
149.7642205131
 21
176.9951832762
  0
LINE
  5
38C
100
AcDbEntity
  8
0
100
AcDbLine
 62
7
  6
CONTINUOUS
 10
149.7642205131
 20
171.6445430097
 11
149.7642205131
 21
171.5259646763
  0
LINE
  5
38D
100
AcDbEntity
  8
0
100
AcDbLine
 62
7
  6
CONTINUOUS
 10
149.7642205131
 20
142.1137615889
 11
149.7642205131
 21
141.9951832762
  0
LINE
  5
38E
100
AcDbEntity
  8
0
100
AcDbLine
 62
7
  6
CONTINUOUS
 10
149.7642205131
 20
136.6445430097
 11
149.7642205131
 21
136.5259646763
  0
LINE
  5
38F
100
AcDbEntity
  8
0
100
AcDbLine
 62
7
  6
CONTINUOUS
 10
150.5167026756
 20
147.905296297
 11
150.5167026756
 21
150.379863143
  0
LINE
  5
390
100
AcDbEntity
  8
0
100
AcDbLine
 62
7
  6
CONTINUOUS
 10
150.5167026756
 20
151.259863143
 11
150.5167026756
 21
153.7344299889
  0
LINE
  5
391
100
AcDbEntity
  8
0
100
AcDbLine
 62
7
  6
CONTINUOUS
 10
150.5167026756
 20
159.905296297
 11
150.5167026756
 21
162.379863143
  0
LINE
  5
392
100
AcDbEntity
  8
0
100
AcDbLine
 62
7
  6
CONTINUOUS
 10
150.5167026756
 20
163.259863143
 11
150.5167026756
 21
165.7344299889
  0
LINE
  5
393
100
AcDbEntity
  8
0
100
AcDbLine
 62
7
  6
CONTINUOUS
 10
150.6667026756
 20
136.405296297
 11
150.6667026756
 21
138.879863143
  0
LINE
  5
394
100
AcDbEntity
  8
0
100
AcDbLine
 62
7
  6
CONTINUOUS
 10
150.6667026756
 20
139.759863143
 11
150.6667026756
 21
142.2344299889
  0
LINE
  5
395
100
AcDbEntity
  8
0
100
AcDbLine
 62
7
  6
CONTINUOUS
 10
150.6667026756
 20
171.405296297
 11
150.6667026756
 21
173.879863143
  0
LINE
  5
396
100
AcDbEntity
  8
0
100
AcDbLine
 62
7
  6
CONTINUOUS
 10
150.6667026756
 20
174.759863143
 11
150.6667026756
 21
177.2344299889
  0
LINE
  5
397
100
AcDbEntity
  8
0
100
AcDbLine
 62
7
  6
CONTINUOUS
 10
151.3967026756
 20
165.7344299889
 11
151.3967026756
 21
163.259863143
  0
LINE
  5
398
100
AcDbEntity
  8
0
100
AcDbLine
 62
7
  6
CONTINUOUS
 10
151.3967026756
 20
153.7344299889
 11
151.3967026756
 21
151.259863143
  0
LINE
  5
399
100
AcDbEntity
  8
0
100
AcDbLine
 62
7
  6
CONTINUOUS
 10
151.3967026756
 20
147.905296297
 11
151.3967026756
 21
150.379863143
  0
LINE
  5
39A
100
AcDbEntity
  8
0
100
AcDbLine
 62
7
  6
CONTINUOUS
 10
151.3967026756
 20
159.905296297
 11
151.3967026756
 21
162.379863143
  0
LINE
  5
39B
100
AcDbEntity
  8
0
100
AcDbLine
 62
7
  6
CONTINUOUS
 10
136.0567026756
 20
155.669863143
 11
131.0567026756
 21
155.669863143
  0
LINE
  5
39C
100
AcDbEntity
  8
0
100
AcDbLine
 62
7
  6
CONTINUOUS
 10
131.0567026756
 20
155.719863143
 11
136.0567026756
 21
155.719863143
  0
LINE
  5
39D
100
AcDbEntity
  8
0
100
AcDbLine
 62
7
  6
CONTINUOUS
 10
135.5067026756
 20
156.019863143
 11
131.6067026756
 21
156.019863143
  0
LINE
  5
39E
100
AcDbEntity
  8
0
100
AcDbLine
 62
7
  6
CONTINUOUS
 10
151.5467026756
 20
177.2344299889
 11
151.5467026756
 21
174.759863143
  0
LINE
  5
39F
100
AcDbEntity
  8
0
100
AcDbLine
 62
7
  6
CONTINUOUS
 10
151.5467026756
 20
142.2344299889
 11
151.5467026756
 21
139.759863143
  0
LINE
  5
3A0
100
AcDbEntity
  8
0
100
AcDbLine
 62
7
  6
CONTINUOUS
 10
151.5467026756
 20
136.405296297
 11
151.5467026756
 21
138.879863143
  0
LINE
  5
3A1
100
AcDbEntity
  8
0
100
AcDbLine
 62
7
  6
CONTINUOUS
 10
151.5467026756
 20
171.405296297
 11
151.5467026756
 21
173.879863143
  0
LINE
  5
3A2
100
AcDbEntity
  8
0
100
AcDbLine
 62
7
  6
CONTINUOUS
 10
152.2991848381
 20
147.9163868116
 11
152.2991848381
 21
148.1445430097
  0
LINE
  5
3A3
100
AcDbEntity
  8
0
100
AcDbLine
 62
7
  6
CONTINUOUS
 10
152.2991848381
 20
153.4951832762
 11
152.2991848381
 21
153.7227238998
  0
LINE
  5
3A4
100
AcDbEntity
  8
0
100
AcDbLine
 62
7
  6
CONTINUOUS
 10
152.2991848381
 20
159.916496383
 11
152.2991848381
 21
160.1445430097
  0
LINE
  5
3A5
100
AcDbEntity
  8
0
100
AcDbLine
 62
7
  6
CONTINUOUS
 10
152.2991848381
 20
165.4951832762
 11
152.2991848381
 21
165.7233634606
  0
LINE
  5
3A6
100
AcDbEntity
  8
0
100
AcDbLine
 62
7
  6
CONTINUOUS
 10
152.4491848381
 20
136.5259646971
 11
152.4491848381
 21
136.6445430097
  0
LINE
  5
3A7
100
AcDbEntity
  8
0
100
AcDbLine
 62
7
  6
CONTINUOUS
 10
152.4491848381
 20
141.9951832762
 11
152.4491848381
 21
142.1137616096
  0
LINE
  5
3A8
100
AcDbEntity
  8
0
100
AcDbLine
 62
7
  6
CONTINUOUS
 10
152.4491848381
 20
171.5259646971
 11
152.4491848381
 21
171.6445430097
  0
LINE
  5
3A9
100
AcDbEntity
  8
0
100
AcDbLine
 62
7
  6
CONTINUOUS
 10
152.4491848381
 20
176.9951832762
 11
152.4491848381
 21
177.1137616096
  0
LINE
  5
3AA
100
AcDbEntity
  8
0
100
AcDbLine
 62
7
  6
CONTINUOUS
 10
131.6067026756
 20
157.619863143
 11
135.5067026756
 21
157.619863143
  0
LINE
  5
3AB
100
AcDbEntity
  8
0
100
AcDbLine
 62
7
  6
CONTINUOUS
 10
136.0567026756
 20
157.919863143
 11
131.0567026756
 21
157.919863143
  0
LINE
  5
3AC
100
AcDbEntity
  8
0
100
AcDbLine
 62
7
  6
CONTINUOUS
 10
131.0567026756
 20
157.969863143
 11
136.0567026756
 21
157.969863143
  0
LINE
  5
3AD
100
AcDbEntity
  8
0
100
AcDbLine
 62
7
  6
CONTINUOUS
 10
162.1567029968
 20
159.219863143
 11
157.1567026295
 21
159.219863143
  0
LINE
  5
3AE
100
AcDbEntity
  8
0
100
AcDbLine
 62
7
  6
CONTINUOUS
 10
153.4567026756
 20
159.219863143
 11
148.4567026756
 21
159.219863143
  0
LINE
  5
3AF
100
AcDbEntity
  8
0
100
AcDbLine
 62
7
  6
CONTINUOUS
 10
144.7567026756
 20
159.219863143
 11
139.7567026756
 21
159.219863143
  0
LINE
  5
3B0
100
AcDbEntity
  8
0
100
AcDbLine
 62
7
  6
CONTINUOUS
 10
136.0567027218
 20
159.219863143
 11
131.0567023542
 21
159.219863143
  0
LINE
  5
3B1
100
AcDbEntity
  8
0
100
AcDbLine
 62
7
  6
CONTINUOUS
 10
154.4567026756
 20
165.419863143
 11
154.4567026756
 21
160.219863143
  0
LINE
  5
3B2
100
AcDbEntity
  8
0
100
AcDbLine
 62
7
  6
CONTINUOUS
 10
154.4567026756
 20
153.419863143
 11
154.4567026756
 21
148.219863143
  0
LINE
  5
3B3
100
AcDbEntity
  8
0
100
AcDbLine
 62
7
  6
CONTINUOUS
 10
154.8067026756
 20
140.819863143
 11
154.8067026756
 21
143.819863143
  0
LINE
  5
3B4
100
AcDbEntity
  8
0
100
AcDbLine
 62
7
  6
CONTINUOUS
 10
154.8067026756
 20
169.819863143
 11
154.8067026756
 21
172.819863143
  0
LINE
  5
3B5
100
AcDbEntity
  8
0
100
AcDbLine
 62
7
  6
CONTINUOUS
 10
154.9067026756
 20
176.619863143
 11
154.9067026756
 21
172.819863143
  0
LINE
  5
3B6
100
AcDbEntity
  8
0
100
AcDbLine
 62
7
  6
CONTINUOUS
 10
154.9067026756
 20
140.819863143
 11
154.9067026756
 21
137.019863143
  0
LINE
  5
3B7
100
AcDbEntity
  8
0
100
AcDbLine
 62
7
  6
CONTINUOUS
 10
154.9567026756
 20
129.319863143
 11
154.9567026756
 21
132.319863143
  0
LINE
  5
3B8
100
AcDbEntity
  8
0
100
AcDbLine
 62
7
  6
CONTINUOUS
 10
154.9567026756
 20
181.319863143
 11
154.9567026756
 21
184.319863143
  0
LINE
  5
3B9
100
AcDbEntity
  8
0
100
AcDbLine
 62
7
  6
CONTINUOUS
 10
155.2067026756
 20
176.619863143
 11
155.2067026756
 21
172.819863143
  0
LINE
  5
3BA
100
AcDbEntity
  8
0
100
AcDbLine
 62
7
  6
CONTINUOUS
 10
155.2067026756
 20
140.819863143
 11
155.2067026756
 21
137.019863143
  0
LINE
  5
3BB
100
AcDbEntity
  8
0
100
AcDbLine
 62
7
  6
CONTINUOUS
 10
155.7067026756
 20
137.019863143
 11
155.7067026756
 21
140.819863143
  0
LINE
  5
3BC
100
AcDbEntity
  8
0
100
AcDbLine
 62
7
  6
CONTINUOUS
 10
155.7067026756
 20
172.819863143
 11
155.7067026756
 21
176.619863143
  0
LINE
  5
3BD
100
AcDbEntity
  8
0
100
AcDbLine
 62
7
  6
CONTINUOUS
 10
155.8067026756
 20
172.819863143
 11
155.8067026756
 21
169.819863143
  0
LINE
  5
3BE
100
AcDbEntity
  8
0
100
AcDbLine
 62
7
  6
CONTINUOUS
 10
155.8067026756
 20
143.819863143
 11
155.8067026756
 21
140.819863143
  0
LINE
  5
3BF
100
AcDbEntity
  8
0
100
AcDbLine
 62
7
  6
CONTINUOUS
 10
155.9567026756
 20
184.319863143
 11
155.9567026756
 21
181.319863143
  0
LINE
  5
3C0
100
AcDbEntity
  8
0
100
AcDbLine
 62
7
  6
CONTINUOUS
 10
155.9567026756
 20
132.319863143
 11
155.9567026756
 21
129.319863143
  0
LINE
  5
3C1
100
AcDbEntity
  8
0
100
AcDbLine
 62
7
  6
CONTINUOUS
 10
156.0067026756
 20
137.019863143
 11
156.0067026756
 21
141.619863143
  0
LINE
  5
3C2
100
AcDbEntity
  8
0
100
AcDbLine
 62
7
  6
CONTINUOUS
 10
156.0067026756
 20
172.019863143
 11
156.0067026756
 21
176.619863143
  0
LINE
  5
3C3
100
AcDbEntity
  8
0
100
AcDbLine
 62
7
  6
CONTINUOUS
 10
156.1567026756
 20
165.419863143
 11
156.1567026756
 21
148.219863143
  0
LINE
  5
3C4
100
AcDbEntity
  8
0
100
AcDbLine
 62
7
  6
CONTINUOUS
 10
167.6067026756
 20
160.569863143
 11
171.6067026756
 21
160.569863143
  0
LINE
  5
3C5
100
AcDbEntity
  8
0
100
AcDbLine
 62
7
  6
CONTINUOUS
 10
162.5323105313
 20
161.419863143
 11
162.3083147124
 21
161.419863143
  0
LINE
  5
3C6
100
AcDbEntity
  8
0
100
AcDbLine
 62
7
  6
CONTINUOUS
 10
157.0050906389
 20
161.419863143
 11
156.7807711304
 21
161.419863143
  0
LINE
  5
3C7
100
AcDbEntity
  8
0
100
AcDbLine
 62
7
  6
CONTINUOUS
 10
153.8323105313
 20
161.419863143
 11
153.6083147124
 21
161.419863143
  0
LINE
  5
3C8
100
AcDbEntity
  8
0
100
AcDbLine
 62
7
  6
CONTINUOUS
 10
148.3050906389
 20
161.419863143
 11
148.0807711304
 21
161.419863143
  0
LINE
  5
3C9
100
AcDbEntity
  8
0
100
AcDbLine
 62
7
  6
CONTINUOUS
 10
145.1324286493
 20
161.419863143
 11
144.9083147124
 21
161.419863143
  0
LINE
  5
3CA
100
AcDbEntity
  8
0
100
AcDbLine
 62
7
  6
CONTINUOUS
 10
139.6050906389
 20
161.419863143
 11
139.3800694545
 21
161.419863143
  0
LINE
  5
3CB
100
AcDbEntity
  8
0
100
AcDbLine
 62
7
  6
CONTINUOUS
 10
136.4324286493
 20
161.419863143
 11
136.2083147124
 21
161.419863143
  0
LINE
  5
3CC
100
AcDbEntity
  8
0
100
AcDbLine
 62
7
  6
CONTINUOUS
 10
130.9050906389
 20
161.419863143
 11
130.6800694545
 21
161.419863143
  0
LINE
  5
3CD
100
AcDbEntity
  8
0
100
AcDbLine
 62
7
  6
CONTINUOUS
 10
158.3142205131
 20
165.7229709725
 11
158.3142205131
 21
165.4951832762
  0
LINE
  5
3CE
100
AcDbEntity
  8
0
100
AcDbLine
 62
7
  6
CONTINUOUS
 10
158.3142205131
 20
160.1445430097
 11
158.3142205131
 21
159.9171281804
  0
LINE
  5
3CF
100
AcDbEntity
  8
0
100
AcDbLine
 62
7
  6
CONTINUOUS
 10
158.3142205131
 20
153.7233394744
 11
158.3142205131
 21
153.4951832762
  0
LINE
  5
3D0
100
AcDbEntity
  8
0
100
AcDbLine
 62
7
  6
CONTINUOUS
 10
158.3142205131
 20
148.1445430097
 11
158.3142205131
 21
147.9170023862
  0
LINE
  5
3D1
100
AcDbEntity
  8
02___PRT_ALL_AXES
100
AcDbLine
 62
7
  6
CONTINUOUS
 10
158.4067026756
 20
183.319863143
 11
158.4067026756
 21
181.419863143
  0
LINE
  5
3D2
100
AcDbEntity
  8
02___PRT_ALL_AXES
100
AcDbLine
 62
7
  6
CONTINUOUS
 10
158.4067026756
 20
132.319863143
 11
158.4067026756
 21
130.319863143
  0
LINE
  5
3D3
100
AcDbEntity
  8
0
100
AcDbLine
 62
7
  6
CONTINUOUS
 10
158.4642205131
 20
177.1137615889
 11
158.4642205131
 21
176.9951832762
  0
LINE
  5
3D4
100
AcDbEntity
  8
0
100
AcDbLine
 62
7
  6
CONTINUOUS
 10
158.4642205131
 20
171.6445430097
 11
158.4642205131
 21
171.5259646763
  0
LINE
  5
3D5
100
AcDbEntity
  8
0
100
AcDbLine
 62
7
  6
CONTINUOUS
 10
158.4642205131
 20
142.1137615889
 11
158.4642205131
 21
141.9951832762
  0
LINE
  5
3D6
100
AcDbEntity
  8
0
100
AcDbLine
 62
7
  6
CONTINUOUS
 10
158.4642205131
 20
136.6445430097
 11
158.4642205131
 21
136.5259646763
  0
LINE
  5
3D7
100
AcDbEntity
  8
0
100
AcDbLine
 62
7
  6
CONTINUOUS
 10
171.6067026756
 20
162.369863143
 11
167.6067026756
 21
162.369863143
  0
LINE
  5
3D8
100
AcDbEntity
  8
0
100
AcDbLine
 62
7
  6
CONTINUOUS
 10
162.5712695216
 20
162.379863143
 11
160.0967026756
 21
162.379863143
  0
LINE
  5
3D9
100
AcDbEntity
  8
0
100
AcDbLine
 62
7
  6
CONTINUOUS
 10
153.8712695216
 20
162.379863143
 11
151.3967026756
 21
162.379863143
  0
LINE
  5
3DA
100
AcDbEntity
  8
0
100
AcDbLine
 62
7
  6
CONTINUOUS
 10
145.1712695216
 20
162.379863143
 11
142.6967026756
 21
162.379863143
  0
LINE
  5
3DB
100
AcDbEntity
  8
0
100
AcDbLine
 62
7
  6
CONTINUOUS
 10
136.4712695216
 20
162.379863143
 11
133.9967026756
 21
162.379863143
  0
LINE
  5
3DC
100
AcDbEntity
  8
0
100
AcDbLine
 62
7
  6
CONTINUOUS
 10
130.6421358296
 20
162.379863143
 11
133.1167026756
 21
162.379863143
  0
LINE
  5
3DD
100
AcDbEntity
  8
0
100
AcDbLine
 62
7
  6
CONTINUOUS
 10
139.3421358296
 20
162.379863143
 11
141.8167026756
 21
162.379863143
  0
LINE
  5
3DE
100
AcDbEntity
  8
0
100
AcDbLine
 62
7
  6
CONTINUOUS
 10
148.0421358296
 20
162.379863143
 11
150.5167026756
 21
162.379863143
  0
LINE
  5
3DF
100
AcDbEntity
  8
0
100
AcDbLine
 62
7
  6
CONTINUOUS
 10
156.7421358296
 20
162.379863143
 11
159.2167026756
 21
162.379863143
  0
LINE
  5
3E0
100
AcDbEntity
  8
0
100
AcDbLine
 62
7
  6
CONTINUOUS
 10
130.6421358296
 20
163.259863143
 11
133.1167026756
 21
163.259863143
  0
LINE
  5
3E1
100
AcDbEntity
  8
0
100
AcDbLine
 62
7
  6
CONTINUOUS
 10
133.9967026756
 20
163.259863143
 11
136.4712695216
 21
163.259863143
  0
LINE
  5
3E2
100
AcDbEntity
  8
0
100
AcDbLine
 62
7
  6
CONTINUOUS
 10
139.3421358296
 20
163.259863143
 11
141.8167026756
 21
163.259863143
  0
LINE
  5
3E3
100
AcDbEntity
  8
0
100
AcDbLine
 62
7
  6
CONTINUOUS
 10
142.6967026756
 20
163.259863143
 11
145.1712695216
 21
163.259863143
  0
LINE
  5
3E4
100
AcDbEntity
  8
0
100
AcDbLine
 62
7
  6
CONTINUOUS
 10
148.0421358296
 20
163.259863143
 11
150.5167026756
 21
163.259863143
  0
LINE
  5
3E5
100
AcDbEntity
  8
0
100
AcDbLine
 62
7
  6
CONTINUOUS
 10
151.3967026756
 20
163.259863143
 11
153.8712695216
 21
163.259863143
  0
LINE
  5
3E6
100
AcDbEntity
  8
0
100
AcDbLine
 62
7
  6
CONTINUOUS
 10
156.7421358296
 20
163.259863143
 11
159.2167026756
 21
163.259863143
  0
LINE
  5
3E7
100
AcDbEntity
  8
0
100
AcDbLine
 62
7
  6
CONTINUOUS
 10
160.0967026756
 20
163.259863143
 11
162.5712695216
 21
163.259863143
  0
LINE
  5
3E8
100
AcDbEntity
  8
0
100
AcDbLine
 62
7
  6
CONTINUOUS
 10
130.6797703431
 20
164.219863143
 11
130.9050906389
 21
164.219863143
  0
LINE
  5
3E9
100
AcDbEntity
  8
0
100
AcDbLine
 62
7
  6
CONTINUOUS
 10
136.2083147124
 20
164.219863143
 11
136.4326163063
 21
164.219863143
  0
LINE
  5
3EA
100
AcDbEntity
  8
0
100
AcDbLine
 62
7
  6
CONTINUOUS
 10
139.3797703431
 20
164.219863143
 11
139.6050906389
 21
164.219863143
  0
LINE
  5
3EB
100
AcDbEntity
  8
0
100
AcDbLine
 62
7
  6
CONTINUOUS
 10
144.9083147124
 20
164.219863143
 11
145.1326163063
 21
164.219863143
  0
LINE
  5
3EC
100
AcDbEntity
  8
0
100
AcDbLine
 62
7
  6
CONTINUOUS
 10
148.0795959517
 20
164.219863143
 11
148.3050906389
 21
164.219863143
  0
LINE
  5
3ED
100
AcDbEntity
  8
0
100
AcDbLine
 62
7
  6
CONTINUOUS
 10
153.6083147124
 20
164.219863143
 11
153.8325366807
 21
164.219863143
  0
LINE
  5
3EE
100
AcDbEntity
  8
0
100
AcDbLine
 62
7
  6
CONTINUOUS
 10
156.7795959517
 20
164.219863143
 11
157.0050906389
 21
164.219863143
  0
LINE
  5
3EF
100
AcDbEntity
  8
0
100
AcDbLine
 62
7
  6
CONTINUOUS
 10
162.3083147124
 20
164.219863143
 11
162.5325366807
 21
164.219863143
  0
LINE
  5
3F0
100
AcDbEntity
  8
0
100
AcDbLine
 62
7
  6
CONTINUOUS
 10
159.2167026756
 20
147.905296297
 11
159.2167026756
 21
150.379863143
  0
LINE
  5
3F1
100
AcDbEntity
  8
0
100
AcDbLine
 62
7
  6
CONTINUOUS
 10
159.2167026756
 20
151.259863143
 11
159.2167026756
 21
153.7344299889
  0
LINE
  5
3F2
100
AcDbEntity
  8
0
100
AcDbLine
 62
7
  6
CONTINUOUS
 10
159.2167026756
 20
159.905296297
 11
159.2167026756
 21
162.379863143
  0
LINE
  5
3F3
100
AcDbEntity
  8
0
100
AcDbLine
 62
7
  6
CONTINUOUS
 10
159.2167026756
 20
163.259863143
 11
159.2167026756
 21
165.7344299889
  0
LINE
  5
3F4
100
AcDbEntity
  8
0
100
AcDbLine
 62
7
  6
CONTINUOUS
 10
159.3667026756
 20
136.405296297
 11
159.3667026756
 21
138.879863143
  0
LINE
  5
3F5
100
AcDbEntity
  8
0
100
AcDbLine
 62
7
  6
CONTINUOUS
 10
159.3667026756
 20
139.759863143
 11
159.3667026756
 21
142.2344299889
  0
LINE
  5
3F6
100
AcDbEntity
  8
0
100
AcDbLine
 62
7
  6
CONTINUOUS
 10
159.3667026756
 20
171.405296297
 11
159.3667026756
 21
173.879863143
  0
LINE
  5
3F7
100
AcDbEntity
  8
0
100
AcDbLine
 62
7
  6
CONTINUOUS
 10
159.3667026756
 20
174.759863143
 11
159.3667026756
 21
177.2344299889
  0
LINE
  5
3F8
100
AcDbEntity
  8
0
100
AcDbLine
 62
7
  6
CONTINUOUS
 10
160.0967026756
 20
165.7344299889
 11
160.0967026756
 21
163.259863143
  0
LINE
  5
3F9
100
AcDbEntity
  8
0
100
AcDbLine
 62
7
  6
CONTINUOUS
 10
160.0967026756
 20
153.7344299889
 11
160.0967026756
 21
151.259863143
  0
LINE
  5
3FA
100
AcDbEntity
  8
0
100
AcDbLine
 62
7
  6
CONTINUOUS
 10
160.0967026756
 20
147.905296297
 11
160.0967026756
 21
150.379863143
  0
LINE
  5
3FB
100
AcDbEntity
  8
0
100
AcDbLine
 62
7
  6
CONTINUOUS
 10
160.0967026756
 20
159.905296297
 11
160.0967026756
 21
162.379863143
  0
LINE
  5
3FC
100
AcDbEntity
  8
0
100
AcDbLine
 62
7
  6
CONTINUOUS
 10
160.2467026756
 20
177.2344299889
 11
160.2467026756
 21
174.759863143
  0
LINE
  5
3FD
100
AcDbEntity
  8
0
100
AcDbLine
 62
7
  6
CONTINUOUS
 10
160.2467026756
 20
142.2344299889
 11
160.2467026756
 21
139.759863143
  0
LINE
  5
3FE
100
AcDbEntity
  8
0
100
AcDbLine
 62
7
  6
CONTINUOUS
 10
160.2467026756
 20
136.405296297
 11
160.2467026756
 21
138.879863143
  0
LINE
  5
3FF
100
AcDbEntity
  8
0
100
AcDbLine
 62
7
  6
CONTINUOUS
 10
160.2467026756
 20
171.405296297
 11
160.2467026756
 21
173.879863143
  0
LINE
  5
400
100
AcDbEntity
  8
0
100
AcDbLine
 62
7
  6
CONTINUOUS
 10
160.9991848381
 20
147.9163868116
 11
160.9991848381
 21
148.1445430097
  0
LINE
  5
401
100
AcDbEntity
  8
0
100
AcDbLine
 62
7
  6
CONTINUOUS
 10
160.9991848381
 20
153.4951832762
 11
160.9991848381
 21
153.7227238998
  0
LINE
  5
402
100
AcDbEntity
  8
0
100
AcDbLine
 62
7
  6
CONTINUOUS
 10
160.9991848381
 20
159.916496383
 11
160.9991848381
 21
160.1445430097
  0
LINE
  5
403
100
AcDbEntity
  8
0
100
AcDbLine
 62
7
  6
CONTINUOUS
 10
160.9991848381
 20
165.4951832762
 11
160.9991848381
 21
165.7233634606
  0
LINE
  5
404
100
AcDbEntity
  8
0
100
AcDbLine
 62
7
  6
CONTINUOUS
 10
161.1491848381
 20
136.5259646971
 11
161.1491848381
 21
136.6445430097
  0
LINE
  5
405
100
AcDbEntity
  8
0
100
AcDbLine
 62
7
  6
CONTINUOUS
 10
161.1491848381
 20
141.9951832762
 11
161.1491848381
 21
142.1137616096
  0
LINE
  5
406
100
AcDbEntity
  8
0
100
AcDbLine
 62
7
  6
CONTINUOUS
 10
161.1491848381
 20
171.5259646971
 11
161.1491848381
 21
171.6445430097
  0
LINE
  5
407
100
AcDbEntity
  8
0
100
AcDbLine
 62
7
  6
CONTINUOUS
 10
161.1491848381
 20
176.9951832762
 11
161.1491848381
 21
177.1137616096
  0
LINE
  5
408
100
AcDbEntity
  8
02___PRT_ALL_AXES
100
AcDbLine
 62
7
  6
CONTINUOUS
 10
161.2067026756
 20
130.319863143
 11
161.2067026756
 21
132.319863143
  0
LINE
  5
409
100
AcDbEntity
  8
02___PRT_ALL_AXES
100
AcDbLine
 62
7
  6
CONTINUOUS
 10
161.2067026756
 20
181.419863143
 11
161.2067026756
 21
183.319863143
  0
LINE
  5
40A
100
AcDbEntity
  8
0
100
AcDbLine
 62
7
  6
CONTINUOUS
 10
162.1567026756
 20
166.419863143
 11
157.1567026756
 21
166.419863143
  0
LINE
  5
40B
100
AcDbEntity
  8
0
100
AcDbLine
 62
7
  6
CONTINUOUS
 10
131.0567026756
 20
166.419863143
 11
136.0567026756
 21
166.419863143
  0
LINE
  5
40C
100
AcDbEntity
  8
0
100
AcDbLine
 62
7
  6
CONTINUOUS
 10
139.7567026756
 20
166.419863143
 11
144.7567026756
 21
166.419863143
  0
LINE
  5
40D
100
AcDbEntity
  8
0
100
AcDbLine
 62
7
  6
CONTINUOUS
 10
148.4567026756
 20
166.419863143
 11
153.4567026756
 21
166.419863143
  0
LINE
  5
40E
100
AcDbEntity
  8
0
100
AcDbLine
 62
7
  6
CONTINUOUS
 10
163.1567026756
 20
148.219863143
 11
163.1567026756
 21
165.419863143
  0
LINE
  5
40F
100
AcDbEntity
  8
0
100
AcDbLine
 62
7
  6
CONTINUOUS
 10
163.5067026756
 20
140.819863143
 11
163.5067026756
 21
172.819863143
  0
LINE
  5
410
100
AcDbEntity
  8
0
100
AcDbLine
 62
7
  6
CONTINUOUS
 10
163.6067026756
 20
176.619863143
 11
163.6067026756
 21
172.819863143
  0
LINE
  5
411
100
AcDbEntity
  8
0
100
AcDbLine
 62
7
  6
CONTINUOUS
 10
163.6067026756
 20
140.819863143
 11
163.6067026756
 21
137.019863143
  0
LINE
  5
412
100
AcDbEntity
  8
0
100
AcDbLine
 62
7
  6
CONTINUOUS
 10
163.6567026756
 20
129.319863143
 11
163.6567026756
 21
132.319863143
  0
LINE
  5
413
100
AcDbEntity
  8
0
100
AcDbLine
 62
7
  6
CONTINUOUS
 10
163.6567026756
 20
181.319863143
 11
163.6567026756
 21
184.319863143
  0
LINE
  5
414
100
AcDbEntity
  8
0
100
AcDbLine
 62
7
  6
CONTINUOUS
 10
169.6067026756
 20
168.219863143
 11
167.4067026756
 21
168.219863143
  0
LINE
  5
415
100
AcDbEntity
  8
0
100
AcDbLine
 62
7
  6
CONTINUOUS
 10
163.9067026756
 20
176.619863143
 11
163.9067026756
 21
172.819863143
  0
LINE
  5
416
100
AcDbEntity
  8
0
100
AcDbLine
 62
7
  6
CONTINUOUS
 10
163.9067026756
 20
140.819863143
 11
163.9067026756
 21
137.019863143
  0
LINE
  5
417
100
AcDbEntity
  8
0
100
AcDbLine
 62
7
  6
CONTINUOUS
 10
164.4067026756
 20
137.019863143
 11
164.4067026756
 21
140.8397543797
  0
LINE
  5
418
100
AcDbEntity
  8
0
100
AcDbLine
 62
7
  6
CONTINUOUS
 10
164.4067026756
 20
172.7999719062
 11
164.4067026756
 21
176.619863143
  0
LINE
  5
419
100
AcDbEntity
  8
0
100
AcDbLine
 62
7
  6
CONTINUOUS
 10
164.6067026756
 20
172.519863143
 11
164.6067026756
 21
141.119863143
  0
LINE
  5
41A
100
AcDbEntity
  8
0
100
AcDbLine
 62
7
  6
CONTINUOUS
 10
164.6567026756
 20
184.319863143
 11
164.6567026756
 21
181.319863143
  0
LINE
  5
41B
100
AcDbEntity
  8
0
100
AcDbLine
 62
7
  6
CONTINUOUS
 10
164.6567026756
 20
132.319863143
 11
164.6567026756
 21
129.319863143
  0
LINE
  5
41C
100
AcDbEntity
  8
0
100
AcDbLine
 62
7
  6
CONTINUOUS
 10
164.7067026756
 20
137.019863143
 11
164.7067026756
 21
176.619863143
  0
LINE
  5
41D
100
AcDbEntity
  8
0
100
AcDbLine
 62
7
  6
CONTINUOUS
 10
167.4067026756
 20
169.719863143
 11
169.6067026756
 21
169.719863143
  0
LINE
  5
41E
100
AcDbEntity
  8
0
100
AcDbLine
 62
7
  6
CONTINUOUS
 10
169.6067026756
 20
169.819863143
 11
167.4067026756
 21
169.819863143
  0
LINE
  5
41F
100
AcDbEntity
  8
0
100
AcDbLine
 62
7
  6
CONTINUOUS
 10
163.5067026756
 20
169.819863143
 11
129.7067026756
 21
169.819863143
  0
LINE
  5
420
100
AcDbEntity
  8
0
100
AcDbLine
 62
7
  6
CONTINUOUS
 10
169.6067026756
 20
170.219863143
 11
167.4067026756
 21
170.219863143
  0
LINE
  5
421
100
AcDbEntity
  8
0
100
AcDbLine
 62
7
  6
CONTINUOUS
 10
162.1067026756
 20
170.219863143
 11
157.5067026756
 21
170.219863143
  0
LINE
  5
422
100
AcDbEntity
  8
0
100
AcDbLine
 62
7
  6
CONTINUOUS
 10
153.4067026756
 20
170.219863143
 11
148.8067026756
 21
170.219863143
  0
LINE
  5
423
100
AcDbEntity
  8
0
100
AcDbLine
 62
7
  6
CONTINUOUS
 10
144.7067026756
 20
170.219863143
 11
140.1067026756
 21
170.219863143
  0
LINE
  5
424
100
AcDbEntity
  8
0
100
AcDbLine
 62
7
  6
CONTINUOUS
 10
170.8067037129
 20
170.519863143
 11
166.2067024855
 21
170.519863143
  0
LINE
  5
425
100
AcDbEntity
  8
0
100
AcDbLine
 62
7
  6
CONTINUOUS
 10
162.1067026756
 20
170.519863143
 11
157.5067026756
 21
170.519863143
  0
LINE
  5
426
100
AcDbEntity
  8
0
100
AcDbLine
 62
7
  6
CONTINUOUS
 10
153.4067026756
 20
170.519863143
 11
148.8067026756
 21
170.519863143
  0
LINE
  5
427
100
AcDbEntity
  8
0
100
AcDbLine
 62
7
  6
CONTINUOUS
 10
144.7067026756
 20
170.519863143
 11
140.1067026756
 21
170.519863143
  0
LINE
  5
428
100
AcDbEntity
  8
0
100
AcDbLine
 62
7
  6
CONTINUOUS
 10
136.0067028657
 20
170.519863143
 11
131.4067016377
 21
170.519863143
  0
LINE
  5
429
100
AcDbEntity
  8
0
100
AcDbLine
 62
7
  6
CONTINUOUS
 10
167.1642205131
 20
142.1137615889
 11
167.1642205131
 21
141.9951832762
  0
LINE
  5
42A
100
AcDbEntity
  8
0
100
AcDbLine
 62
7
  6
CONTINUOUS
 10
167.1642205131
 20
136.6445430097
 11
167.1642205131
 21
136.5259646763
  0
LINE
  5
42B
100
AcDbEntity
  8
0
100
AcDbLine
 62
7
  6
CONTINUOUS
 10
167.1641358559
 20
177.113731966
 11
167.1641394492
 21
176.9951425967
  0
LINE
  5
42C
100
AcDbEntity
  8
0
100
AcDbLine
 62
7
  6
CONTINUOUS
 10
167.1643015782
 20
171.6445023326
 11
167.1643051708
 21
171.5259350533
  0
LINE
  5
42D
100
AcDbEntity
  8
0
100
AcDbLine
 62
7
  6
CONTINUOUS
 10
167.4067026756
 20
143.419863143
 11
167.4067026756
 21
145.419863143
  0
LINE
  5
42E
100
AcDbEntity
  8
0
100
AcDbLine
 62
7
  6
CONTINUOUS
 10
167.4067026756
 20
168.219863143
 11
167.4067026756
 21
170.219863143
  0
LINE
  5
42F
100
AcDbEntity
  8
0
100
AcDbLine
 62
7
  6
CONTINUOUS
 10
167.6067026756
 20
162.369863143
 11
167.6067026756
 21
160.569863143
  0
LINE
  5
430
100
AcDbEntity
  8
0
100
AcDbLine
 62
7
  6
CONTINUOUS
 10
167.6067026756
 20
153.069863143
 11
167.6067026756
 21
151.269863143
  0
LINE
  5
431
100
AcDbEntity
  8
0
100
AcDbLine
 62
7
  6
CONTINUOUS
 10
168.0667026756
 20
136.405296297
 11
168.0667026756
 21
138.879863143
  0
LINE
  5
432
100
AcDbEntity
  8
0
100
AcDbLine
 62
7
  6
CONTINUOUS
 10
168.0667026756
 20
139.759863143
 11
168.0667026756
 21
142.2344299889
  0
LINE
  5
433
100
AcDbEntity
  8
0
100
AcDbLine
 62
7
  6
CONTINUOUS
 10
168.0667909896
 20
171.405282966
 11
168.0667160082
 21
173.8798498108
  0
LINE
  5
434
100
AcDbEntity
  8
0
100
AcDbLine
 62
7
  6
CONTINUOUS
 10
168.0666893434
 20
174.7598498104
 11
168.066614362
 21
177.2344166552
  0
LINE
  5
435
100
AcDbEntity
  8
0
100
AcDbLine
 62
7
  6
CONTINUOUS
 10
128.9067026756
 20
172.819863143
 11
129.7067026756
 21
172.819863143
  0
LINE
  5
436
100
AcDbEntity
  8
0
100
AcDbLine
 62
7
  6
CONTINUOUS
 10
137.4067026756
 20
172.819863143
 11
138.4067026756
 21
172.819863143
  0
LINE
  5
437
100
AcDbEntity
  8
0
100
AcDbLine
 62
7
  6
CONTINUOUS
 10
146.1067026756
 20
172.819863143
 11
147.1067026756
 21
172.819863143
  0
LINE
  5
438
100
AcDbEntity
  8
0
100
AcDbLine
 62
7
  6
CONTINUOUS
 10
154.8067026756
 20
172.819863143
 11
155.8067026756
 21
172.819863143
  0
LINE
  5
439
100
AcDbEntity
  8
0
100
AcDbLine
 62
7
  6
CONTINUOUS
 10
163.5067026756
 20
172.819863143
 11
164.3067026756
 21
172.819863143
  0
LINE
  5
43A
100
AcDbEntity
  8
0
100
AcDbLine
 62
7
  6
CONTINUOUS
 10
171.2719121322
 20
172.9199469305
 11
171.1583571323
 21
172.9199434897
  0
LINE
  5
43B
100
AcDbEntity
  8
0
100
AcDbLine
 62
7
  6
CONTINUOUS
 10
165.8551330613
 20
172.9197827975
 11
165.7443685205
 21
172.9197794413
  0
LINE
  5
43C
100
AcDbEntity
  8
0
100
AcDbLine
 62
7
  6
CONTINUOUS
 10
162.5718664367
 20
172.919863143
 11
162.4583147124
 21
172.919863143
  0
LINE
  5
43D
100
AcDbEntity
  8
0
100
AcDbLine
 62
7
  6
CONTINUOUS
 10
157.1550906389
 20
172.919863143
 11
157.0443241468
 21
172.919863143
  0
LINE
  5
43E
100
AcDbEntity
  8
0
100
AcDbLine
 62
7
  6
CONTINUOUS
 10
153.8717211401
 20
172.919863143
 11
153.7583147124
 21
172.919863143
  0
LINE
  5
43F
100
AcDbEntity
  8
0
100
AcDbLine
 62
7
  6
CONTINUOUS
 10
148.4550906389
 20
172.919863143
 11
148.3441848544
 21
172.919863143
  0
LINE
  5
440
100
AcDbEntity
  8
0
100
AcDbLine
 62
7
  6
CONTINUOUS
 10
145.1717211401
 20
172.919863143
 11
145.0583147124
 21
172.919863143
  0
LINE
  5
441
100
AcDbEntity
  8
0
100
AcDbLine
 62
7
  6
CONTINUOUS
 10
139.7550906389
 20
172.919863143
 11
139.6441848544
 21
172.919863143
  0
LINE
  5
442
100
AcDbEntity
  8
0
100
AcDbLine
 62
7
  6
CONTINUOUS
 10
136.4717211401
 20
172.919863143
 11
136.3583147124
 21
172.919863143
  0
LINE
  5
443
100
AcDbEntity
  8
0
100
AcDbLine
 62
7
  6
CONTINUOUS
 10
131.0550906389
 20
172.919863143
 11
130.9441848544
 21
172.919863143
  0
LINE
  5
444
100
AcDbEntity
  8
0
100
AcDbLine
 62
7
  6
CONTINUOUS
 10
171.4212828526
 20
173.879951457
 11
168.9467160078
 21
173.8798764755
  0
LINE
  5
445
100
AcDbEntity
  8
0
100
AcDbLine
 62
7
  6
CONTINUOUS
 10
165.5921491633
 20
173.8797748293
 11
168.0667160082
 21
173.8798498108
  0
LINE
  5
446
100
AcDbEntity
  8
0
100
AcDbLine
 62
7
  6
CONTINUOUS
 10
162.7212695216
 20
173.879863143
 11
160.2467026756
 21
173.879863143
  0
LINE
  5
447
100
AcDbEntity
  8
0
100
AcDbLine
 62
7
  6
CONTINUOUS
 10
154.0212695216
 20
173.879863143
 11
151.5467026756
 21
173.879863143
  0
LINE
  5
448
100
AcDbEntity
  8
0
100
AcDbLine
 62
7
  6
CONTINUOUS
 10
145.3212695216
 20
173.879863143
 11
142.8467026756
 21
173.879863143
  0
LINE
  5
449
100
AcDbEntity
  8
0
100
AcDbLine
 62
7
  6
CONTINUOUS
 10
136.6212695216
 20
173.879863143
 11
134.1467026756
 21
173.879863143
  0
LINE
  5
44A
100
AcDbEntity
  8
0
100
AcDbLine
 62
7
  6
CONTINUOUS
 10
130.7921358296
 20
173.879863143
 11
133.2667026756
 21
173.879863143
  0
LINE
  5
44B
100
AcDbEntity
  8
0
100
AcDbLine
 62
7
  6
CONTINUOUS
 10
139.4921358296
 20
173.879863143
 11
141.9667026756
 21
173.879863143
  0
LINE
  5
44C
100
AcDbEntity
  8
0
100
AcDbLine
 62
7
  6
CONTINUOUS
 10
148.1921358296
 20
173.879863143
 11
150.6667026756
 21
173.879863143
  0
LINE
  5
44D
100
AcDbEntity
  8
0
100
AcDbLine
 62
7
  6
CONTINUOUS
 10
156.8921358296
 20
173.879863143
 11
159.3667026756
 21
173.879863143
  0
LINE
  5
44E
100
AcDbEntity
  8
02___PRT_ALL_AXES
100
AcDbLine
 62
2
  6
CENTER
 10
168.6067026756
 20
181.819863143
 11
168.6067026756
 21
175.719863143
  0
LINE
  5
44F
100
AcDbEntity
  8
02___PRT_ALL_AXES
100
AcDbLine
 62
2
  6
CENTER
 10
168.6067026756
 20
131.819863143
 11
168.6067026756
 21
125.719863143
  0
LINE
  5
450
100
AcDbEntity
  8
02___PRT_ALL_AXES
100
AcDbLine
 62
2
  6
CENTER
 10
168.6067026756
 20
131.819863143
 11
168.6067026756
 21
137.919863143
  0
LINE
  5
451
100
AcDbEntity
  8
02___PRT_ALL_AXES
100
AcDbLine
 62
2
  6
CENTER
 10
168.6067026756
 20
181.819863143
 11
168.6067026756
 21
187.919863143
  0
LINE
  5
452
100
AcDbEntity
  8
0
100
AcDbLine
 62
7
  6
CONTINUOUS
 10
168.9467026756
 20
142.2344299889
 11
168.9467026756
 21
139.759863143
  0
LINE
  5
453
100
AcDbEntity
  8
0
100
AcDbLine
 62
7
  6
CONTINUOUS
 10
168.9467026756
 20
136.405296297
 11
168.9467026756
 21
138.879863143
  0
LINE
  5
454
100
AcDbEntity
  8
0
100
AcDbLine
 62
7
  6
CONTINUOUS
 10
168.9466143616
 20
177.23444332
 11
168.946689343
 21
174.7598764751
  0
LINE
  5
455
100
AcDbEntity
  8
0
100
AcDbLine
 62
7
  6
CONTINUOUS
 10
168.9467909892
 20
171.4053096307
 11
168.9467160078
 21
173.8798764755
  0
LINE
  5
456
100
AcDbEntity
  8
0
100
AcDbLine
 62
7
  6
CONTINUOUS
 10
169.6067026756
 20
170.219863143
 11
169.6067026756
 21
168.219863143
  0
LINE
  5
457
100
AcDbEntity
  8
0
100
AcDbLine
 62
7
  6
CONTINUOUS
 10
169.6067026756
 20
145.419863143
 11
169.6067026756
 21
143.419863143
  0
LINE
  5
458
100
AcDbEntity
  8
0
100
AcDbLine
 62
7
  6
CONTINUOUS
 10
169.8491848381
 20
136.5259646971
 11
169.8491848381
 21
136.6445430097
  0
LINE
  5
459
100
AcDbEntity
  8
0
100
AcDbLine
 62
7
  6
CONTINUOUS
 10
169.8491848381
 20
141.9951832762
 11
169.8491848381
 21
142.1137616096
  0
LINE
  5
45A
100
AcDbEntity
  8
0
100
AcDbLine
 62
7
  6
CONTINUOUS
 10
169.8492694953
 20
171.5259943199
 11
169.849265902
 21
171.6445836893
  0
LINE
  5
45B
100
AcDbEntity
  8
0
100
AcDbLine
 62
7
  6
CONTINUOUS
 10
169.8491037731
 20
176.9952239533
 11
169.8491001804
 21
177.1137912327
  0
LINE
  5
45C
100
AcDbEntity
  8
0
100
AcDbLine
 62
7
  6
CONTINUOUS
 10
165.5921224986
 20
174.7597748289
 11
168.0666893434
 21
174.7598498104
  0
LINE
  5
45D
100
AcDbEntity
  8
0
100
AcDbLine
 62
7
  6
CONTINUOUS
 10
168.946689343
 20
174.7598764751
 11
171.4212561879
 21
174.7599514566
  0
LINE
  5
45E
100
AcDbEntity
  8
0
100
AcDbLine
 62
7
  6
CONTINUOUS
 10
130.7921358296
 20
174.759863143
 11
133.2667026756
 21
174.759863143
  0
LINE
  5
45F
100
AcDbEntity
  8
0
100
AcDbLine
 62
7
  6
CONTINUOUS
 10
134.1467026756
 20
174.759863143
 11
136.6212695216
 21
174.759863143
  0
LINE
  5
460
100
AcDbEntity
  8
0
100
AcDbLine
 62
7
  6
CONTINUOUS
 10
139.4921358296
 20
174.759863143
 11
141.9667026756
 21
174.759863143
  0
LINE
  5
461
100
AcDbEntity
  8
0
100
AcDbLine
 62
7
  6
CONTINUOUS
 10
142.8467026756
 20
174.759863143
 11
145.3212695216
 21
174.759863143
  0
LINE
  5
462
100
AcDbEntity
  8
0
100
AcDbLine
 62
7
  6
CONTINUOUS
 10
148.1921358296
 20
174.759863143
 11
150.6667026756
 21
174.759863143
  0
LINE
  5
463
100
AcDbEntity
  8
0
100
AcDbLine
 62
7
  6
CONTINUOUS
 10
151.5467026756
 20
174.759863143
 11
154.0212695216
 21
174.759863143
  0
LINE
  5
464
100
AcDbEntity
  8
0
100
AcDbLine
 62
7
  6
CONTINUOUS
 10
156.8921358296
 20
174.759863143
 11
159.3667026756
 21
174.759863143
  0
LINE
  5
465
100
AcDbEntity
  8
0
100
AcDbLine
 62
7
  6
CONTINUOUS
 10
160.2467026756
 20
174.759863143
 11
162.7212695216
 21
174.759863143
  0
LINE
  5
466
100
AcDbEntity
  8
0
100
AcDbLine
 62
7
  6
CONTINUOUS
 10
165.7414932191
 20
175.7197793554
 11
165.8550482189
 21
175.7197827963
  0
LINE
  5
467
100
AcDbEntity
  8
0
100
AcDbLine
 62
7
  6
CONTINUOUS
 10
171.15827229
 20
175.7199434884
 11
171.2690368307
 21
175.7199468447
  0
LINE
  5
468
100
AcDbEntity
  8
0
100
AcDbLine
 62
7
  6
CONTINUOUS
 10
130.9416842111
 20
175.719863143
 11
131.0550906389
 21
175.719863143
  0
LINE
  5
469
100
AcDbEntity
  8
0
100
AcDbLine
 62
7
  6
CONTINUOUS
 10
136.3583147124
 20
175.719863143
 11
136.4692204968
 21
175.719863143
  0
LINE
  5
46A
100
AcDbEntity
  8
0
100
AcDbLine
 62
7
  6
CONTINUOUS
 10
139.6416842111
 20
175.719863143
 11
139.7550906389
 21
175.719863143
  0
LINE
  5
46B
100
AcDbEntity
  8
0
100
AcDbLine
 62
7
  6
CONTINUOUS
 10
145.0583147124
 20
175.719863143
 11
145.1692204968
 21
175.719863143
  0
LINE
  5
46C
100
AcDbEntity
  8
0
100
AcDbLine
 62
7
  6
CONTINUOUS
 10
148.3416842111
 20
175.719863143
 11
148.4550906389
 21
175.719863143
  0
LINE
  5
46D
100
AcDbEntity
  8
0
100
AcDbLine
 62
7
  6
CONTINUOUS
 10
153.7583147124
 20
175.719863143
 11
153.8692204968
 21
175.719863143
  0
LINE
  5
46E
100
AcDbEntity
  8
0
100
AcDbLine
 62
7
  6
CONTINUOUS
 10
157.0415389145
 20
175.719863143
 11
157.1550906389
 21
175.719863143
  0
LINE
  5
46F
100
AcDbEntity
  8
0
100
AcDbLine
 62
7
  6
CONTINUOUS
 10
162.4583147124
 20
175.719863143
 11
162.5690812044
 21
175.719863143
  0
LINE
  5
470
100
AcDbEntity
  8
0
100
AcDbLine
 62
7
  6
CONTINUOUS
 10
171.6067026756
 20
151.269863143
 11
171.6067026756
 21
153.069863143
  0
LINE
  5
471
100
AcDbEntity
  8
0
100
AcDbLine
 62
7
  6
CONTINUOUS
 10
171.6067026756
 20
160.569863143
 11
171.6067026756
 21
162.369863143
  0
LINE
  5
472
100
AcDbEntity
  8
0
100
AcDbLine
 62
7
  6
CONTINUOUS
 10
172.1067026756
 20
129.319863143
 11
172.1067026756
 21
130.819863143
  0
LINE
  5
473
100
AcDbEntity
  8
0
100
AcDbLine
 62
7
  6
CONTINUOUS
 10
172.1067026756
 20
181.319863143
 11
172.1067026756
 21
181.419656471
  0
LINE
  5
474
100
AcDbEntity
  8
0
100
AcDbLine
 62
7
  6
CONTINUOUS
 10
172.1067026756
 20
182.819863143
 11
172.1067026756
 21
184.319863143
  0
LINE
  5
475
100
AcDbEntity
  8
0
100
AcDbLine
 62
7
  6
CONTINUOUS
 10
172.3067026756
 20
176.619863143
 11
172.3067026756
 21
137.019863143
  0
LINE
  5
476
100
AcDbEntity
  8
0
100
AcDbLine
 62
7
  6
CONTINUOUS
 10
172.3567026756
 20
129.319863143
 11
172.3567026756
 21
132.319863143
  0
LINE
  5
477
100
AcDbEntity
  8
0
100
AcDbLine
 62
7
  6
CONTINUOUS
 10
172.3567026756
 20
181.319863143
 11
172.3567026756
 21
184.319863143
  0
LINE
  5
478
100
AcDbEntity
  8
0
100
AcDbLine
 62
7
  6
CONTINUOUS
 10
172.6067026756
 20
176.619863143
 11
172.6067026756
 21
137.019863143
  0
LINE
  5
479
100
AcDbEntity
  8
0
100
AcDbLine
 62
7
  6
CONTINUOUS
 10
172.8067026756
 20
129.4096834219
 11
172.8067026756
 21
184.2300428641
  0
LINE
  5
47A
100
AcDbEntity
  8
0
100
AcDbLine
 62
7
  6
CONTINUOUS
 10
131.4067026756
 20
178.119863143
 11
136.0067026756
 21
178.119863143
  0
LINE
  5
47B
100
AcDbEntity
  8
0
100
AcDbLine
 62
7
  6
CONTINUOUS
 10
140.1067026756
 20
178.119863143
 11
144.7067026756
 21
178.119863143
  0
LINE
  5
47C
100
AcDbEntity
  8
0
100
AcDbLine
 62
7
  6
CONTINUOUS
 10
148.8067026756
 20
178.119863143
 11
153.4067026756
 21
178.119863143
  0
LINE
  5
47D
100
AcDbEntity
  8
0
100
AcDbLine
 62
7
  6
CONTINUOUS
 10
157.5067026756
 20
178.119863143
 11
162.1067026756
 21
178.119863143
  0
LINE
  5
47E
100
AcDbEntity
  8
0
100
AcDbLine
 62
7
  6
CONTINUOUS
 10
166.2067026756
 20
178.119863143
 11
170.8067026756
 21
178.119863143
  0
LINE
  5
47F
100
AcDbEntity
  8
0
100
AcDbLine
 62
7
  6
CONTINUOUS
 10
131.4067026756
 20
178.419863143
 11
136.0067026756
 21
178.419863143
  0
LINE
  5
480
100
AcDbEntity
  8
0
100
AcDbLine
 62
7
  6
CONTINUOUS
 10
140.1067026756
 20
178.419863143
 11
144.7067026756
 21
178.419863143
  0
LINE
  5
481
100
AcDbEntity
  8
0
100
AcDbLine
 62
7
  6
CONTINUOUS
 10
148.8067026756
 20
178.419863143
 11
153.4067026756
 21
178.419863143
  0
LINE
  5
482
100
AcDbEntity
  8
0
100
AcDbLine
 62
7
  6
CONTINUOUS
 10
157.5067026756
 20
178.419863143
 11
162.1067026756
 21
178.419863143
  0
LINE
  5
483
100
AcDbEntity
  8
0
100
AcDbLine
 62
7
  6
CONTINUOUS
 10
166.2067026756
 20
178.419863143
 11
170.8067026756
 21
178.419863143
  0
LINE
  5
484
100
AcDbEntity
  8
0
100
AcDbLine
 62
7
  6
CONTINUOUS
 10
173.6067026756
 20
183.819863143
 11
173.6067026756
 21
129.819863143
  0
LINE
  5
485
100
AcDbEntity
  8
0
100
AcDbLine
 62
7
  6
CONTINUOUS
 10
172.8067026756
 20
181.319863143
 11
129.4067026756
 21
181.319863143
  0
LINE
  5
486
100
AcDbEntity
  8
0
100
AcDbLine
 62
7
  6
CONTINUOUS
 10
172.1067026756
 20
181.419863143
 11
164.6567026756
 21
181.419863143
  0
LINE
  5
487
100
AcDbEntity
  8
0
100
AcDbLine
 62
7
  6
CONTINUOUS
 10
163.6567026756
 20
181.419863143
 11
156.3390645854
 21
181.419863143
  0
LINE
  5
488
100
AcDbEntity
  8
0
100
AcDbLine
 62
7
  6
CONTINUOUS
 10
152.284223698
 20
181.419863143
 11
149.9291816532
 21
181.419863143
  0
LINE
  5
489
100
AcDbEntity
  8
0
100
AcDbLine
 62
7
  6
CONTINUOUS
 10
145.8743407658
 20
181.419863143
 11
138.5567026756
 21
181.419863143
  0
LINE
  5
48A
100
AcDbEntity
  8
0
100
AcDbLine
 62
7
  6
CONTINUOUS
 10
137.5567026756
 20
181.419863143
 11
130.1067026756
 21
181.419863143
  0
LINE
  5
48B
100
AcDbEntity
  8
02___PRT_ALL_AXES
100
AcDbLine
 62
2
  6
CENTER
 10
168.6067026756
 20
181.819863143
 11
162.5067026756
 21
181.819863143
  0
LINE
  5
48C
100
AcDbEntity
  8
02___PRT_ALL_AXES
100
AcDbLine
 62
2
  6
CENTER
 10
133.6067026756
 20
181.819863143
 11
127.5067026756
 21
181.819863143
  0
LINE
  5
48D
100
AcDbEntity
  8
02___PRT_ALL_AXES
100
AcDbLine
 62
2
  6
CENTER
 10
133.6067026756
 20
181.819863143
 11
139.7067026756
 21
181.819863143
  0
LINE
  5
48E
100
AcDbEntity
  8
02___PRT_ALL_AXES
100
AcDbLine
 62
2
  6
CENTER
 10
168.6067026756
 20
181.819863143
 11
174.7067026756
 21
181.819863143
  0
LINE
  5
48F
100
AcDbEntity
  8
0
100
AcDbLine
 62
7
  6
CONTINUOUS
 10
172.3567026756
 20
182.819863143
 11
172.1067026756
 21
182.819863143
  0
LINE
  5
490
100
AcDbEntity
  8
0
100
AcDbLine
 62
7
  6
CONTINUOUS
 10
130.1067026756
 20
182.819863143
 11
129.8567026756
 21
182.819863143
  0
LINE
  5
491
100
AcDbEntity
  8
02___PRT_ALL_AXES
100
AcDbLine
 62
7
  6
CONTINUOUS
 10
161.2067026756
 20
183.319863143
 11
158.4067026756
 21
183.319863143
  0
LINE
  5
492
100
AcDbEntity
  8
02___PRT_ALL_AXES
100
AcDbLine
 62
7
  6
CONTINUOUS
 10
143.8067026756
 20
183.319863143
 11
141.0067026756
 21
183.319863143
  0
LINE
  5
493
100
AcDbEntity
  8
0
100
AcDbLine
 62
7
  6
CONTINUOUS
 10
129.1067026756
 20
184.319863143
 11
130.1067026756
 21
184.319863143
  0
LINE
  5
494
100
AcDbEntity
  8
0
100
AcDbLine
 62
7
  6
CONTINUOUS
 10
137.5567026756
 20
184.319863143
 11
138.5567026756
 21
184.319863143
  0
LINE
  5
495
100
AcDbEntity
  8
0
100
AcDbLine
 62
7
  6
CONTINUOUS
 10
146.2567026756
 20
184.319863143
 11
147.2567026756
 21
184.319863143
  0
LINE
  5
496
100
AcDbEntity
  8
0
100
AcDbLine
 62
7
  6
CONTINUOUS
 10
154.9567026756
 20
184.319863143
 11
155.9567026756
 21
184.319863143
  0
LINE
  5
497
100
AcDbEntity
  8
0
100
AcDbLine
 62
7
  6
CONTINUOUS
 10
163.6567026756
 20
184.319863143
 11
164.6567026756
 21
184.319863143
  0
LINE
  5
498
100
AcDbEntity
  8
0
100
AcDbLine
 62
7
  6
CONTINUOUS
 10
172.1067026756
 20
184.319863143
 11
173.1067026756
 21
184.319863143
  0
LINE
  5
499
100
AcDbEntity
  8
0
100
AcDbLine
 62
7
  6
CONTINUOUS
 10
131.6067026756
 20
185.819863143
 11
170.6067026756
 21
185.819863143
  0
LINE
  5
49A
100
AcDbEntity
  8
0
100
AcDbLine
 62
7
  6
CONTINUOUS
 10
224.4730203279
 20
138.819863143
 11
224.3242895999
 21
140.519863143
  0
LINE
  5
49B
100
AcDbEntity
  8
0
100
AcDbLine
 62
7
  6
CONTINUOUS
 10
222.0292759961
 20
127.819863143
 11
222.0292759961
 21
137.319863143
  0
LINE
  5
49C
100
AcDbEntity
  8
0
100
AcDbLine
 62
7
  6
CONTINUOUS
 10
222.0292759961
 20
177.819863143
 11
222.0292759961
 21
185.819863143
  0
LINE
  5
49D
100
AcDbEntity
  8
0
100
AcDbLine
 62
7
  6
CONTINUOUS
 10
223.0292759961
 20
163.319863143
 11
223.0292759961
 21
150.319863143
  0
LINE
  5
49E
100
AcDbEntity
  8
0
100
AcDbLine
 62
7
  6
CONTINUOUS
 10
224.3292759961
 20
177.819863143
 11
223.8918326785
 21
172.819863143
  0
LINE
  5
49F
100
AcDbEntity
  8
0
100
AcDbLine
 62
7
  6
CONTINUOUS
 10
225.5292759961
 20
177.819863143
 11
226.0292759961
 21
178.319863143
  0
LINE
  5
4A0
100
AcDbEntity
  8
0
100
AcDbLine
 62
7
  6
CONTINUOUS
 10
225.3292759961
 20
171.019863143
 11
225.3292759961
 21
173.619863143
  0
LINE
  5
4A1
100
AcDbEntity
  8
0
100
AcDbLine
 62
7
  6
CONTINUOUS
 10
225.5292759961
 20
177.819863143
 11
225.5292759961
 21
164.319863143
  0
LINE
  5
4A2
100
AcDbEntity
  8
0
100
AcDbLine
 62
7
  6
CONTINUOUS
 10
225.5292759961
 20
149.319863143
 11
225.5292759961
 21
139.319863143
  0
LINE
  5
4A3
100
AcDbEntity
  8
0
100
AcDbLine
 62
7
  6
CONTINUOUS
 10
227.0292759961
 20
160.819863143
 11
227.0292759961
 21
152.819863143
  0
LINE
  5
4A4
100
AcDbEntity
  8
0
100
AcDbLine
 62
7
  6
CONTINUOUS
 10
227.5292759961
 20
153.069863143
 11
227.5292759961
 21
160.569863143
  0
LINE
  5
4A5
100
AcDbEntity
  8
0
100
AcDbLine
 62
7
  6
CONTINUOUS
 10
225.5292759961
 20
173.819863143
 11
225.3292759961
 21
173.619863143
  0
LINE
  5
4A6
100
AcDbEntity
  8
0
100
AcDbLine
 62
7
  6
CONTINUOUS
 10
225.5292759961
 20
139.319863143
 11
226.0292759961
 21
138.819863143
  0
LINE
  5
4A7
100
AcDbEntity
  8
0
100
AcDbLine
 62
7
  6
CONTINUOUS
 10
222.8918326785
 20
172.819863143
 11
222.0292759961
 21
177.819863143
  0
LINE
  5
4A8
100
AcDbEntity
  8
0
100
AcDbLine
 62
7
  6
CONTINUOUS
 10
229.0292759961
 20
128.319863143
 11
229.0292759961
 21
134.819863143
  0
LINE
  5
4A9
100
AcDbEntity
  8
0
100
AcDbLine
 62
7
  6
CONTINUOUS
 10
229.0292759961
 20
178.819863143
 11
229.0292759961
 21
185.319863143
  0
LINE
  5
4AA
100
AcDbEntity
  8
0
100
AcDbLine
 62
7
  6
CONTINUOUS
 10
232.9292759961
 20
174.919863143
 11
232.7221692149
 21
174.419863143
  0
LINE
  5
4AB
100
AcDbEntity
  8
0
100
AcDbLine
 62
7
  6
CONTINUOUS
 10
232.9292759961
 20
138.719863143
 11
232.7221692149
 21
139.219863143
  0
LINE
  5
4AC
100
AcDbEntity
  8
0
100
AcDbLine
 62
7
  6
CONTINUOUS
 10
223.3242895999
 20
140.519863143
 11
222.0292759961
 21
137.319863143
  0
LINE
  5
4AD
100
AcDbEntity
  8
0
100
AcDbLine
 62
7
  6
CONTINUOUS
 10
229.0292759961
 20
178.819863143
 11
228.5292759961
 21
178.6127563618
  0
LINE
  5
4AE
100
AcDbEntity
  8
0
100
AcDbLine
 62
7
  6
CONTINUOUS
 10
229.0292759961
 20
134.819863143
 11
228.5292759961
 21
135.0269699242
  0
LINE
  5
4AF
100
AcDbEntity
  8
0
100
AcDbLine
 62
7
  6
CONTINUOUS
 10
246.0292759961
 20
135.819863143
 11
247.0292759961
 21
134.819863143
  0
LINE
  5
4B0
100
AcDbEntity
  8
0
100
AcDbLine
 62
7
  6
CONTINUOUS
 10
228.5292759961
 20
127.819863143
 11
222.0292759961
 21
127.819863143
  0
LINE
  5
4B1
100
AcDbEntity
  8
0
100
AcDbLine
 62
7
  6
CONTINUOUS
 10
249.0292759961
 20
129.319863143
 11
276.1150624337
 21
129.319863143
  0
LINE
  5
4B2
100
AcDbEntity
  8
0
100
AcDbLine
 62
7
  6
CONTINUOUS
 10
255.5121187086
 20
130.819863143
 11
256.726332271
 21
130.819863143
  0
LINE
  5
4B3
100
AcDbEntity
  8
0
100
AcDbLine
 62
7
  6
CONTINUOUS
 10
261.4518156706
 20
130.819863143
 11
262.6660292329
 21
130.819863143
  0
LINE
  5
4B4
100
AcDbEntity
  8
0
100
AcDbLine
 62
7
  6
CONTINUOUS
 10
267.3915126325
 20
130.819863143
 11
268.6057261949
 21
130.819863143
  0
LINE
  5
4B5
100
AcDbEntity
  8
0
100
AcDbLine
 62
7
  6
CONTINUOUS
 10
273.3312095945
 20
130.819863143
 11
274.5454231569
 21
130.819863143
  0
LINE
  5
4B6
100
AcDbEntity
  8
0
100
AcDbLine
 62
7
  6
CONTINUOUS
 10
243.5292759961
 20
144.319863143
 11
243.5292759961
 21
146.819863143
  0
LINE
  5
4B7
100
AcDbEntity
  8
0
100
AcDbLine
 62
7
  6
CONTINUOUS
 10
243.5292759961
 20
166.819863143
 11
243.5292759961
 21
169.319863143
  0
LINE
  5
4B8
100
AcDbEntity
  8
0
100
AcDbLine
 62
7
  6
CONTINUOUS
 10
225.5292759961
 20
149.319863143
 11
226.0292759961
 21
149.819863143
  0
LINE
  5
4B9
100
AcDbEntity
  8
0
100
AcDbLine
 62
7
  6
CONTINUOUS
 10
276.6625804444
 20
133.419863143
 11
275.448366882
 21
133.419863143
  0
LINE
  5
4BA
100
AcDbEntity
  8
0
100
AcDbLine
 62
7
  6
CONTINUOUS
 10
270.7228834824
 20
133.419863143
 11
269.50866992
 21
133.419863143
  0
LINE
  5
4BB
100
AcDbEntity
  8
0
100
AcDbLine
 62
7
  6
CONTINUOUS
 10
264.7831865205
 20
133.419863143
 11
263.5689729581
 21
133.419863143
  0
LINE
  5
4BC
100
AcDbEntity
  8
0
100
AcDbLine
 62
7
  6
CONTINUOUS
 10
258.8434895585
 20
133.419863143
 11
257.6292759961
 21
133.419863143
  0
LINE
  5
4BD
100
AcDbEntity
  8
0
100
AcDbLine
 62
7
  6
CONTINUOUS
 10
225.5292759961
 20
164.319863143
 11
226.0292759961
 21
163.819863143
  0
LINE
  5
4BE
100
AcDbEntity
  8
0
100
AcDbLine
 62
7
  6
CONTINUOUS
 10
247.0292759961
 20
182.319863143
 11
247.0292759961
 21
175.919863143
  0
LINE
  5
4BF
100
AcDbEntity
  8
0
100
AcDbLine
 62
7
  6
CONTINUOUS
 10
247.0292759961
 20
131.319863143
 11
247.0292759961
 21
137.719863143
  0
LINE
  5
4C0
100
AcDbEntity
  8
0
100
AcDbLine
 62
7
  6
CONTINUOUS
 10
249.5292759961
 20
160.569863143
 11
249.5292759961
 21
153.069863143
  0
LINE
  5
4C1
100
AcDbEntity
  8
0
100
AcDbLine
 62
7
  6
CONTINUOUS
 10
250.0292759961
 20
152.819863143
 11
250.0292759961
 21
160.819863143
  0
LINE
  5
4C2
100
AcDbEntity
  8
0
100
AcDbLine
 62
7
  6
CONTINUOUS
 10
229.0292759961
 20
134.819863143
 11
247.0292759961
 21
134.819863143
  0
LINE
  5
4C3
100
AcDbEntity
  8
0
100
AcDbLine
 62
7
  6
CONTINUOUS
 10
225.3292759961
 20
171.019863143
 11
225.5292759961
 21
170.819863143
  0
LINE
  5
4C4
100
AcDbEntity
  8
0
100
AcDbLine
 62
7
  6
CONTINUOUS
 10
253.0292759961
 20
184.319863143
 11
253.0292759961
 21
129.319863143
  0
LINE
  5
4C5
100
AcDbEntity
  8
0
100
AcDbLine
 62
7
  6
CONTINUOUS
 10
231.3706973523
 20
140.5612844992
 11
233.6292759961
 21
142.819863143
  0
LINE
  5
4C6
100
AcDbEntity
  8
0
100
AcDbLine
 62
7
  6
CONTINUOUS
 10
232.9292759961
 20
138.719863143
 11
246.0292759961
 21
138.719863143
  0
LINE
  5
4C7
100
AcDbEntity
  8
0
100
AcDbLine
 62
7
  6
CONTINUOUS
 10
225.5292759961
 20
139.319863143
 11
224.4292759961
 21
139.319863143
  0
LINE
  5
4C8
100
AcDbEntity
  8
0
100
AcDbLine
 62
7
  6
CONTINUOUS
 10
247.4341533196
 20
140.219863143
 11
246.2199397573
 21
140.219863143
  0
LINE
  5
4C9
100
AcDbEntity
  8
0
100
AcDbLine
 62
7
  6
CONTINUOUS
 10
240.0802427953
 20
140.219863143
 11
238.8660292329
 21
140.219863143
  0
LINE
  5
4CA
100
AcDbEntity
  8
0
100
AcDbLine
 62
7
  6
CONTINUOUS
 10
232.726332271
 20
140.219863143
 11
231.5121187086
 21
140.219863143
  0
LINE
  5
4CB
100
AcDbEntity
  8
0
100
AcDbLine
 62
7
  6
CONTINUOUS
 10
223.3242895999
 20
140.519863143
 11
224.3242895999
 21
140.519863143
  0
LINE
  5
4CC
100
AcDbEntity
  8
0
100
AcDbLine
 62
7
  6
CONTINUOUS
 10
287.3577031209
 20
140.819863143
 11
313.8221692149
 21
140.819863143
  0
LINE
  5
4CD
100
AcDbEntity
  8
0
100
AcDbLine
 62
7
  6
CONTINUOUS
 10
233.6292759961
 20
170.819863143
 11
231.3706973523
 21
173.0784417867
  0
LINE
  5
4CE
100
AcDbEntity
  8
0
100
AcDbLine
 62
7
  6
CONTINUOUS
 10
234.9849109147
 20
142.4784417867
 11
232.726332271
 21
140.219863143
  0
LINE
  5
4CF
100
AcDbEntity
  8
0
100
AcDbLine
 62
7
  6
CONTINUOUS
 10
229.0292759961
 20
134.819863143
 11
232.9292759961
 21
138.719863143
  0
LINE
  5
4D0
100
AcDbEntity
  8
0
100
AcDbLine
 62
7
  6
CONTINUOUS
 10
311.4292759961
 20
142.319863143
 11
310.2150624337
 21
142.319863143
  0
LINE
  5
4D1
100
AcDbEntity
  8
0
100
AcDbLine
 62
7
  6
CONTINUOUS
 10
305.4895790341
 20
142.319863143
 11
304.2753654718
 21
142.319863143
  0
LINE
  5
4D2
100
AcDbEntity
  8
0
100
AcDbLine
 62
7
  6
CONTINUOUS
 10
299.5498820722
 20
142.319863143
 11
298.3356685098
 21
142.319863143
  0
LINE
  5
4D3
100
AcDbEntity
  8
0
100
AcDbLine
 62
7
  6
CONTINUOUS
 10
293.6101851102
 20
142.319863143
 11
292.3959715478
 21
142.319863143
  0
LINE
  5
4D4
100
AcDbEntity
  8
0
100
AcDbLine
 62
7
  6
CONTINUOUS
 10
287.6704881482
 20
142.319863143
 11
286.4562745859
 21
142.319863143
  0
LINE
  5
4D5
100
AcDbEntity
  8
0
100
AcDbLine
 62
7
  6
CONTINUOUS
 10
233.6292759961
 20
142.819863143
 11
234.8434895585
 21
142.819863143
  0
LINE
  5
4D6
100
AcDbEntity
  8
0
100
AcDbLine
 62
7
  6
CONTINUOUS
 10
240.9831865205
 20
142.819863143
 11
242.1974000828
 21
142.819863143
  0
LINE
  5
4D7
100
AcDbEntity
  8
0
100
AcDbLine
 62
7
  6
CONTINUOUS
 10
248.3370970448
 20
142.819863143
 11
249.5513106072
 21
142.819863143
  0
LINE
  5
4D8
100
AcDbEntity
  8
0
100
AcDbLine
 62
7
  6
CONTINUOUS
 10
225.5292759961
 20
144.319863143
 11
243.5292759961
 21
144.319863143
  0
LINE
  5
4D9
100
AcDbEntity
  8
0
100
AcDbLine
 62
7
  6
CONTINUOUS
 10
281.0292759961
 20
144.319863143
 11
283.0292759961
 21
144.319863143
  0
LINE
  5
4DA
100
AcDbEntity
  8
0
100
AcDbLine
 62
7
  6
CONTINUOUS
 10
288.5734318734
 20
144.919863143
 11
289.7876454358
 21
144.919863143
  0
LINE
  5
4DB
100
AcDbEntity
  8
0
100
AcDbLine
 62
7
  6
CONTINUOUS
 10
294.5131288354
 20
144.919863143
 11
295.7273423977
 21
144.919863143
  0
LINE
  5
4DC
100
AcDbEntity
  8
0
100
AcDbLine
 62
7
  6
CONTINUOUS
 10
300.4528257973
 20
144.919863143
 11
301.6670393597
 21
144.919863143
  0
LINE
  5
4DD
100
AcDbEntity
  8
0
100
AcDbLine
 62
7
  6
CONTINUOUS
 10
306.3925227593
 20
144.919863143
 11
307.6067363217
 21
144.919863143
  0
LINE
  5
4DE
100
AcDbEntity
  8
0
100
AcDbLine
 62
7
  6
CONTINUOUS
 10
312.3322197213
 20
144.919863143
 11
313.5464332836
 21
144.919863143
  0
LINE
  5
4DF
100
AcDbEntity
  8
0
100
AcDbLine
 62
7
  6
CONTINUOUS
 10
232.726332271
 20
173.419863143
 11
234.9849109147
 21
171.1612844992
  0
LINE
  5
4E0
100
AcDbEntity
  8
0
100
AcDbLine
 62
7
  6
CONTINUOUS
 10
232.9292759961
 20
174.919863143
 11
229.0292759961
 21
178.819863143
  0
LINE
  5
4E1
100
AcDbEntity
  8
0
100
AcDbLine
 62
7
  6
CONTINUOUS
 10
238.7246078767
 20
140.5612844992
 11
240.9831865205
 21
142.819863143
  0
LINE
  5
4E2
100
AcDbEntity
  8
0
100
AcDbLine
 62
7
  6
CONTINUOUS
 10
242.3388214391
 20
142.4784417867
 11
240.0802427953
 21
140.219863143
  0
LINE
  5
4E3
100
AcDbEntity
  8
0
100
AcDbLine
 62
7
  6
CONTINUOUS
 10
243.5292759961
 20
146.819863143
 11
225.5292759961
 21
146.819863143
  0
LINE
  5
4E4
100
AcDbEntity
  8
0
100
AcDbLine
 62
7
  6
CONTINUOUS
 10
284.7292759961
 20
148.819863143
 11
282.2292759961
 21
148.819863143
  0
LINE
  5
4E5
100
AcDbEntity
  8
0
100
AcDbLine
 62
7
  6
CONTINUOUS
 10
284.7292759961
 20
149.019863143
 11
282.2292759961
 21
149.019863143
  0
LINE
  5
4E6
100
AcDbEntity
  8
0
100
AcDbLine
 62
7
  6
CONTINUOUS
 10
224.0292759961
 20
149.319863143
 11
225.5292759961
 21
149.319863143
  0
LINE
  5
4E7
100
AcDbEntity
  8
0
100
AcDbLine
 62
7
  6
CONTINUOUS
 10
240.9831865205
 20
170.819863143
 11
238.7246078767
 21
173.0784417867
  0
LINE
  5
4E8
100
AcDbEntity
  8
0
100
AcDbLine
 62
7
  6
CONTINUOUS
 10
240.0802427953
 20
173.419863143
 11
242.3388214391
 21
171.1612844992
  0
LINE
  5
4E9
100
AcDbEntity
  8
0
100
AcDbLine
 62
7
  6
CONTINUOUS
 10
263.0292759961
 20
157.819863143
 11
263.0292759961
 21
155.819863143
  0
LINE
  5
4EA
100
AcDbEntity
  8
0
100
AcDbLine
 62
7
  6
CONTINUOUS
 10
246.078518401
 20
140.5612844992
 11
248.3370970448
 21
142.819863143
  0
LINE
  5
4EB
100
AcDbEntity
  8
0
100
AcDbLine
 62
7
  6
CONTINUOUS
 10
249.6927319634
 20
142.4784417867
 11
247.4341533196
 21
140.219863143
  0
LINE
  5
4EC
100
AcDbEntity
  8
0
100
AcDbLine
 62
7
  6
CONTINUOUS
 10
282.2292759961
 20
151.819863143
 11
284.7292759961
 21
151.819863143
  0
LINE
  5
4ED
100
AcDbEntity
  8
0
100
AcDbLine
 62
7
  6
CONTINUOUS
 10
282.2292759961
 20
152.019863143
 11
284.7292759961
 21
152.019863143
  0
LINE
  5
4EE
100
AcDbEntity
  8
0
100
AcDbLine
 62
7
  6
CONTINUOUS
 10
227.5292759961
 20
152.319863143
 11
249.5292759961
 21
152.319863143
  0
LINE
  5
4EF
100
AcDbEntity
  8
0
100
AcDbLine
 62
7
  6
CONTINUOUS
 10
249.2792759961
 20
152.819863143
 11
227.7792759961
 21
152.819863143
  0
LINE
  5
4F0
100
AcDbEntity
  8
0
100
AcDbLine
 62
7
  6
CONTINUOUS
 10
248.3370970448
 20
170.819863143
 11
246.078518401
 21
173.0784417867
  0
LINE
  5
4F1
100
AcDbEntity
  8
0
100
AcDbLine
 62
7
  6
CONTINUOUS
 10
247.4341533196
 20
173.419863143
 11
249.6927319634
 21
171.1612844992
  0
LINE
  5
4F2
100
AcDbEntity
  8
0
100
AcDbLine
 62
7
  6
CONTINUOUS
 10
267.4292759961
 20
155.319863143
 11
267.4292759961
 21
158.319863143
  0
LINE
  5
4F3
100
AcDbEntity
  8
0
100
AcDbLine
 62
7
  6
CONTINUOUS
 10
268.9292759961
 20
158.2722123227
 11
268.9292759961
 21
155.3675139632
  0
LINE
  5
4F4
100
AcDbEntity
  8
0
100
AcDbLine
 62
7
  6
CONTINUOUS
 10
269.2292759961
 20
155.819863143
 11
269.2292759961
 21
157.819863143
  0
LINE
  5
4F5
100
AcDbEntity
  8
0
100
AcDbLine
 62
7
  6
CONTINUOUS
 10
263.5292759961
 20
155.319863143
 11
268.7292759961
 21
155.319863143
  0
LINE
  5
4F6
100
AcDbEntity
  8
0
100
AcDbLine
 62
7
  6
CONTINUOUS
 10
285.9434895585
 20
172.2340767053
 11
283.0292759961
 21
169.319863143
  0
LINE
  5
4F7
100
AcDbEntity
  8
0
100
AcDbLine
 62
7
  6
CONTINUOUS
 10
268.7292759961
 20
158.319863143
 11
263.5292759961
 21
158.319863143
  0
LINE
  5
4F8
100
AcDbEntity
  8
0
100
AcDbLine
 62
7
  6
CONTINUOUS
 10
227.7792759961
 20
160.819863143
 11
249.2792759961
 21
160.819863143
  0
LINE
  5
4F9
100
AcDbEntity
  8
0
100
AcDbLine
 62
7
  6
CONTINUOUS
 10
283.0292759961
 20
144.319863143
 11
285.9434895585
 21
141.4056495806
  0
LINE
  5
4FA
100
AcDbEntity
  8
0
100
AcDbLine
 62
7
  6
CONTINUOUS
 10
249.5292759961
 20
161.319863143
 11
227.5292759961
 21
161.319863143
  0
LINE
  5
4FB
100
AcDbEntity
  8
0
100
AcDbLine
 62
7
  6
CONTINUOUS
 10
284.7292759961
 20
161.619863143
 11
282.2292759961
 21
161.619863143
  0
LINE
  5
4FC
100
AcDbEntity
  8
0
100
AcDbLine
 62
7
  6
CONTINUOUS
 10
284.7292759961
 20
161.819863143
 11
282.2292759961
 21
161.819863143
  0
LINE
  5
4FD
100
AcDbEntity
  8
0
100
AcDbLine
 62
7
  6
CONTINUOUS
 10
225.5292759961
 20
164.319863143
 11
224.0292759961
 21
164.319863143
  0
LINE
  5
4FE
100
AcDbEntity
  8
0
100
AcDbLine
 62
7
  6
CONTINUOUS
 10
282.2292759961
 20
164.619863143
 11
284.7292759961
 21
164.619863143
  0
LINE
  5
4FF
100
AcDbEntity
  8
0
100
AcDbLine
 62
7
  6
CONTINUOUS
 10
282.2292759961
 20
164.819863143
 11
284.7292759961
 21
164.819863143
  0
LINE
  5
500
100
AcDbEntity
  8
0
100
AcDbLine
 62
7
  6
CONTINUOUS
 10
280.8791768495
 20
142.9972448812
 11
280.216660422
 21
144.4180159448
  0
LINE
  5
501
100
AcDbEntity
  8
0
100
AcDbLine
 62
7
  6
CONTINUOUS
 10
281.3658077442
 20
144.319863143
 11
281.6508658734
 21
143.7085540121
  0
LINE
  5
502
100
AcDbEntity
  8
0
100
AcDbLine
 62
7
  6
CONTINUOUS
 10
280.0292759961
 20
132.819863143
 11
280.0292759961
 21
180.819863143
  0
LINE
  5
503
100
AcDbEntity
  8
0
100
AcDbLine
 62
7
  6
CONTINUOUS
 10
257.6292759961
 20
133.419863143
 11
255.3706973523
 21
131.1612844992
  0
LINE
  5
504
100
AcDbEntity
  8
0
100
AcDbLine
 62
7
  6
CONTINUOUS
 10
256.726332271
 20
130.819863143
 11
258.9849109147
 21
133.0784417867
  0
LINE
  5
505
100
AcDbEntity
  8
0
100
AcDbLine
 62
7
  6
CONTINUOUS
 10
225.5292759961
 20
166.819863143
 11
243.5292759961
 21
166.819863143
  0
LINE
  5
506
100
AcDbEntity
  8
0
100
AcDbLine
 62
7
  6
CONTINUOUS
 10
255.3706973523
 20
182.4784417867
 11
257.6292759961
 21
180.219863143
  0
LINE
  5
507
100
AcDbEntity
  8
0
100
AcDbLine
 62
7
  6
CONTINUOUS
 10
258.9849109147
 20
180.5612844992
 11
256.726332271
 21
182.819863143
  0
LINE
  5
508
100
AcDbEntity
  8
0
100
AcDbLine
 62
7
  6
CONTINUOUS
 10
282.2292759961
 20
148.819863143
 11
282.2292759961
 21
152.019863143
  0
LINE
  5
509
100
AcDbEntity
  8
0
100
AcDbLine
 62
7
  6
CONTINUOUS
 10
282.2292759961
 20
161.619863143
 11
282.2292759961
 21
164.819863143
  0
LINE
  5
50A
100
AcDbEntity
  8
0
100
AcDbLine
 62
7
  6
CONTINUOUS
 10
282.2854846365
 20
142.9719520867
 11
282.2854846365
 21
142.919863143
  0
LINE
  5
50B
100
AcDbEntity
  8
0
100
AcDbLine
 62
7
  6
CONTINUOUS
 10
282.7292759961
 20
164.619863143
 11
282.7292759961
 21
161.819863143
  0
LINE
  5
50C
100
AcDbEntity
  8
0
100
AcDbLine
 62
7
  6
CONTINUOUS
 10
282.7292759961
 20
151.819863143
 11
282.7292759961
 21
149.019863143
  0
LINE
  5
50D
100
AcDbEntity
  8
0
100
AcDbLine
 62
7
  6
CONTINUOUS
 10
263.5689729581
 20
133.419863143
 11
261.3103943143
 21
131.1612844992
  0
LINE
  5
50E
100
AcDbEntity
  8
0
100
AcDbLine
 62
7
  6
CONTINUOUS
 10
262.6660292329
 20
130.819863143
 11
264.9246078767
 21
133.0784417867
  0
LINE
  5
50F
100
AcDbEntity
  8
0
100
AcDbLine
 62
7
  6
CONTINUOUS
 10
313.5464332836
 20
168.719863143
 11
312.3322197213
 21
168.719863143
  0
LINE
  5
510
100
AcDbEntity
  8
0
100
AcDbLine
 62
7
  6
CONTINUOUS
 10
307.6067363217
 20
168.719863143
 11
306.3925227593
 21
168.719863143
  0
LINE
  5
511
100
AcDbEntity
  8
0
100
AcDbLine
 62
7
  6
CONTINUOUS
 10
301.6670393597
 20
168.719863143
 11
300.4528257973
 21
168.719863143
  0
LINE
  5
512
100
AcDbEntity
  8
0
100
AcDbLine
 62
7
  6
CONTINUOUS
 10
295.7273423977
 20
168.719863143
 11
294.5131288354
 21
168.719863143
  0
LINE
  5
513
100
AcDbEntity
  8
0
100
AcDbLine
 62
7
  6
CONTINUOUS
 10
289.7876454358
 20
168.719863143
 11
288.5734318734
 21
168.719863143
  0
LINE
  5
514
100
AcDbEntity
  8
0
100
AcDbLine
 62
7
  6
CONTINUOUS
 10
283.0292759961
 20
169.319863143
 11
281.0292759961
 21
169.319863143
  0
LINE
  5
515
100
AcDbEntity
  8
0
100
AcDbLine
 62
7
  6
CONTINUOUS
 10
243.5292759961
 20
169.319863143
 11
225.5292759961
 21
169.319863143
  0
LINE
  5
516
100
AcDbEntity
  8
0
100
AcDbLine
 62
7
  6
CONTINUOUS
 10
249.5513106072
 20
170.819863143
 11
248.3370970448
 21
170.819863143
  0
LINE
  5
517
100
AcDbEntity
  8
0
100
AcDbLine
 62
7
  6
CONTINUOUS
 10
242.1974000828
 20
170.819863143
 11
240.9831865205
 21
170.819863143
  0
LINE
  5
518
100
AcDbEntity
  8
0
100
AcDbLine
 62
7
  6
CONTINUOUS
 10
234.8434895585
 20
170.819863143
 11
233.6292759961
 21
170.819863143
  0
LINE
  5
519
100
AcDbEntity
  8
0
100
AcDbLine
 62
7
  6
CONTINUOUS
 10
286.4562745859
 20
171.319863143
 11
287.6704881482
 21
171.319863143
  0
LINE
  5
51A
100
AcDbEntity
  8
0
100
AcDbLine
 62
7
  6
CONTINUOUS
 10
292.3959715478
 20
171.319863143
 11
293.6101851102
 21
171.319863143
  0
LINE
  5
51B
100
AcDbEntity
  8
0
100
AcDbLine
 62
7
  6
CONTINUOUS
 10
298.3356685098
 20
171.319863143
 11
299.5498820722
 21
171.319863143
  0
LINE
  5
51C
100
AcDbEntity
  8
0
100
AcDbLine
 62
7
  6
CONTINUOUS
 10
304.2753654718
 20
171.319863143
 11
305.4895790341
 21
171.319863143
  0
LINE
  5
51D
100
AcDbEntity
  8
0
100
AcDbLine
 62
7
  6
CONTINUOUS
 10
310.2150624337
 20
171.319863143
 11
311.4292759961
 21
171.319863143
  0
LINE
  5
51E
100
AcDbEntity
  8
0
100
AcDbLine
 62
7
  6
CONTINUOUS
 10
261.3103943143
 20
182.4784417867
 11
263.5689729581
 21
180.219863143
  0
LINE
  5
51F
100
AcDbEntity
  8
0
100
AcDbLine
 62
7
  6
CONTINUOUS
 10
264.9246078767
 20
180.5612844992
 11
262.6660292329
 21
182.819863143
  0
LINE
  5
520
100
AcDbEntity
  8
0
100
AcDbLine
 62
7
  6
CONTINUOUS
 10
284.7292759961
 20
164.819863143
 11
284.7292759961
 21
161.619863143
  0
LINE
  5
521
100
AcDbEntity
  8
0
100
AcDbLine
 62
7
  6
CONTINUOUS
 10
284.7292759961
 20
152.019863143
 11
284.7292759961
 21
148.819863143
  0
LINE
  5
522
100
AcDbEntity
  8
0
100
AcDbLine
 62
7
  6
CONTINUOUS
 10
283.0292759961
 20
144.319863143
 11
283.1535400648
 21
144.619863143
  0
LINE
  5
523
100
AcDbEntity
  8
0
100
AcDbLine
 62
7
  6
CONTINUOUS
 10
269.50866992
 20
133.419863143
 11
267.2500912763
 21
131.1612844992
  0
LINE
  5
524
100
AcDbEntity
  8
0
100
AcDbLine
 62
7
  6
CONTINUOUS
 10
268.6057261949
 20
130.819863143
 11
270.8643048387
 21
133.0784417867
  0
LINE
  5
525
100
AcDbEntity
  8
0
100
AcDbLine
 62
7
  6
CONTINUOUS
 10
313.8221692149
 20
172.819863143
 11
287.3577031209
 21
172.819863143
  0
LINE
  5
526
100
AcDbEntity
  8
0
100
AcDbLine
 62
7
  6
CONTINUOUS
 10
223.8918326785
 20
172.819863143
 11
222.8918326785
 21
172.819863143
  0
LINE
  5
527
100
AcDbEntity
  8
0
100
AcDbLine
 62
7
  6
CONTINUOUS
 10
231.5121187086
 20
173.419863143
 11
232.726332271
 21
173.419863143
  0
LINE
  5
528
100
AcDbEntity
  8
0
100
AcDbLine
 62
7
  6
CONTINUOUS
 10
238.8660292329
 20
173.419863143
 11
240.0802427953
 21
173.419863143
  0
LINE
  5
529
100
AcDbEntity
  8
0
100
AcDbLine
 62
7
  6
CONTINUOUS
 10
246.2199397573
 20
173.419863143
 11
247.4341533196
 21
173.419863143
  0
LINE
  5
52A
100
AcDbEntity
  8
0
100
AcDbLine
 62
7
  6
CONTINUOUS
 10
246.0292759961
 20
174.919863143
 11
232.9292759961
 21
174.919863143
  0
LINE
  5
52B
100
AcDbEntity
  8
0
100
AcDbLine
 62
7
  6
CONTINUOUS
 10
267.2500912763
 20
182.4784417867
 11
269.50866992
 21
180.219863143
  0
LINE
  5
52C
100
AcDbEntity
  8
0
100
AcDbLine
 62
7
  6
CONTINUOUS
 10
270.8643048387
 20
180.5612844992
 11
268.6057261949
 21
182.819863143
  0
LINE
  5
52D
100
AcDbEntity
  8
0
100
AcDbLine
 62
7
  6
CONTINUOUS
 10
283.0292759961
 20
169.319863143
 11
283.1535400648
 21
169.019863143
  0
LINE
  5
52E
100
AcDbEntity
  8
0
100
AcDbLine
 62
7
  6
CONTINUOUS
 10
275.448366882
 20
133.419863143
 11
273.1897882382
 21
131.1612844992
  0
LINE
  5
52F
100
AcDbEntity
  8
0
100
AcDbLine
 62
7
  6
CONTINUOUS
 10
286.3148532296
 20
142.6612844992
 11
288.5734318734
 21
144.919863143
  0
LINE
  5
530
100
AcDbEntity
  8
0
100
AcDbLine
 62
7
  6
CONTINUOUS
 10
274.5454231569
 20
130.819863143
 11
276.8040018006
 21
133.0784417867
  0
LINE
  5
531
100
AcDbEntity
  8
0
100
AcDbLine
 62
7
  6
CONTINUOUS
 10
225.5292759961
 20
177.819863143
 11
222.0292759961
 21
177.819863143
  0
LINE
  5
532
100
AcDbEntity
  8
0
100
AcDbLine
 62
7
  6
CONTINUOUS
 10
229.0292759961
 20
178.819863143
 11
247.0292759961
 21
178.819863143
  0
LINE
  5
533
100
AcDbEntity
  8
0
100
AcDbLine
 62
7
  6
CONTINUOUS
 10
273.1897882382
 20
182.4784417867
 11
275.448366882
 21
180.219863143
  0
LINE
  5
534
100
AcDbEntity
  8
0
100
AcDbLine
 62
7
  6
CONTINUOUS
 10
288.5734318734
 20
168.719863143
 11
286.3148532296
 21
170.9784417867
  0
LINE
  5
535
100
AcDbEntity
  8
0
100
AcDbLine
 62
7
  6
CONTINUOUS
 10
276.8040018006
 20
180.5612844992
 11
274.5454231569
 21
182.819863143
  0
LINE
  5
536
100
AcDbEntity
  8
0
100
AcDbLine
 62
7
  6
CONTINUOUS
 10
289.929066792
 20
144.5784417867
 11
287.6704881482
 21
142.319863143
  0
LINE
  5
537
100
AcDbEntity
  8
0
100
AcDbLine
 62
7
  6
CONTINUOUS
 10
276.8221692149
 20
129.6127563618
 11
279.7363827773
 21
132.5269699242
  0
LINE
  5
538
100
AcDbEntity
  8
0
100
AcDbLine
 62
7
  6
CONTINUOUS
 10
292.2545501916
 20
142.6612844992
 11
294.5131288354
 21
144.919863143
  0
LINE
  5
539
100
AcDbEntity
  8
0
100
AcDbLine
 62
7
  6
CONTINUOUS
 10
221.1792759961
 20
180.219863143
 11
222.0292759961
 21
180.219863143
  0
LINE
  5
53A
100
AcDbEntity
  8
0
100
AcDbLine
 62
7
  6
CONTINUOUS
 10
229.0292759961
 20
180.219863143
 11
231.9294441601
 21
180.219863143
  0
LINE
  5
53B
100
AcDbEntity
  8
0
100
AcDbLine
 62
7
  6
CONTINUOUS
 10
257.6292759961
 20
180.219863143
 11
258.8434895585
 21
180.219863143
  0
LINE
  5
53C
100
AcDbEntity
  8
0
100
AcDbLine
 62
7
  6
CONTINUOUS
 10
263.5689729581
 20
180.219863143
 11
264.7831865205
 21
180.219863143
  0
LINE
  5
53D
100
AcDbEntity
  8
0
100
AcDbLine
 62
7
  6
CONTINUOUS
 10
269.50866992
 20
180.219863143
 11
270.7228834824
 21
180.219863143
  0
LINE
  5
53E
100
AcDbEntity
  8
0
100
AcDbLine
 62
7
  6
CONTINUOUS
 10
275.448366882
 20
180.219863143
 11
276.6625804444
 21
180.219863143
  0
LINE
  5
53F
100
AcDbEntity
  8
0
100
AcDbLine
 62
7
  6
CONTINUOUS
 10
221.1792759961
 20
181.419863143
 11
222.0292759961
 21
181.419863143
  0
LINE
  5
540
100
AcDbEntity
  8
0
100
AcDbLine
 62
7
  6
CONTINUOUS
 10
229.0292759961
 20
181.419863143
 11
231.9294441601
 21
181.419863143
  0
LINE
  5
541
100
AcDbEntity
  8
0
100
AcDbLine
 62
7
  6
CONTINUOUS
 10
274.5454231569
 20
182.819863143
 11
273.3312095945
 21
182.819863143
  0
LINE
  5
542
100
AcDbEntity
  8
0
100
AcDbLine
 62
7
  6
CONTINUOUS
 10
268.6057261949
 20
182.819863143
 11
267.3915126325
 21
182.819863143
  0
LINE
  5
543
100
AcDbEntity
  8
0
100
AcDbLine
 62
7
  6
CONTINUOUS
 10
262.6660292329
 20
182.819863143
 11
261.4518156706
 21
182.819863143
  0
LINE
  5
544
100
AcDbEntity
  8
0
100
AcDbLine
 62
7
  6
CONTINUOUS
 10
256.726332271
 20
182.819863143
 11
255.5121187086
 21
182.819863143
  0
LINE
  5
545
100
AcDbEntity
  8
0
100
AcDbLine
 62
7
  6
CONTINUOUS
 10
287.6704881482
 20
171.319863143
 11
289.929066792
 21
169.0612844992
  0
LINE
  5
546
100
AcDbEntity
  8
0
100
AcDbLine
 62
7
  6
CONTINUOUS
 10
279.7363827773
 20
181.1127563618
 11
276.8221692149
 21
184.0269699242
  0
LINE
  5
547
100
AcDbEntity
  8
0
100
AcDbLine
 62
7
  6
CONTINUOUS
 10
294.5131288354
 20
168.719863143
 11
292.2545501916
 21
170.9784417867
  0
LINE
  5
548
100
AcDbEntity
  8
0
100
AcDbLine
 62
7
  6
CONTINUOUS
 10
295.868763754
 20
144.5784417867
 11
293.6101851102
 21
142.319863143
  0
LINE
  5
549
100
AcDbEntity
  8
0
100
AcDbLine
 62
7
  6
CONTINUOUS
 10
276.1150624337
 20
184.319863143
 11
249.0292759961
 21
184.319863143
  0
LINE
  5
54A
100
AcDbEntity
  8
0
100
AcDbLine
 62
7
  6
CONTINUOUS
 10
228.5292759961
 20
185.819863143
 11
222.0292759961
 21
185.819863143
  0
LINE
  5
54B
100
AcDbEntity
  8
0
100
AcDbLine
 62
7
  6
CONTINUOUS
 10
293.6101851102
 20
171.319863143
 11
295.868763754
 21
169.0612844992
  0
LINE
  5
54C
100
AcDbEntity
  8
0
100
AcDbLine
 62
7
  6
CONTINUOUS
 10
298.1942471536
 20
142.6612844992
 11
300.4528257973
 21
144.919863143
  0
LINE
  5
54D
100
AcDbEntity
  8
0
100
AcDbLine
 62
7
  6
CONTINUOUS
 10
301.8084607159
 20
144.5784417867
 11
299.5498820722
 21
142.319863143
  0
LINE
  5
54E
100
AcDbEntity
  8
0
100
AcDbLine
 62
7
  6
CONTINUOUS
 10
300.4528257973
 20
168.719863143
 11
298.1942471536
 21
170.9784417867
  0
LINE
  5
54F
100
AcDbEntity
  8
0
100
AcDbLine
 62
7
  6
CONTINUOUS
 10
299.5498820722
 20
171.319863143
 11
301.8084607159
 21
169.0612844992
  0
LINE
  5
550
100
AcDbEntity
  8
0
100
AcDbLine
 62
7
  6
CONTINUOUS
 10
304.1339441155
 20
142.6612844992
 11
306.3925227593
 21
144.919863143
  0
LINE
  5
551
100
AcDbEntity
  8
0
100
AcDbLine
 62
7
  6
CONTINUOUS
 10
307.7481576779
 20
144.5784417867
 11
305.4895790341
 21
142.319863143
  0
LINE
  5
552
100
AcDbEntity
  8
0
100
AcDbLine
 62
7
  6
CONTINUOUS
 10
306.3925227593
 20
168.719863143
 11
304.1339441155
 21
170.9784417867
  0
LINE
  5
553
100
AcDbEntity
  8
0
100
AcDbLine
 62
7
  6
CONTINUOUS
 10
305.4895790341
 20
171.319863143
 11
307.7481576779
 21
169.0612844992
  0
LINE
  5
554
100
AcDbEntity
  8
0
100
AcDbLine
 62
7
  6
CONTINUOUS
 10
310.0736410775
 20
142.6612844992
 11
312.3322197213
 21
144.919863143
  0
LINE
  5
555
100
AcDbEntity
  8
0
100
AcDbLine
 62
7
  6
CONTINUOUS
 10
313.6878546399
 20
144.5784417867
 11
311.4292759961
 21
142.319863143
  0
LINE
  5
556
100
AcDbEntity
  8
0
100
AcDbLine
 62
7
  6
CONTINUOUS
 10
312.3322197213
 20
168.719863143
 11
310.0736410775
 21
170.9784417867
  0
LINE
  5
557
100
AcDbEntity
  8
0
100
AcDbLine
 62
7
  6
CONTINUOUS
 10
311.4292759961
 20
171.319863143
 11
313.6878546399
 21
169.0612844992
  0
LINE
  5
558
100
AcDbEntity
  8
0
100
AcDbLine
 62
7
  6
CONTINUOUS
 10
314.1757226055
 20
140.9663097524
 11
316.8828293867
 21
143.6734165336
  0
LINE
  5
559
100
AcDbEntity
  8
0
100
AcDbLine
 62
7
  6
CONTINUOUS
 10
316.8828293867
 20
169.9663097524
 11
314.1757226055
 21
172.6734165336
  0
LINE
  5
55A
100
AcDbEntity
  8
0
100
AcDbLine
 62
7
  6
CONTINUOUS
 10
317.0292759961
 20
144.0269699242
 11
317.0292759961
 21
169.6127563618
  0
ARC
  5
55B
100
AcDbEntity
  8
0
100
AcDbCircle
 62
7
  6
CONTINUOUS
 10
131.6067026756
 20
130.819863143
 40
3.0
100
AcDbArc
 50
209.8864159726
 51
270.0
  0
ARC
  5
55C
100
AcDbEntity
  8
0
100
AcDbCircle
 62
7
  6
CONTINUOUS
 10
129.1067026756
 20
129.819863143
 40
0.5
100
AcDbArc
 50
180.0
 51
270.0
  0
ARC
  5
55D
100
AcDbEntity
  8
0
100
AcDbCircle
 62
7
  6
CONTINUOUS
 10
131.4067026756
 20
137.019863143
 40
1.8
100
AcDbArc
 50
180.0
 51
270.0
  0
ARC
  5
55E
100
AcDbEntity
  8
0
100
AcDbCircle
 62
7
  6
CONTINUOUS
 10
131.4067026756
 20
137.019863143
 40
1.5000501755
100
AcDbArc
 50
179.9999979537
 51
269.9999977393
  0
ARC
  5
55F
100
AcDbEntity
  8
0
100
AcDbCircle
 62
7
  6
CONTINUOUS
 10
131.4067026756
 20
141.619863143
 40
1.5
100
AcDbArc
 50
90.0000396229
 51
180.0
  0
ARC
  5
560
100
AcDbEntity
  8
0
100
AcDbCircle
 62
7
  6
CONTINUOUS
 10
128.9067026756
 20
141.119863143
 40
0.3
100
AcDbArc
 50
180.0
 51
270.0
  0
ARC
  5
561
100
AcDbEntity
  8
02___PRT_ALL_AXES
100
AcDbCircle
 62
7
  6
CONTINUOUS
 10
133.6067026756
 20
131.819863143
 40
2.1
100
AcDbArc
 50
166.1874760778
 51
13.8125239222
  0
CIRCLE
  5
562
100
AcDbEntity
  8
0
100
AcDbCircle
 62
7
  6
CONTINUOUS
 10
133.7067026756
 20
139.319863143
 40
3.1
  0
CIRCLE
  5
563
100
AcDbEntity
  8
03_AXES
100
AcDbCircle
 62
7
  6
CONTINUOUS
 10
133.7067026756
 20
139.319863143
 40
3.0
  0
ARC
  5
564
100
AcDbEntity
  8
0
100
AcDbCircle
 62
7
  6
CONTINUOUS
 10
133.7067026756
 20
139.319863143
 40
2.9475922207
100
AcDbArc
 50
171.4151218542
 51
188.5848781458
  0
ARC
  5
565
100
AcDbEntity
  8
0
100
AcDbCircle
 62
7
  6
CONTINUOUS
 10
133.7067026756
 20
139.319863143
 40
2.9475922207
100
AcDbArc
 50
351.4151218542
 51
8.5848781458
  0
ARC
  5
566
100
AcDbEntity
  8
0
100
AcDbCircle
 62
7
  6
CONTINUOUS
 10
133.7067026756
 20
139.319863143
 40
2.9475922207
100
AcDbArc
 50
261.4151218542
 51
278.5848781458
  0
ARC
  5
567
100
AcDbEntity
  8
0
100
AcDbCircle
 62
7
  6
CONTINUOUS
 10
133.7067026756
 20
139.319863143
 40
2.9475922207
100
AcDbArc
 50
81.4151218542
 51
98.5848781458
  0
ARC
  5
568
100
AcDbEntity
  8
0
100
AcDbCircle
 62
7
  6
CONTINUOUS
 10
136.0067026756
 20
137.019863143
 40
1.8
100
AcDbArc
 50
270.0
 51
360.0
  0
ARC
  5
569
100
AcDbEntity
  8
0
100
AcDbCircle
 62
7
  6
CONTINUOUS
 10
136.0067026756
 20
137.019863143
 40
1.5000501755
100
AcDbArc
 50
269.9999979537
 51
359.9999977393
  0
ARC
  5
56A
100
AcDbEntity
  8
0
100
AcDbCircle
 62
7
  6
CONTINUOUS
 10
136.0061035619
 20
141.6190410243
 40
1.5008505488
100
AcDbArc
 50
20.6651884595
 51
89.9771208219
  0
CIRCLE
  5
56B
100
AcDbEntity
  8
0
100
AcDbCircle
 62
7
  6
CONTINUOUS
 10
133.5567026756
 20
150.819863143
 40
3.2
  0
CIRCLE
  5
56C
100
AcDbEntity
  8
03_AXES
100
AcDbCircle
 62
7
  6
CONTINUOUS
 10
133.5567026756
 20
150.819863143
 40
3.0
  0
ARC
  5
56D
100
AcDbEntity
  8
0
100
AcDbCircle
 62
7
  6
CONTINUOUS
 10
133.5567026756
 20
150.819863143
 40
2.9475922207
100
AcDbArc
 50
171.4151218542
 51
188.5848781458
  0
ARC
  5
56E
100
AcDbEntity
  8
0
100
AcDbCircle
 62
7
  6
CONTINUOUS
 10
133.5567026756
 20
150.819863143
 40
2.9475922207
100
AcDbArc
 50
351.4151218542
 51
8.5848781458
  0
ARC
  5
56F
100
AcDbEntity
  8
0
100
AcDbCircle
 62
7
  6
CONTINUOUS
 10
133.5567026756
 20
150.819863143
 40
2.9475922207
100
AcDbArc
 50
261.4151218542
 51
278.5848781458
  0
ARC
  5
570
100
AcDbEntity
  8
0
100
AcDbCircle
 62
7
  6
CONTINUOUS
 10
133.5567026756
 20
150.819863143
 40
2.9475922207
100
AcDbArc
 50
81.4151218542
 51
98.5848781458
  0
ARC
  5
571
100
AcDbEntity
  8
0
100
AcDbCircle
 62
7
  6
CONTINUOUS
 10
139.7567026756
 20
153.419863143
 40
1.0000251978
100
AcDbArc
 50
90.0000015942
 51
180.0000040353
  0
ARC
  5
572
100
AcDbEntity
  8
0
100
AcDbCircle
 62
7
  6
CONTINUOUS
 10
139.7567026756
 20
148.219863143
 40
1.0000251978
100
AcDbArc
 50
180.0000015942
 51
270.0000040353
  0
ARC
  5
573
100
AcDbEntity
  8
0
100
AcDbCircle
 62
7
  6
CONTINUOUS
 10
136.0567026756
 20
148.219863143
 40
1.0000251978
100
AcDbArc
 50
270.0000015942
 51
0.0000040353
  0
ARC
  5
574
100
AcDbEntity
  8
0
100
AcDbCircle
 62
7
  6
CONTINUOUS
 10
131.0567026756
 20
148.219863143
 40
1.0000251978
100
AcDbArc
 50
180.0000015942
 51
270.0000040353
  0
ARC
  5
575
100
AcDbEntity
  8
0
100
AcDbCircle
 62
7
  6
CONTINUOUS
 10
131.0567026756
 20
153.419863143
 40
1.0
100
AcDbArc
 50
90.0000184021
 51
180.0000000001
  0
ARC
  5
576
100
AcDbEntity
  8
0
100
AcDbCircle
 62
7
  6
CONTINUOUS
 10
136.0567026756
 20
153.419863143
 40
1.0
100
AcDbArc
 50
0.0
 51
89.9999973581
  0
ARC
  5
577
100
AcDbEntity
  8
0
100
AcDbCircle
 62
7
  6
CONTINUOUS
 10
131.6067026756
 20
156.319863143
 40
0.3
100
AcDbArc
 50
180.0
 51
270.0
  0
ARC
  5
578
100
AcDbEntity
  8
0
100
AcDbCircle
 62
7
  6
CONTINUOUS
 10
135.5067026756
 20
156.319863143
 40
0.3
100
AcDbArc
 50
270.0
 51
360.0
  0
ARC
  5
579
100
AcDbEntity
  8
0
100
AcDbCircle
 62
7
  6
CONTINUOUS
 10
140.1067026756
 20
137.019863143
 40
1.8
100
AcDbArc
 50
180.0
 51
270.0
  0
ARC
  5
57A
100
AcDbEntity
  8
0
100
AcDbCircle
 62
7
  6
CONTINUOUS
 10
140.1067026756
 20
137.019863143
 40
1.5000501755
100
AcDbArc
 50
179.9999979537
 51
269.9999977393
  0
ARC
  5
57B
100
AcDbEntity
  8
0
100
AcDbCircle
 62
7
  6
CONTINUOUS
 10
140.1067026756
 20
141.619863143
 40
1.8
100
AcDbArc
 50
90.0
 51
161.7921967973
  0
ARC
  5
57C
100
AcDbEntity
  8
0
100
AcDbCircle
 62
7
  6
CONTINUOUS
 10
140.1067026756
 20
141.619863143
 40
1.5000501755
100
AcDbArc
 50
89.9999979537
 51
179.9999977393
  0
CIRCLE
  5
57D
100
AcDbEntity
  8
0
100
AcDbCircle
 62
7
  6
CONTINUOUS
 10
142.4067026756
 20
139.319863143
 40
3.1
  0
CIRCLE
  5
57E
100
AcDbEntity
  8
03_AXES
100
AcDbCircle
 62
7
  6
CONTINUOUS
 10
142.4067026756
 20
139.319863143
 40
3.0
  0
ARC
  5
57F
100
AcDbEntity
  8
0
100
AcDbCircle
 62
7
  6
CONTINUOUS
 10
142.4067026756
 20
139.319863143
 40
2.9475922207
100
AcDbArc
 50
171.4151218542
 51
188.5848781458
  0
ARC
  5
580
100
AcDbEntity
  8
0
100
AcDbCircle
 62
7
  6
CONTINUOUS
 10
142.4067026756
 20
139.319863143
 40
2.9475922207
100
AcDbArc
 50
351.4151218542
 51
8.5848781458
  0
ARC
  5
581
100
AcDbEntity
  8
0
100
AcDbCircle
 62
7
  6
CONTINUOUS
 10
142.4067026756
 20
139.319863143
 40
2.9475922207
100
AcDbArc
 50
261.4151218542
 51
278.5848781458
  0
ARC
  5
582
100
AcDbEntity
  8
0
100
AcDbCircle
 62
7
  6
CONTINUOUS
 10
142.4067026756
 20
139.319863143
 40
2.9475922207
100
AcDbArc
 50
81.4151218542
 51
98.5848781458
  0
ARC
  5
583
100
AcDbEntity
  8
0
100
AcDbCircle
 62
7
  6
CONTINUOUS
 10
144.7067026756
 20
137.019863143
 40
1.8
100
AcDbArc
 50
270.0
 51
360.0
  0
ARC
  5
584
100
AcDbEntity
  8
0
100
AcDbCircle
 62
7
  6
CONTINUOUS
 10
148.8067026756
 20
137.019863143
 40
1.8
100
AcDbArc
 50
180.0
 51
270.0
  0
ARC
  5
585
100
AcDbEntity
  8
0
100
AcDbCircle
 62
7
  6
CONTINUOUS
 10
148.8067026756
 20
137.019863143
 40
1.5000501755
100
AcDbArc
 50
179.9999979537
 51
269.9999977393
  0
ARC
  5
586
100
AcDbEntity
  8
0
100
AcDbCircle
 62
7
  6
CONTINUOUS
 10
144.7067026756
 20
137.019863143
 40
1.5000501755
100
AcDbArc
 50
269.9999979537
 51
359.9999977393
  0
ARC
  5
587
100
AcDbEntity
  8
0
100
AcDbCircle
 62
7
  6
CONTINUOUS
 10
144.7067026756
 20
141.619863143
 40
1.8
100
AcDbArc
 50
38.3339210214
 51
90.0
  0
ARC
  5
588
100
AcDbEntity
  8
0
100
AcDbCircle
 62
7
  6
CONTINUOUS
 10
148.8067026756
 20
141.619863143
 40
1.8
100
AcDbArc
 50
90.0
 51
161.7921967973
  0
ARC
  5
589
100
AcDbEntity
  8
0
100
AcDbCircle
 62
7
  6
CONTINUOUS
 10
148.8067026756
 20
141.619863143
 40
1.5000501755
100
AcDbArc
 50
89.9999979537
 51
179.9999977393
  0
ARC
  5
58A
100
AcDbEntity
  8
0
100
AcDbCircle
 62
7
  6
CONTINUOUS
 10
144.7067026756
 20
141.619863143
 40
1.5000501755
100
AcDbArc
 50
19.919057245
 51
89.9999977393
  0
ARC
  5
58B
100
AcDbEntity
  8
0
100
AcDbCircle
 62
7
  6
CONTINUOUS
 10
144.7567026756
 20
148.219863143
 40
1.0000251978
100
AcDbArc
 50
270.0000015942
 51
0.0000040353
  0
CIRCLE
  5
58C
100
AcDbEntity
  8
0
100
AcDbCircle
 62
7
  6
CONTINUOUS
 10
142.2567026756
 20
150.819863143
 40
3.2
  0
CIRCLE
  5
58D
100
AcDbEntity
  8
03_AXES
100
AcDbCircle
 62
7
  6
CONTINUOUS
 10
142.2567026756
 20
150.819863143
 40
3.0
  0
ARC
  5
58E
100
AcDbEntity
  8
0
100
AcDbCircle
 62
7
  6
CONTINUOUS
 10
142.2567026756
 20
150.819863143
 40
2.9475922207
100
AcDbArc
 50
171.4151218542
 51
188.5848781458
  0
ARC
  5
58F
100
AcDbEntity
  8
0
100
AcDbCircle
 62
7
  6
CONTINUOUS
 10
142.2567026756
 20
150.819863143
 40
2.9475922207
100
AcDbArc
 50
351.4151218542
 51
8.5848781458
  0
ARC
  5
590
100
AcDbEntity
  8
0
100
AcDbCircle
 62
7
  6
CONTINUOUS
 10
142.2567026756
 20
150.819863143
 40
2.9475922207
100
AcDbArc
 50
261.4151218542
 51
278.5848781458
  0
ARC
  5
591
100
AcDbEntity
  8
0
100
AcDbCircle
 62
7
  6
CONTINUOUS
 10
142.2567026756
 20
150.819863143
 40
2.9475922207
100
AcDbArc
 50
81.4151218542
 51
98.5848781458
  0
ARC
  5
592
100
AcDbEntity
  8
0
100
AcDbCircle
 62
7
  6
CONTINUOUS
 10
144.7567026756
 20
153.419863143
 40
1.0000251978
100
AcDbArc
 50
0.0000015942
 51
90.0000040353
  0
ARC
  5
593
100
AcDbEntity
  8
0
100
AcDbCircle
 62
7
  6
CONTINUOUS
 10
148.4567026756
 20
148.219863143
 40
1.0000251978
100
AcDbArc
 50
180.0000015942
 51
270.0000040353
  0
CIRCLE
  5
594
100
AcDbEntity
  8
0
100
AcDbCircle
 62
7
  6
CONTINUOUS
 10
150.9567026756
 20
150.819863143
 40
3.2
  0
CIRCLE
  5
595
100
AcDbEntity
  8
03_AXES
100
AcDbCircle
 62
7
  6
CONTINUOUS
 10
150.9567026756
 20
150.819863143
 40
3.0
  0
ARC
  5
596
100
AcDbEntity
  8
0
100
AcDbCircle
 62
7
  6
CONTINUOUS
 10
150.9567026756
 20
150.819863143
 40
2.9475922207
100
AcDbArc
 50
171.4151218542
 51
188.5848781458
  0
ARC
  5
597
100
AcDbEntity
  8
0
100
AcDbCircle
 62
7
  6
CONTINUOUS
 10
150.9567026756
 20
150.819863143
 40
2.9475922207
100
AcDbArc
 50
351.4151218542
 51
8.5848781458
  0
ARC
  5
598
100
AcDbEntity
  8
0
100
AcDbCircle
 62
7
  6
CONTINUOUS
 10
150.9567026756
 20
150.819863143
 40
2.9475922207
100
AcDbArc
 50
261.4151218542
 51
278.5848781458
  0
ARC
  5
599
100
AcDbEntity
  8
0
100
AcDbCircle
 62
7
  6
CONTINUOUS
 10
150.9567026756
 20
150.819863143
 40
2.9475922207
100
AcDbArc
 50
81.4151218542
 51
98.5848781458
  0
ARC
  5
59A
100
AcDbEntity
  8
0
100
AcDbCircle
 62
7
  6
CONTINUOUS
 10
148.4567026756
 20
153.419863143
 40
1.0000251978
100
AcDbArc
 50
90.0000015942
 51
180.0000040353
  0
CIRCLE
  5
59B
100
AcDbEntity
  8
0
100
AcDbCircle
 62
7
  6
CONTINUOUS
 10
133.5567026756
 20
162.819863143
 40
3.2
  0
CIRCLE
  5
59C
100
AcDbEntity
  8
03_AXES
100
AcDbCircle
 62
7
  6
CONTINUOUS
 10
133.5567026756
 20
162.819863143
 40
3.0
  0
ARC
  5
59D
100
AcDbEntity
  8
0
100
AcDbCircle
 62
7
  6
CONTINUOUS
 10
133.5567026756
 20
162.819863143
 40
2.9475922207
100
AcDbArc
 50
171.4151218542
 51
188.5848781458
  0
ARC
  5
59E
100
AcDbEntity
  8
0
100
AcDbCircle
 62
7
  6
CONTINUOUS
 10
133.5567026756
 20
162.819863143
 40
2.9475922207
100
AcDbArc
 50
351.4151218542
 51
8.5848781458
  0
ARC
  5
59F
100
AcDbEntity
  8
0
100
AcDbCircle
 62
7
  6
CONTINUOUS
 10
133.5567026756
 20
162.819863143
 40
2.9475922207
100
AcDbArc
 50
261.4151218542
 51
278.5848781458
  0
ARC
  5
5A0
100
AcDbEntity
  8
0
100
AcDbCircle
 62
7
  6
CONTINUOUS
 10
133.5567026756
 20
162.819863143
 40
2.9475922207
100
AcDbArc
 50
81.4151218542
 51
98.5848781458
  0
ARC
  5
5A1
100
AcDbEntity
  8
0
100
AcDbCircle
 62
7
  6
CONTINUOUS
 10
139.7567026756
 20
160.219863143
 40
1.0000251978
100
AcDbArc
 50
180.0000015942
 51
270.0000040353
  0
ARC
  5
5A2
100
AcDbEntity
  8
0
100
AcDbCircle
 62
7
  6
CONTINUOUS
 10
139.7567026756
 20
165.419863143
 40
1.0000251978
100
AcDbArc
 50
90.0000015942
 51
180.0000040353
  0
ARC
  5
5A3
100
AcDbEntity
  8
0
100
AcDbCircle
 62
7
  6
CONTINUOUS
 10
136.0567026756
 20
165.419863143
 40
1.0000251978
100
AcDbArc
 50
0.0000015942
 51
90.0000040353
  0
ARC
  5
5A4
100
AcDbEntity
  8
0
100
AcDbCircle
 62
7
  6
CONTINUOUS
 10
131.0567026756
 20
165.419863143
 40
1.0000251978
100
AcDbArc
 50
90.0000015942
 51
180.0000040353
  0
ARC
  5
5A5
100
AcDbEntity
  8
0
100
AcDbCircle
 62
7
  6
CONTINUOUS
 10
136.0567026756
 20
160.219863143
 40
1.0
100
AcDbArc
 50
270.0000026438
 51
360.0
  0
ARC
  5
5A6
100
AcDbEntity
  8
0
100
AcDbCircle
 62
7
  6
CONTINUOUS
 10
131.0567026756
 20
160.219863143
 40
1.0
100
AcDbArc
 50
179.9999999999
 51
269.9999815863
  0
ARC
  5
5A7
100
AcDbEntity
  8
0
100
AcDbCircle
 62
7
  6
CONTINUOUS
 10
131.6067026756
 20
157.319863143
 40
0.3
100
AcDbArc
 50
90.0
 51
180.0
  0
ARC
  5
5A8
100
AcDbEntity
  8
0
100
AcDbCircle
 62
7
  6
CONTINUOUS
 10
135.5067026756
 20
157.319863143
 40
0.3
100
AcDbArc
 50
0.0
 51
90.0
  0
ARC
  5
5A9
100
AcDbEntity
  8
0
100
AcDbCircle
 62
7
  6
CONTINUOUS
 10
131.4067026756
 20
176.619863143
 40
1.8
100
AcDbArc
 50
90.0
 51
180.0
  0
ARC
  5
5AA
100
AcDbEntity
  8
0
100
AcDbCircle
 62
7
  6
CONTINUOUS
 10
131.4067026756
 20
176.619863143
 40
1.5000501755
100
AcDbArc
 50
89.9999979537
 51
179.9999977393
  0
ARC
  5
5AB
100
AcDbEntity
  8
0
100
AcDbCircle
 62
7
  6
CONTINUOUS
 10
131.4067026756
 20
172.019863143
 40
1.5
100
AcDbArc
 50
180.0
 51
269.9999603565
  0
ARC
  5
5AC
100
AcDbEntity
  8
0
100
AcDbCircle
 62
7
  6
CONTINUOUS
 10
128.9067026756
 20
172.519863143
 40
0.3
100
AcDbArc
 50
90.0
 51
180.0
  0
ARC
  5
5AD
100
AcDbEntity
  8
0
100
AcDbCircle
 62
7
  6
CONTINUOUS
 10
131.6067026756
 20
182.819863143
 40
3.0
100
AcDbArc
 50
90.0
 51
150.1135840264
  0
ARC
  5
5AE
100
AcDbEntity
  8
0
100
AcDbCircle
 62
7
  6
CONTINUOUS
 10
129.1067026756
 20
183.819863143
 40
0.5
100
AcDbArc
 50
90.0
 51
180.0
  0
CIRCLE
  5
5AF
100
AcDbEntity
  8
0
100
AcDbCircle
 62
7
  6
CONTINUOUS
 10
133.7067026756
 20
174.319863143
 40
3.1
  0
CIRCLE
  5
5B0
100
AcDbEntity
  8
03_AXES
100
AcDbCircle
 62
7
  6
CONTINUOUS
 10
133.7067026756
 20
174.319863143
 40
3.0
  0
ARC
  5
5B1
100
AcDbEntity
  8
0
100
AcDbCircle
 62
7
  6
CONTINUOUS
 10
133.7067026756
 20
174.319863143
 40
2.9475922207
100
AcDbArc
 50
171.4151218542
 51
188.5848781458
  0
ARC
  5
5B2
100
AcDbEntity
  8
0
100
AcDbCircle
 62
7
  6
CONTINUOUS
 10
133.7067026756
 20
174.319863143
 40
2.9475922207
100
AcDbArc
 50
351.4151218542
 51
8.5848781458
  0
ARC
  5
5B3
100
AcDbEntity
  8
0
100
AcDbCircle
 62
7
  6
CONTINUOUS
 10
133.7067026756
 20
174.319863143
 40
2.9475922207
100
AcDbArc
 50
261.4151218542
 51
278.5848781458
  0
ARC
  5
5B4
100
AcDbEntity
  8
0
100
AcDbCircle
 62
7
  6
CONTINUOUS
 10
133.7067026756
 20
174.319863143
 40
2.9475922207
100
AcDbArc
 50
81.4151218542
 51
98.5848781458
  0
ARC
  5
5B5
100
AcDbEntity
  8
0
100
AcDbCircle
 62
7
  6
CONTINUOUS
 10
136.0061039815
 20
172.0206851842
 40
1.5008505556
100
AcDbArc
 50
270.0228631602
 51
339.3347040037
  0
ARC
  5
5B6
100
AcDbEntity
  8
0
100
AcDbCircle
 62
7
  6
CONTINUOUS
 10
136.0067026756
 20
176.619863143
 40
1.8
100
AcDbArc
 50
0.0
 51
90.0
  0
ARC
  5
5B7
100
AcDbEntity
  8
0
100
AcDbCircle
 62
7
  6
CONTINUOUS
 10
136.0067026756
 20
176.619863143
 40
1.5000501755
100
AcDbArc
 50
359.9999979537
 51
89.9999977393
  0
ARC
  5
5B8
100
AcDbEntity
  8
02___PRT_ALL_AXES
100
AcDbCircle
 62
7
  6
CONTINUOUS
 10
133.6067026756
 20
181.819863143
 40
2.1
100
AcDbArc
 50
349.0635634588
 51
191.0810403915
  0
ARC
  5
5B9
100
AcDbEntity
  8
0
100
AcDbCircle
 62
7
  6
CONTINUOUS
 10
144.7567026756
 20
160.219863143
 40
1.0000251978
100
AcDbArc
 50
270.0000015942
 51
0.0000040353
  0
CIRCLE
  5
5BA
100
AcDbEntity
  8
0
100
AcDbCircle
 62
7
  6
CONTINUOUS
 10
142.2567026756
 20
162.819863143
 40
3.2
  0
CIRCLE
  5
5BB
100
AcDbEntity
  8
03_AXES
100
AcDbCircle
 62
7
  6
CONTINUOUS
 10
142.2567026756
 20
162.819863143
 40
3.0
  0
ARC
  5
5BC
100
AcDbEntity
  8
0
100
AcDbCircle
 62
7
  6
CONTINUOUS
 10
142.2567026756
 20
162.819863143
 40
2.9475922207
100
AcDbArc
 50
171.4151218542
 51
188.5848781458
  0
ARC
  5
5BD
100
AcDbEntity
  8
0
100
AcDbCircle
 62
7
  6
CONTINUOUS
 10
142.2567026756
 20
162.819863143
 40
2.9475922207
100
AcDbArc
 50
351.4151218542
 51
8.5848781458
  0
ARC
  5
5BE
100
AcDbEntity
  8
0
100
AcDbCircle
 62
7
  6
CONTINUOUS
 10
142.2567026756
 20
162.819863143
 40
2.9475922207
100
AcDbArc
 50
261.4151218542
 51
278.5848781458
  0
ARC
  5
5BF
100
AcDbEntity
  8
0
100
AcDbCircle
 62
7
  6
CONTINUOUS
 10
142.2567026756
 20
162.819863143
 40
2.9475922207
100
AcDbArc
 50
81.4151218542
 51
98.5848781458
  0
ARC
  5
5C0
100
AcDbEntity
  8
0
100
AcDbCircle
 62
7
  6
CONTINUOUS
 10
144.7567026756
 20
165.419863143
 40
1.0000251978
100
AcDbArc
 50
0.0000015942
 51
90.0000040353
  0
ARC
  5
5C1
100
AcDbEntity
  8
0
100
AcDbCircle
 62
7
  6
CONTINUOUS
 10
148.4567026756
 20
160.219863143
 40
1.0000251978
100
AcDbArc
 50
180.0000015942
 51
270.0000040353
  0
CIRCLE
  5
5C2
100
AcDbEntity
  8
0
100
AcDbCircle
 62
7
  6
CONTINUOUS
 10
150.9567026756
 20
162.819863143
 40
3.2
  0
CIRCLE
  5
5C3
100
AcDbEntity
  8
03_AXES
100
AcDbCircle
 62
7
  6
CONTINUOUS
 10
150.9567026756
 20
162.819863143
 40
3.0
  0
ARC
  5
5C4
100
AcDbEntity
  8
0
100
AcDbCircle
 62
7
  6
CONTINUOUS
 10
150.9567026756
 20
162.819863143
 40
2.9475922207
100
AcDbArc
 50
171.4151218542
 51
188.5848781458
  0
ARC
  5
5C5
100
AcDbEntity
  8
0
100
AcDbCircle
 62
7
  6
CONTINUOUS
 10
150.9567026756
 20
162.819863143
 40
2.9475922207
100
AcDbArc
 50
351.4151218542
 51
8.5848781458
  0
ARC
  5
5C6
100
AcDbEntity
  8
0
100
AcDbCircle
 62
7
  6
CONTINUOUS
 10
150.9567026756
 20
162.819863143
 40
2.9475922207
100
AcDbArc
 50
261.4151218542
 51
278.5848781458
  0
ARC
  5
5C7
100
AcDbEntity
  8
0
100
AcDbCircle
 62
7
  6
CONTINUOUS
 10
150.9567026756
 20
162.819863143
 40
2.9475922207
100
AcDbArc
 50
81.4151218542
 51
98.5848781458
  0
ARC
  5
5C8
100
AcDbEntity
  8
0
100
AcDbCircle
 62
7
  6
CONTINUOUS
 10
148.4567026756
 20
165.419863143
 40
1.0000251978
100
AcDbArc
 50
90.0000015942
 51
180.0000040353
  0
ARC
  5
5C9
100
AcDbEntity
  8
0
100
AcDbCircle
 62
7
  6
CONTINUOUS
 10
140.1067026756
 20
172.019863143
 40
1.8
100
AcDbArc
 50
198.2077533595
 51
270.0
  0
ARC
  5
5CA
100
AcDbEntity
  8
0
100
AcDbCircle
 62
7
  6
CONTINUOUS
 10
140.1067026756
 20
172.019863143
 40
1.5000501755
100
AcDbArc
 50
179.9999979537
 51
269.9999977393
  0
ARC
  5
5CB
100
AcDbEntity
  8
0
100
AcDbCircle
 62
7
  6
CONTINUOUS
 10
140.1067026756
 20
176.619863143
 40
1.8
100
AcDbArc
 50
90.0
 51
180.0
  0
ARC
  5
5CC
100
AcDbEntity
  8
0
100
AcDbCircle
 62
7
  6
CONTINUOUS
 10
140.1067026756
 20
176.619863143
 40
1.5000501755
100
AcDbArc
 50
89.9999979537
 51
179.9999977393
  0
CIRCLE
  5
5CD
100
AcDbEntity
  8
0
100
AcDbCircle
 62
7
  6
CONTINUOUS
 10
142.4067026756
 20
174.319863143
 40
3.1
  0
CIRCLE
  5
5CE
100
AcDbEntity
  8
03_AXES
100
AcDbCircle
 62
7
  6
CONTINUOUS
 10
142.4067026756
 20
174.319863143
 40
3.0
  0
ARC
  5
5CF
100
AcDbEntity
  8
0
100
AcDbCircle
 62
7
  6
CONTINUOUS
 10
142.4067026756
 20
174.319863143
 40
2.9475922207
100
AcDbArc
 50
171.4151218542
 51
188.5848781458
  0
ARC
  5
5D0
100
AcDbEntity
  8
0
100
AcDbCircle
 62
7
  6
CONTINUOUS
 10
142.4067026756
 20
174.319863143
 40
2.9475922207
100
AcDbArc
 50
351.4151218542
 51
8.5848781458
  0
ARC
  5
5D1
100
AcDbEntity
  8
0
100
AcDbCircle
 62
7
  6
CONTINUOUS
 10
142.4067026756
 20
174.319863143
 40
2.9475922207
100
AcDbArc
 50
261.4151218542
 51
278.5848781458
  0
ARC
  5
5D2
100
AcDbEntity
  8
0
100
AcDbCircle
 62
7
  6
CONTINUOUS
 10
142.4067026756
 20
174.319863143
 40
2.9475922207
100
AcDbArc
 50
81.4151218542
 51
98.5848781458
  0
ARC
  5
5D3
100
AcDbEntity
  8
0
100
AcDbCircle
 62
7
  6
CONTINUOUS
 10
144.7067026756
 20
172.019863143
 40
1.8
100
AcDbArc
 50
270.0
 51
321.6660804559
  0
ARC
  5
5D4
100
AcDbEntity
  8
0
100
AcDbCircle
 62
7
  6
CONTINUOUS
 10
148.8067026756
 20
172.019863143
 40
1.8
100
AcDbArc
 50
198.2077533595
 51
270.0
  0
ARC
  5
5D5
100
AcDbEntity
  8
0
100
AcDbCircle
 62
7
  6
CONTINUOUS
 10
148.8067026756
 20
172.019863143
 40
1.5000501755
100
AcDbArc
 50
179.9999979537
 51
269.9999977393
  0
ARC
  5
5D6
100
AcDbEntity
  8
0
100
AcDbCircle
 62
7
  6
CONTINUOUS
 10
144.7067026756
 20
172.019863143
 40
1.5000501755
100
AcDbArc
 50
269.9999979537
 51
340.0809412801
  0
ARC
  5
5D7
100
AcDbEntity
  8
0
100
AcDbCircle
 62
7
  6
CONTINUOUS
 10
148.8067026756
 20
176.619863143
 40
1.8
100
AcDbArc
 50
90.0
 51
180.0
  0
ARC
  5
5D8
100
AcDbEntity
  8
0
100
AcDbCircle
 62
7
  6
CONTINUOUS
 10
144.7067026756
 20
176.619863143
 40
1.8
100
AcDbArc
 50
0.0
 51
90.0
  0
ARC
  5
5D9
100
AcDbEntity
  8
0
100
AcDbCircle
 62
7
  6
CONTINUOUS
 10
148.8067026756
 20
176.619863143
 40
1.5000501755
100
AcDbArc
 50
89.9999979537
 51
179.9999977393
  0
ARC
  5
5DA
100
AcDbEntity
  8
0
100
AcDbCircle
 62
7
  6
CONTINUOUS
 10
144.7067026756
 20
176.619863143
 40
1.5000501755
100
AcDbArc
 50
359.9999979537
 51
89.9999977393
  0
ARC
  5
5DB
100
AcDbEntity
  8
02___PRT_ALL_AXES
100
AcDbCircle
 62
7
  6
CONTINUOUS
 10
151.1067026756
 20
131.819863143
 40
1.25
100
AcDbArc
 50
156.166380219
 51
23.833619781
  0
CIRCLE
  5
5DC
100
AcDbEntity
  8
0
100
AcDbCircle
 62
7
  6
CONTINUOUS
 10
151.1067026756
 20
139.319863143
 40
3.1
  0
CIRCLE
  5
5DD
100
AcDbEntity
  8
03_AXES
100
AcDbCircle
 62
7
  6
CONTINUOUS
 10
151.1067026756
 20
139.319863143
 40
3.0
  0
ARC
  5
5DE
100
AcDbEntity
  8
0
100
AcDbCircle
 62
7
  6
CONTINUOUS
 10
151.1067026756
 20
139.319863143
 40
2.9475922207
100
AcDbArc
 50
171.4151218542
 51
188.5848781458
  0
ARC
  5
5DF
100
AcDbEntity
  8
0
100
AcDbCircle
 62
7
  6
CONTINUOUS
 10
151.1067026756
 20
139.319863143
 40
2.9475922207
100
AcDbArc
 50
351.4151218542
 51
8.5848781458
  0
ARC
  5
5E0
100
AcDbEntity
  8
0
100
AcDbCircle
 62
7
  6
CONTINUOUS
 10
151.1067026756
 20
139.319863143
 40
2.9475922207
100
AcDbArc
 50
261.4151218542
 51
278.5848781458
  0
ARC
  5
5E1
100
AcDbEntity
  8
0
100
AcDbCircle
 62
7
  6
CONTINUOUS
 10
151.1067026756
 20
139.319863143
 40
2.9475922207
100
AcDbArc
 50
81.4151218542
 51
98.5848781458
  0
ARC
  5
5E2
100
AcDbEntity
  8
0
100
AcDbCircle
 62
7
  6
CONTINUOUS
 10
153.4067026756
 20
137.019863143
 40
1.8
100
AcDbArc
 50
270.0
 51
360.0
  0
ARC
  5
5E3
100
AcDbEntity
  8
0
100
AcDbCircle
 62
7
  6
CONTINUOUS
 10
153.4067026756
 20
137.019863143
 40
1.5000501755
100
AcDbArc
 50
269.9999979537
 51
359.9999977393
  0
ARC
  5
5E4
100
AcDbEntity
  8
0
100
AcDbCircle
 62
7
  6
CONTINUOUS
 10
157.5067026756
 20
137.019863143
 40
1.8
100
AcDbArc
 50
180.0
 51
270.0
  0
ARC
  5
5E5
100
AcDbEntity
  8
0
100
AcDbCircle
 62
7
  6
CONTINUOUS
 10
157.5067026756
 20
137.019863143
 40
1.5000501755
100
AcDbArc
 50
179.9999979537
 51
269.9999977393
  0
CIRCLE
  5
5E6
100
AcDbEntity
  8
0
100
AcDbCircle
 62
7
  6
CONTINUOUS
 10
159.8067026756
 20
139.319863143
 40
3.1
  0
CIRCLE
  5
5E7
100
AcDbEntity
  8
03_AXES
100
AcDbCircle
 62
7
  6
CONTINUOUS
 10
159.8067026756
 20
139.319863143
 40
3.0
  0
ARC
  5
5E8
100
AcDbEntity
  8
0
100
AcDbCircle
 62
7
  6
CONTINUOUS
 10
159.8067026756
 20
139.319863143
 40
2.9475922207
100
AcDbArc
 50
171.4151218542
 51
188.5848781458
  0
ARC
  5
5E9
100
AcDbEntity
  8
0
100
AcDbCircle
 62
7
  6
CONTINUOUS
 10
159.8067026756
 20
139.319863143
 40
2.9475922207
100
AcDbArc
 50
351.4151218542
 51
8.5848781458
  0
ARC
  5
5EA
100
AcDbEntity
  8
0
100
AcDbCircle
 62
7
  6
CONTINUOUS
 10
159.8067026756
 20
139.319863143
 40
2.9475922207
100
AcDbArc
 50
261.4151218542
 51
278.5848781458
  0
ARC
  5
5EB
100
AcDbEntity
  8
0
100
AcDbCircle
 62
7
  6
CONTINUOUS
 10
159.8067026756
 20
139.319863143
 40
2.9475922207
100
AcDbArc
 50
81.4151218542
 51
98.5848781458
  0
CIRCLE
  5
5EC
100
AcDbEntity
  8
0
100
AcDbCircle
 62
7
  6
CONTINUOUS
 10
159.6567026756
 20
150.819863143
 40
3.2
  0
CIRCLE
  5
5ED
100
AcDbEntity
  8
03_AXES
100
AcDbCircle
 62
7
  6
CONTINUOUS
 10
159.6567026756
 20
150.819863143
 40
3.0
  0
ARC
  5
5EE
100
AcDbEntity
  8
0
100
AcDbCircle
 62
7
  6
CONTINUOUS
 10
159.6567026756
 20
150.819863143
 40
2.9475922207
100
AcDbArc
 50
171.4151218542
 51
188.5848781458
  0
ARC
  5
5EF
100
AcDbEntity
  8
0
100
AcDbCircle
 62
7
  6
CONTINUOUS
 10
159.6567026756
 20
150.819863143
 40
2.9475922207
100
AcDbArc
 50
351.4151218542
 51
8.5848781458
  0
ARC
  5
5F0
100
AcDbEntity
  8
0
100
AcDbCircle
 62
7
  6
CONTINUOUS
 10
159.6567026756
 20
150.819863143
 40
2.9475922207
100
AcDbArc
 50
261.4151218542
 51
278.5848781458
  0
ARC
  5
5F1
100
AcDbEntity
  8
0
100
AcDbCircle
 62
7
  6
CONTINUOUS
 10
159.6567026756
 20
150.819863143
 40
2.9475922207
100
AcDbArc
 50
81.4151218542
 51
98.5848781458
  0
ARC
  5
5F2
100
AcDbEntity
  8
0
100
AcDbCircle
 62
7
  6
CONTINUOUS
 10
153.4067026756
 20
141.619863143
 40
1.8
100
AcDbArc
 50
38.3339210214
 51
90.0
  0
ARC
  5
5F3
100
AcDbEntity
  8
0
100
AcDbCircle
 62
7
  6
CONTINUOUS
 10
157.5067026756
 20
141.619863143
 40
1.8
100
AcDbArc
 50
90.0
 51
161.7921967973
  0
ARC
  5
5F4
100
AcDbEntity
  8
0
100
AcDbCircle
 62
7
  6
CONTINUOUS
 10
153.4067026756
 20
141.619863143
 40
1.5000501755
100
AcDbArc
 50
19.919057245
 51
89.9999977393
  0
ARC
  5
5F5
100
AcDbEntity
  8
0
100
AcDbCircle
 62
7
  6
CONTINUOUS
 10
157.5067026756
 20
141.619863143
 40
1.5000501755
100
AcDbArc
 50
89.9999979537
 51
179.9999977393
  0
ARC
  5
5F6
100
AcDbEntity
  8
0
100
AcDbCircle
 62
7
  6
CONTINUOUS
 10
153.4567026756
 20
153.419863143
 40
1.0000251978
100
AcDbArc
 50
0.0000015942
 51
90.0000040353
  0
ARC
  5
5F7
100
AcDbEntity
  8
0
100
AcDbCircle
 62
7
  6
CONTINUOUS
 10
153.4567026756
 20
148.219863143
 40
1.0000251978
100
AcDbArc
 50
270.0000015942
 51
0.0000040353
  0
ARC
  5
5F8
100
AcDbEntity
  8
0
100
AcDbCircle
 62
7
  6
CONTINUOUS
 10
157.1567026756
 20
148.219863143
 40
1.0000251978
100
AcDbArc
 50
179.9999960378
 51
270.0000028048
  0
ARC
  5
5F9
100
AcDbEntity
  8
0
100
AcDbCircle
 62
7
  6
CONTINUOUS
 10
157.1567026756
 20
153.419863143
 40
1.0
100
AcDbArc
 50
90.0000026438
 51
180.0
  0
ARC
  5
5FA
100
AcDbEntity
  8
0
100
AcDbCircle
 62
7
  6
CONTINUOUS
 10
162.1067026756
 20
137.019863143
 40
1.8
100
AcDbArc
 50
270.0
 51
360.0
  0
ARC
  5
5FB
100
AcDbEntity
  8
0
100
AcDbCircle
 62
7
  6
CONTINUOUS
 10
166.2067026756
 20
137.019863143
 40
1.8
100
AcDbArc
 50
180.0
 51
270.0
  0
ARC
  5
5FC
100
AcDbEntity
  8
0
100
AcDbCircle
 62
7
  6
CONTINUOUS
 10
162.1067026756
 20
137.019863143
 40
1.5000501755
100
AcDbArc
 50
269.9999979537
 51
359.9999977393
  0
ARC
  5
5FD
100
AcDbEntity
  8
0
100
AcDbCircle
 62
7
  6
CONTINUOUS
 10
166.2067026756
 20
137.019863143
 40
1.5000501755
100
AcDbArc
 50
180.0000022607
 51
270.0000020463
  0
ARC
  5
5FE
100
AcDbEntity
  8
0
100
AcDbCircle
 62
7
  6
CONTINUOUS
 10
164.3067026756
 20
141.119863143
 40
0.3
100
AcDbArc
 50
270.0
 51
360.0
  0
ARC
  5
5FF
100
AcDbEntity
  8
0
100
AcDbCircle
 62
7
  6
CONTINUOUS
 10
170.6067026756
 20
130.819863143
 40
3.0
100
AcDbArc
 50
270.0
 51
330.1135840264
  0
ARC
  5
600
100
AcDbEntity
  8
02___PRT_ALL_AXES
100
AcDbCircle
 62
7
  6
CONTINUOUS
 10
168.6067026756
 20
131.819863143
 40
2.1
100
AcDbArc
 50
166.1874760778
 51
13.8125239222
  0
ARC
  5
601
100
AcDbEntity
  8
0
100
AcDbCircle
 62
7
  6
CONTINUOUS
 10
173.1067026756
 20
129.819863143
 40
0.5
100
AcDbArc
 50
270.0
 51
360.0
  0
CIRCLE
  5
602
100
AcDbEntity
  8
0
100
AcDbCircle
 62
7
  6
CONTINUOUS
 10
168.5067026756
 20
139.319863143
 40
3.1
  0
CIRCLE
  5
603
100
AcDbEntity
  8
03_AXES
100
AcDbCircle
 62
7
  6
CONTINUOUS
 10
168.5067026756
 20
139.319863143
 40
3.0
  0
ARC
  5
604
100
AcDbEntity
  8
0
100
AcDbCircle
 62
7
  6
CONTINUOUS
 10
168.5067026756
 20
139.319863143
 40
2.9475922207
100
AcDbArc
 50
171.4151218542
 51
188.5848781458
  0
ARC
  5
605
100
AcDbEntity
  8
0
100
AcDbCircle
 62
7
  6
CONTINUOUS
 10
168.5067026756
 20
139.319863143
 40
2.9475922207
100
AcDbArc
 50
351.4151218542
 51
8.5848781458
  0
ARC
  5
606
100
AcDbEntity
  8
0
100
AcDbCircle
 62
7
  6
CONTINUOUS
 10
168.5067026756
 20
139.319863143
 40
2.9475922207
100
AcDbArc
 50
261.4151218542
 51
278.5848781458
  0
ARC
  5
607
100
AcDbEntity
  8
0
100
AcDbCircle
 62
7
  6
CONTINUOUS
 10
168.5067026756
 20
139.319863143
 40
2.9475922207
100
AcDbArc
 50
81.4151218542
 51
98.5848781458
  0
ARC
  5
608
100
AcDbEntity
  8
0
100
AcDbCircle
 62
7
  6
CONTINUOUS
 10
170.8067026756
 20
137.019863143
 40
1.8
100
AcDbArc
 50
270.0
 51
360.0
  0
ARC
  5
609
100
AcDbEntity
  8
0
100
AcDbCircle
 62
7
  6
CONTINUOUS
 10
170.8067026756
 20
137.019863143
 40
1.5000501755
100
AcDbArc
 50
270.0000022607
 51
0.0000020463
  0
ARC
  5
60A
100
AcDbEntity
  8
0
100
AcDbCircle
 62
7
  6
CONTINUOUS
 10
162.1067026756
 20
141.619863143
 40
1.8
100
AcDbArc
 50
38.3339210214
 51
90.0
  0
ARC
  5
60B
100
AcDbEntity
  8
0
100
AcDbCircle
 62
7
  6
CONTINUOUS
 10
162.1067026756
 20
141.619863143
 40
1.5000501755
100
AcDbArc
 50
19.919057245
 51
89.9999977393
  0
ARC
  5
60C
100
AcDbEntity
  8
0
100
AcDbCircle
 62
7
  6
CONTINUOUS
 10
166.2067026756
 20
141.619863143
 40
1.5
100
AcDbArc
 50
90.0000072599
 51
180.0
  0
ARC
  5
60D
100
AcDbEntity
  8
0
100
AcDbCircle
 62
7
  6
CONTINUOUS
 10
170.8067026756
 20
141.619863143
 40
1.5
100
AcDbArc
 50
0.0
 51
89.9999603565
  0
ARC
  5
60E
100
AcDbEntity
  8
0
100
AcDbCircle
 62
7
  6
CONTINUOUS
 10
162.1567026756
 20
148.219863143
 40
1.0000251978
100
AcDbArc
 50
269.9999960378
 51
0.0000028048
  0
ARC
  5
60F
100
AcDbEntity
  8
0
100
AcDbCircle
 62
7
  6
CONTINUOUS
 10
162.1567026756
 20
153.419863143
 40
1.0
100
AcDbArc
 50
0.0
 51
89.9999815863
  0
CIRCLE
  5
610
100
AcDbEntity
  8
0
100
AcDbCircle
 62
7
  6
CONTINUOUS
 10
159.6567026756
 20
162.819863143
 40
3.2
  0
CIRCLE
  5
611
100
AcDbEntity
  8
03_AXES
100
AcDbCircle
 62
7
  6
CONTINUOUS
 10
159.6567026756
 20
162.819863143
 40
3.0
  0
ARC
  5
612
100
AcDbEntity
  8
0
100
AcDbCircle
 62
7
  6
CONTINUOUS
 10
159.6567026756
 20
162.819863143
 40
2.9475922207
100
AcDbArc
 50
171.4151218542
 51
188.5848781458
  0
ARC
  5
613
100
AcDbEntity
  8
0
100
AcDbCircle
 62
7
  6
CONTINUOUS
 10
159.6567026756
 20
162.819863143
 40
2.9475922207
100
AcDbArc
 50
351.4151218542
 51
8.5848781458
  0
ARC
  5
614
100
AcDbEntity
  8
0
100
AcDbCircle
 62
7
  6
CONTINUOUS
 10
159.6567026756
 20
162.819863143
 40
2.9475922207
100
AcDbArc
 50
261.4151218542
 51
278.5848781458
  0
ARC
  5
615
100
AcDbEntity
  8
0
100
AcDbCircle
 62
7
  6
CONTINUOUS
 10
159.6567026756
 20
162.819863143
 40
2.9475922207
100
AcDbArc
 50
81.4151218542
 51
98.5848781458
  0
ARC
  5
616
100
AcDbEntity
  8
0
100
AcDbCircle
 62
7
  6
CONTINUOUS
 10
153.4567026756
 20
160.219863143
 40
1.0000251978
100
AcDbArc
 50
270.0000015942
 51
0.0000040353
  0
ARC
  5
617
100
AcDbEntity
  8
0
100
AcDbCircle
 62
7
  6
CONTINUOUS
 10
153.4567026756
 20
165.419863143
 40
1.0000251978
100
AcDbArc
 50
0.0000015942
 51
90.0000040353
  0
ARC
  5
618
100
AcDbEntity
  8
0
100
AcDbCircle
 62
7
  6
CONTINUOUS
 10
157.1567026756
 20
165.419863143
 40
1.0000251978
100
AcDbArc
 50
89.9999960378
 51
180.0000028048
  0
ARC
  5
619
100
AcDbEntity
  8
0
100
AcDbCircle
 62
7
  6
CONTINUOUS
 10
157.1567026756
 20
160.219863143
 40
1.0
100
AcDbArc
 50
180.0
 51
269.9999973581
  0
CIRCLE
  5
61A
100
AcDbEntity
  8
0
100
AcDbCircle
 62
7
  6
CONTINUOUS
 10
151.1067026756
 20
174.319863143
 40
3.1
  0
CIRCLE
  5
61B
100
AcDbEntity
  8
03_AXES
100
AcDbCircle
 62
7
  6
CONTINUOUS
 10
151.1067026756
 20
174.319863143
 40
3.0
  0
ARC
  5
61C
100
AcDbEntity
  8
0
100
AcDbCircle
 62
7
  6
CONTINUOUS
 10
151.1067026756
 20
174.319863143
 40
2.9475922207
100
AcDbArc
 50
171.4151218542
 51
188.5848781458
  0
ARC
  5
61D
100
AcDbEntity
  8
0
100
AcDbCircle
 62
7
  6
CONTINUOUS
 10
151.1067026756
 20
174.319863143
 40
2.9475922207
100
AcDbArc
 50
351.4151218542
 51
8.5848781458
  0
ARC
  5
61E
100
AcDbEntity
  8
0
100
AcDbCircle
 62
7
  6
CONTINUOUS
 10
151.1067026756
 20
174.319863143
 40
2.9475922207
100
AcDbArc
 50
261.4151218542
 51
278.5848781458
  0
ARC
  5
61F
100
AcDbEntity
  8
0
100
AcDbCircle
 62
7
  6
CONTINUOUS
 10
151.1067026756
 20
174.319863143
 40
2.9475922207
100
AcDbArc
 50
81.4151218542
 51
98.5848781458
  0
ARC
  5
620
100
AcDbEntity
  8
0
100
AcDbCircle
 62
7
  6
CONTINUOUS
 10
153.4067026756
 20
172.019863143
 40
1.8
100
AcDbArc
 50
270.0
 51
321.6660804559
  0
ARC
  5
621
100
AcDbEntity
  8
0
100
AcDbCircle
 62
7
  6
CONTINUOUS
 10
153.4067026756
 20
172.019863143
 40
1.5000501755
100
AcDbArc
 50
269.9999979537
 51
340.0809412801
  0
ARC
  5
622
100
AcDbEntity
  8
0
100
AcDbCircle
 62
7
  6
CONTINUOUS
 10
153.4067026756
 20
176.619863143
 40
1.8
100
AcDbArc
 50
0.0
 51
90.0
  0
ARC
  5
623
100
AcDbEntity
  8
0
100
AcDbCircle
 62
7
  6
CONTINUOUS
 10
153.4067026756
 20
176.619863143
 40
1.5000501755
100
AcDbArc
 50
359.9999979537
 51
89.9999977393
  0
ARC
  5
624
100
AcDbEntity
  8
02___PRT_ALL_AXES
100
AcDbCircle
 62
7
  6
CONTINUOUS
 10
151.1067026756
 20
181.819863143
 40
1.25
100
AcDbArc
 50
336.166380219
 51
203.833619781
  0
ARC
  5
625
100
AcDbEntity
  8
0
100
AcDbCircle
 62
7
  6
CONTINUOUS
 10
157.5067026756
 20
172.019863143
 40
1.8
100
AcDbArc
 50
198.2077533595
 51
270.0
  0
ARC
  5
626
100
AcDbEntity
  8
0
100
AcDbCircle
 62
7
  6
CONTINUOUS
 10
157.5067026756
 20
172.019863143
 40
1.5000501755
100
AcDbArc
 50
179.9999979537
 51
269.9999977393
  0
ARC
  5
627
100
AcDbEntity
  8
0
100
AcDbCircle
 62
7
  6
CONTINUOUS
 10
157.5067026756
 20
176.619863143
 40
1.8
100
AcDbArc
 50
90.0
 51
180.0
  0
ARC
  5
628
100
AcDbEntity
  8
0
100
AcDbCircle
 62
7
  6
CONTINUOUS
 10
157.5067026756
 20
176.619863143
 40
1.5000501755
100
AcDbArc
 50
89.9999979537
 51
179.9999977393
  0
CIRCLE
  5
629
100
AcDbEntity
  8
0
100
AcDbCircle
 62
7
  6
CONTINUOUS
 10
159.8067026756
 20
174.319863143
 40
3.1
  0
CIRCLE
  5
62A
100
AcDbEntity
  8
03_AXES
100
AcDbCircle
 62
7
  6
CONTINUOUS
 10
159.8067026756
 20
174.319863143
 40
3.0
  0
ARC
  5
62B
100
AcDbEntity
  8
0
100
AcDbCircle
 62
7
  6
CONTINUOUS
 10
159.8067026756
 20
174.319863143
 40
2.9475922207
100
AcDbArc
 50
171.4151218542
 51
188.5848781458
  0
ARC
  5
62C
100
AcDbEntity
  8
0
100
AcDbCircle
 62
7
  6
CONTINUOUS
 10
159.8067026756
 20
174.319863143
 40
2.9475922207
100
AcDbArc
 50
351.4151218542
 51
8.5848781458
  0
ARC
  5
62D
100
AcDbEntity
  8
0
100
AcDbCircle
 62
7
  6
CONTINUOUS
 10
159.8067026756
 20
174.319863143
 40
2.9475922207
100
AcDbArc
 50
261.4151218542
 51
278.5848781458
  0
ARC
  5
62E
100
AcDbEntity
  8
0
100
AcDbCircle
 62
7
  6
CONTINUOUS
 10
159.8067026756
 20
174.319863143
 40
2.9475922207
100
AcDbArc
 50
81.4151218542
 51
98.5848781458
  0
ARC
  5
62F
100
AcDbEntity
  8
0
100
AcDbCircle
 62
7
  6
CONTINUOUS
 10
162.1567026756
 20
165.419863143
 40
1.0000251978
100
AcDbArc
 50
359.9999960378
 51
90.0000028048
  0
ARC
  5
630
100
AcDbEntity
  8
0
100
AcDbCircle
 62
7
  6
CONTINUOUS
 10
162.1567026756
 20
160.219863143
 40
1.0
100
AcDbArc
 50
270.0000184021
 51
360.0
  0
ARC
  5
631
100
AcDbEntity
  8
0
100
AcDbCircle
 62
7
  6
CONTINUOUS
 10
162.1067026756
 20
176.619863143
 40
1.8
100
AcDbArc
 50
0.0
 51
90.0
  0
ARC
  5
632
100
AcDbEntity
  8
0
100
AcDbCircle
 62
7
  6
CONTINUOUS
 10
162.1067026756
 20
172.019863143
 40
1.8
100
AcDbArc
 50
270.0
 51
321.6660804559
  0
ARC
  5
633
100
AcDbEntity
  8
0
100
AcDbCircle
 62
7
  6
CONTINUOUS
 10
166.2067026756
 20
176.619863143
 40
1.8
100
AcDbArc
 50
90.0
 51
180.0
  0
ARC
  5
634
100
AcDbEntity
  8
0
100
AcDbCircle
 62
7
  6
CONTINUOUS
 10
162.1067026756
 20
172.019863143
 40
1.5000501755
100
AcDbArc
 50
269.9999979537
 51
340.0809412801
  0
ARC
  5
635
100
AcDbEntity
  8
0
100
AcDbCircle
 62
7
  6
CONTINUOUS
 10
162.1067026756
 20
176.619863143
 40
1.5000501755
100
AcDbArc
 50
359.9999979537
 51
89.9999977393
  0
ARC
  5
636
100
AcDbEntity
  8
0
100
AcDbCircle
 62
7
  6
CONTINUOUS
 10
166.2067026756
 20
176.619863143
 40
1.5000501755
100
AcDbArc
 50
90.0000022607
 51
180.0000020463
  0
ARC
  5
637
100
AcDbEntity
  8
0
100
AcDbCircle
 62
7
  6
CONTINUOUS
 10
166.2067026756
 20
172.019863143
 40
1.5
100
AcDbArc
 50
180.0
 51
269.9999927384
  0
ARC
  5
638
100
AcDbEntity
  8
0
100
AcDbCircle
 62
7
  6
CONTINUOUS
 10
164.3067026756
 20
172.519863143
 40
0.3
100
AcDbArc
 50
0.0
 51
90.0
  0
CIRCLE
  5
639
100
AcDbEntity
  8
0
100
AcDbCircle
 62
7
  6
CONTINUOUS
 10
168.5067026756
 20
174.319863143
 40
3.1
  0
CIRCLE
  5
63A
100
AcDbEntity
  8
03_AXES
100
AcDbCircle
 62
7
  6
CONTINUOUS
 10
168.5067026756
 20
174.319863143
 40
3.0
  0
ARC
  5
63B
100
AcDbEntity
  8
0
100
AcDbCircle
 62
7
  6
CONTINUOUS
 10
168.5067026756
 20
174.319863143
 40
2.9475922207
100
AcDbArc
 50
171.4168579646
 51
188.5866142562
  0
ARC
  5
63C
100
AcDbEntity
  8
0
100
AcDbCircle
 62
7
  6
CONTINUOUS
 10
168.5067026756
 20
174.319863143
 40
2.9475922207
100
AcDbArc
 50
351.4168579646
 51
8.5866142562
  0
ARC
  5
63D
100
AcDbEntity
  8
0
100
AcDbCircle
 62
7
  6
CONTINUOUS
 10
168.5067026756
 20
174.319863143
 40
2.9475922207
100
AcDbArc
 50
261.4168579646
 51
278.5866142562
  0
ARC
  5
63E
100
AcDbEntity
  8
0
100
AcDbCircle
 62
7
  6
CONTINUOUS
 10
168.5067026756
 20
174.319863143
 40
2.9475922207
100
AcDbArc
 50
81.4168579646
 51
98.5866142562
  0
ARC
  5
63F
100
AcDbEntity
  8
0
100
AcDbCircle
 62
7
  6
CONTINUOUS
 10
170.8067026756
 20
172.019863143
 40
1.5
100
AcDbArc
 50
270.0000396229
 51
360.0
  0
ARC
  5
640
100
AcDbEntity
  8
0
100
AcDbCircle
 62
7
  6
CONTINUOUS
 10
170.8067026756
 20
176.619863143
 40
1.8
100
AcDbArc
 50
0.0
 51
90.0
  0
ARC
  5
641
100
AcDbEntity
  8
0
100
AcDbCircle
 62
7
  6
CONTINUOUS
 10
170.8067026756
 20
176.619863143
 40
1.5000501755
100
AcDbArc
 50
0.0000022607
 51
90.0000020463
  0
ARC
  5
642
100
AcDbEntity
  8
0
100
AcDbCircle
 62
7
  6
CONTINUOUS
 10
170.6067026756
 20
182.819863143
 40
3.0
100
AcDbArc
 50
29.8864159726
 51
90.0
  0
ARC
  5
643
100
AcDbEntity
  8
02___PRT_ALL_AXES
100
AcDbCircle
 62
7
  6
CONTINUOUS
 10
168.6067026756
 20
181.819863143
 40
2.1
100
AcDbArc
 50
348.9189596085
 51
190.9364365412
  0
ARC
  5
644
100
AcDbEntity
  8
0
100
AcDbCircle
 62
7
  6
CONTINUOUS
 10
173.1067026756
 20
183.819863143
 40
0.5
100
AcDbArc
 50
0.0
 51
90.0
  0
ARC
  5
645
100
AcDbEntity
  8
0
100
AcDbCircle
 62
7
  6
CONTINUOUS
 10
249.0292759961
 20
131.319863143
 40
2.0
100
AcDbArc
 50
180.0
 51
270.0
  0
ARC
  5
646
100
AcDbEntity
  8
0
100
AcDbCircle
 62
7
  6
CONTINUOUS
 10
246.0292759961
 20
137.719863143
 40
1.0
100
AcDbArc
 50
0.0
 51
90.0
  0
CIRCLE
  5
647
100
AcDbEntity
  8
02___PRT_ALL_AXES
100
AcDbCircle
 62
7
  6
CONTINUOUS
 10
249.5292759961
 20
131.819863143
 40
1.0
  0
ARC
  5
648
100
AcDbEntity
  8
0
100
AcDbCircle
 62
7
  6
CONTINUOUS
 10
224.0292759961
 20
150.319863143
 40
1.0
100
AcDbArc
 50
180.0
 51
270.0
  0
ARC
  5
649
100
AcDbEntity
  8
0
100
AcDbCircle
 62
7
  6
CONTINUOUS
 10
263.5292759961
 20
155.819863143
 40
0.5
100
AcDbArc
 50
180.0
 51
270.0
  0
ARC
  5
64A
100
AcDbEntity
  8
0
100
AcDbCircle
 62
7
  6
CONTINUOUS
 10
268.7292759961
 20
155.819863143
 40
0.5
100
AcDbArc
 50
270.0
 51
360.0
  0
ARC
  5
64B
100
AcDbEntity
  8
0
100
AcDbCircle
 62
7
  6
CONTINUOUS
 10
227.5292759961
 20
152.819863143
 40
0.5
100
AcDbArc
 50
180.0
 51
270.0
  0
ARC
  5
64C
100
AcDbEntity
  8
0
100
AcDbCircle
 62
7
  6
CONTINUOUS
 10
249.5292759961
 20
152.819863143
 40
0.5
100
AcDbArc
 50
270.0
 51
360.0
  0
ARC
  5
64D
100
AcDbEntity
  8
0
100
AcDbCircle
 62
7
  6
CONTINUOUS
 10
228.5292759961
 20
128.319863143
 40
0.5
100
AcDbArc
 50
270.0
 51
360.0
  0
ARC
  5
64E
100
AcDbEntity
  8
0
100
AcDbCircle
 62
7
  6
CONTINUOUS
 10
249.2792759961
 20
153.069863143
 40
0.25
100
AcDbArc
 50
270.0
 51
360.0
  0
ARC
  5
64F
100
AcDbEntity
  8
0
100
AcDbCircle
 62
7
  6
CONTINUOUS
 10
227.7792759961
 20
153.069863143
 40
0.25
100
AcDbArc
 50
180.0
 51
270.0
  0
ARC
  5
650
100
AcDbEntity
  8
0
100
AcDbCircle
 62
7
  6
CONTINUOUS
 10
267.3915126325
 20
131.019863143
 40
0.2
100
AcDbArc
 50
135.0
 51
270.0
  0
ARC
  5
651
100
AcDbEntity
  8
0
100
AcDbCircle
 62
7
  6
CONTINUOUS
 10
261.4518156706
 20
131.019863143
 40
0.2
100
AcDbArc
 50
135.0
 51
270.0
  0
ARC
  5
652
100
AcDbEntity
  8
0
100
AcDbCircle
 62
7
  6
CONTINUOUS
 10
255.5121187086
 20
131.019863143
 40
0.2
100
AcDbArc
 50
135.0
 51
270.0
  0
ARC
  5
653
100
AcDbEntity
  8
0
100
AcDbCircle
 62
7
  6
CONTINUOUS
 10
258.8434895585
 20
133.219863143
 40
0.2
100
AcDbArc
 50
315.0
 51
90.0
  0
ARC
  5
654
100
AcDbEntity
  8
0
100
AcDbCircle
 62
7
  6
CONTINUOUS
 10
264.7831865205
 20
133.219863143
 40
0.2
100
AcDbArc
 50
315.0
 51
90.0
  0
ARC
  5
655
100
AcDbEntity
  8
0
100
AcDbCircle
 62
7
  6
CONTINUOUS
 10
234.8434895585
 20
142.619863143
 40
0.2
100
AcDbArc
 50
315.0
 51
90.0
  0
ARC
  5
656
100
AcDbEntity
  8
0
100
AcDbCircle
 62
7
  6
CONTINUOUS
 10
242.1974000828
 20
142.619863143
 40
0.2
100
AcDbArc
 50
315.0
 51
90.0
  0
ARC
  5
657
100
AcDbEntity
  8
0
100
AcDbCircle
 62
7
  6
CONTINUOUS
 10
249.5513106072
 20
142.619863143
 40
0.2
100
AcDbArc
 50
315.0
 51
90.0
  0
ARC
  5
658
100
AcDbEntity
  8
0
100
AcDbCircle
 62
7
  6
CONTINUOUS
 10
246.2199397573
 20
140.419863143
 40
0.2
100
AcDbArc
 50
135.0
 51
270.0
  0
ARC
  5
659
100
AcDbEntity
  8
0
100
AcDbCircle
 62
7
  6
CONTINUOUS
 10
238.8660292329
 20
140.419863143
 40
0.2
100
AcDbArc
 50
135.0
 51
270.0
  0
ARC
  5
65A
100
AcDbEntity
  8
0
100
AcDbCircle
 62
7
  6
CONTINUOUS
 10
231.5121187086
 20
140.419863143
 40
0.2
100
AcDbArc
 50
135.0
 51
270.0
  0
ARC
  5
65B
100
AcDbEntity
  8
0
100
AcDbCircle
 62
7
  6
CONTINUOUS
 10
249.0292759961
 20
182.319863143
 40
2.0
100
AcDbArc
 50
90.0
 51
180.0
  0
ARC
  5
65C
100
AcDbEntity
  8
0
100
AcDbCircle
 62
7
  6
CONTINUOUS
 10
246.0292759961
 20
175.919863143
 40
1.0
100
AcDbArc
 50
270.0
 51
360.0
  0
CIRCLE
  5
65D
100
AcDbEntity
  8
02___PRT_ALL_AXES
100
AcDbCircle
 62
7
  6
CONTINUOUS
 10
249.5292759961
 20
181.819863143
 40
1.0
  0
ARC
  5
65E
100
AcDbEntity
  8
0
100
AcDbCircle
 62
7
  6
CONTINUOUS
 10
224.0292759961
 20
163.319863143
 40
1.0
100
AcDbArc
 50
90.0
 51
180.0
  0
CIRCLE
  5
65F
100
AcDbEntity
  8
0
100
AcDbCircle
 62
7
  6
CONTINUOUS
 10
231.9294441601
 20
180.819863143
 40
0.6
  0
ARC
  5
660
100
AcDbEntity
  8
0
100
AcDbCircle
 62
7
  6
CONTINUOUS
 10
221.1792759961
 20
180.819863143
 40
0.6
100
AcDbArc
 50
90.0
 51
270.0
  0
ARC
  5
661
100
AcDbEntity
  8
0
100
AcDbCircle
 62
7
  6
CONTINUOUS
 10
268.7292759961
 20
157.819863143
 40
0.5
100
AcDbArc
 50
0.0
 51
90.0
  0
ARC
  5
662
100
AcDbEntity
  8
0
100
AcDbCircle
 62
7
  6
CONTINUOUS
 10
263.5292759961
 20
157.819863143
 40
0.5
100
AcDbArc
 50
90.0
 51
180.0
  0
ARC
  5
663
100
AcDbEntity
  8
0
100
AcDbCircle
 62
7
  6
CONTINUOUS
 10
249.5292759961
 20
160.819863143
 40
0.5
100
AcDbArc
 50
0.0
 51
90.0
  0
ARC
  5
664
100
AcDbEntity
  8
0
100
AcDbCircle
 62
7
  6
CONTINUOUS
 10
227.5292759961
 20
160.819863143
 40
0.5
100
AcDbArc
 50
90.0
 51
180.0
  0
ARC
  5
665
100
AcDbEntity
  8
0
100
AcDbCircle
 62
7
  6
CONTINUOUS
 10
228.5292759961
 20
185.319863143
 40
0.5
100
AcDbArc
 50
0.0
 51
90.0
  0
ARC
  5
666
100
AcDbEntity
  8
0
100
AcDbCircle
 62
7
  6
CONTINUOUS
 10
249.2792759961
 20
160.569863143
 40
0.25
100
AcDbArc
 50
0.0
 51
90.0
  0
ARC
  5
667
100
AcDbEntity
  8
0
100
AcDbCircle
 62
7
  6
CONTINUOUS
 10
227.7792759961
 20
160.569863143
 40
0.25
100
AcDbArc
 50
90.0
 51
180.0
  0
ARC
  5
668
100
AcDbEntity
  8
0
100
AcDbCircle
 62
7
  6
CONTINUOUS
 10
258.8434895585
 20
180.419863143
 40
0.2
100
AcDbArc
 50
270.0
 51
45.0
  0
ARC
  5
669
100
AcDbEntity
  8
0
100
AcDbCircle
 62
7
  6
CONTINUOUS
 10
264.7831865205
 20
180.419863143
 40
0.2
100
AcDbArc
 50
270.0
 51
45.0
  0
ARC
  5
66A
100
AcDbEntity
  8
0
100
AcDbCircle
 62
7
  6
CONTINUOUS
 10
267.3915126325
 20
182.619863143
 40
0.2
100
AcDbArc
 50
90.0
 51
225.0
  0
ARC
  5
66B
100
AcDbEntity
  8
0
100
AcDbCircle
 62
7
  6
CONTINUOUS
 10
261.4518156706
 20
182.619863143
 40
0.2
100
AcDbArc
 50
90.0
 51
225.0
  0
ARC
  5
66C
100
AcDbEntity
  8
0
100
AcDbCircle
 62
7
  6
CONTINUOUS
 10
255.5121187086
 20
182.619863143
 40
0.2
100
AcDbArc
 50
90.0
 51
225.0
  0
ARC
  5
66D
100
AcDbEntity
  8
0
100
AcDbCircle
 62
7
  6
CONTINUOUS
 10
246.2199397573
 20
173.219863143
 40
0.2
100
AcDbArc
 50
90.0
 51
225.0
  0
ARC
  5
66E
100
AcDbEntity
  8
0
100
AcDbCircle
 62
7
  6
CONTINUOUS
 10
238.8660292329
 20
173.219863143
 40
0.2
100
AcDbArc
 50
90.0
 51
225.0
  0
ARC
  5
66F
100
AcDbEntity
  8
0
100
AcDbCircle
 62
7
  6
CONTINUOUS
 10
231.5121187086
 20
173.219863143
 40
0.2
100
AcDbArc
 50
90.0
 51
225.0
  0
ARC
  5
670
100
AcDbEntity
  8
0
100
AcDbCircle
 62
7
  6
CONTINUOUS
 10
234.8434895585
 20
171.019863143
 40
0.2
100
AcDbArc
 50
270.0
 51
45.0
  0
ARC
  5
671
100
AcDbEntity
  8
0
100
AcDbCircle
 62
7
  6
CONTINUOUS
 10
242.1974000828
 20
171.019863143
 40
0.2
100
AcDbArc
 50
270.0
 51
45.0
  0
ARC
  5
672
100
AcDbEntity
  8
0
100
AcDbCircle
 62
7
  6
CONTINUOUS
 10
249.5513106072
 20
171.019863143
 40
0.2
100
AcDbArc
 50
270.0
 51
45.0
  0
ARC
  5
673
100
AcDbEntity
  8
0
100
AcDbCircle
 62
7
  6
CONTINUOUS
 10
282.0292759961
 20
145.2632524683
 40
2.0
100
AcDbArc
 50
180.0
 51
205.0
  0
ARC
  5
674
100
AcDbEntity
  8
0
100
AcDbCircle
 62
7
  6
CONTINUOUS
 10
287.3577031209
 20
142.819863143
 40
2.0
100
AcDbArc
 50
225.0
 51
270.0
  0
ARC
  5
675
100
AcDbEntity
  8
0
100
AcDbCircle
 62
7
  6
CONTINUOUS
 10
281.7854846365
 20
143.419863143
 40
1.0
100
AcDbArc
 50
205.0
 51
270.0
  0
ARC
  5
676
100
AcDbEntity
  8
0
100
AcDbCircle
 62
7
  6
CONTINUOUS
 10
281.0292759961
 20
145.319863143
 40
1.0
100
AcDbArc
 50
180.0
 51
270.0
  0
ARC
  5
677
100
AcDbEntity
  8
0
100
AcDbCircle
 62
7
  6
CONTINUOUS
 10
279.0292759961
 20
133.2340767053
 40
1.0
100
AcDbArc
 50
315.0
 51
360.0
  0
ARC
  5
678
100
AcDbEntity
  8
0
100
AcDbCircle
 62
7
  6
CONTINUOUS
 10
276.1150624337
 20
130.319863143
 40
1.0
100
AcDbArc
 50
270.0
 51
315.0
  0
ARC
  5
679
100
AcDbEntity
  8
0
100
AcDbCircle
 62
7
  6
CONTINUOUS
 10
279.5292759961
 20
132.819863143
 40
0.5
100
AcDbArc
 50
270.0
 51
360.0
  0
ARC
  5
67A
100
AcDbEntity
  8
0
100
AcDbCircle
 62
7
  6
CONTINUOUS
 10
282.1040197669
 20
143.919863143
 40
0.5
100
AcDbArc
 50
205.0
 51
251.425641107
  0
ARC
  5
67B
100
AcDbEntity
  8
0
100
AcDbCircle
 62
7
  6
CONTINUOUS
 10
281.7854846365
 20
142.919863143
 40
0.5
100
AcDbArc
 50
270.0
 51
360.0
  0
ARC
  5
67C
100
AcDbEntity
  8
0
100
AcDbCircle
 62
7
  6
CONTINUOUS
 10
281.7854846365
 20
142.9719520867
 40
0.5
100
AcDbArc
 50
0.0
 51
71.425641107
  0
ARC
  5
67D
100
AcDbEntity
  8
0
100
AcDbCircle
 62
7
  6
CONTINUOUS
 10
313.8221692149
 20
141.319863143
 40
0.5
100
AcDbArc
 50
270.0
 51
315.0
  0
ARC
  5
67E
100
AcDbEntity
  8
0
100
AcDbCircle
 62
7
  6
CONTINUOUS
 10
316.5292759961
 20
144.0269699242
 40
0.5
100
AcDbArc
 50
315.0
 51
360.0
  0
ARC
  5
67F
100
AcDbEntity
  8
0
100
AcDbCircle
 62
7
  6
CONTINUOUS
 10
310.2150624337
 20
142.519863143
 40
0.2
100
AcDbArc
 50
135.0
 51
270.0
  0
ARC
  5
680
100
AcDbEntity
  8
0
100
AcDbCircle
 62
7
  6
CONTINUOUS
 10
304.2753654718
 20
142.519863143
 40
0.2
100
AcDbArc
 50
135.0
 51
270.0
  0
ARC
  5
681
100
AcDbEntity
  8
0
100
AcDbCircle
 62
7
  6
CONTINUOUS
 10
298.3356685098
 20
142.519863143
 40
0.2
100
AcDbArc
 50
135.0
 51
270.0
  0
ARC
  5
682
100
AcDbEntity
  8
0
100
AcDbCircle
 62
7
  6
CONTINUOUS
 10
292.3959715478
 20
142.519863143
 40
0.2
100
AcDbArc
 50
135.0
 51
270.0
  0
ARC
  5
683
100
AcDbEntity
  8
0
100
AcDbCircle
 62
7
  6
CONTINUOUS
 10
286.4562745859
 20
142.519863143
 40
0.2
100
AcDbArc
 50
135.0
 51
270.0
  0
ARC
  5
684
100
AcDbEntity
  8
0
100
AcDbCircle
 62
7
  6
CONTINUOUS
 10
289.7876454358
 20
144.719863143
 40
0.2
100
AcDbArc
 50
315.0
 51
90.0
  0
ARC
  5
685
100
AcDbEntity
  8
0
100
AcDbCircle
 62
7
  6
CONTINUOUS
 10
295.7273423977
 20
144.719863143
 40
0.2
100
AcDbArc
 50
315.0
 51
90.0
  0
ARC
  5
686
100
AcDbEntity
  8
0
100
AcDbCircle
 62
7
  6
CONTINUOUS
 10
301.6670393597
 20
144.719863143
 40
0.2
100
AcDbArc
 50
315.0
 51
90.0
  0
ARC
  5
687
100
AcDbEntity
  8
0
100
AcDbCircle
 62
7
  6
CONTINUOUS
 10
307.6067363217
 20
144.719863143
 40
0.2
100
AcDbArc
 50
315.0
 51
90.0
  0
ARC
  5
688
100
AcDbEntity
  8
0
100
AcDbCircle
 62
7
  6
CONTINUOUS
 10
313.5464332836
 20
144.719863143
 40
0.2
100
AcDbArc
 50
315.0
 51
90.0
  0
ARC
  5
689
100
AcDbEntity
  8
0
100
AcDbCircle
 62
7
  6
CONTINUOUS
 10
273.3312095945
 20
131.019863143
 40
0.2
100
AcDbArc
 50
135.0
 51
270.0
  0
ARC
  5
68A
100
AcDbEntity
  8
0
100
AcDbCircle
 62
7
  6
CONTINUOUS
 10
270.7228834824
 20
133.219863143
 40
0.2
100
AcDbArc
 50
315.0
 51
90.0
  0
ARC
  5
68B
100
AcDbEntity
  8
0
100
AcDbCircle
 62
7
  6
CONTINUOUS
 10
276.6625804444
 20
133.219863143
 40
0.2
100
AcDbArc
 50
315.0
 51
90.0
  0
ARC
  5
68C
100
AcDbEntity
  8
0
100
AcDbCircle
 62
7
  6
CONTINUOUS
 10
287.3577031209
 20
170.819863143
 40
2.0
100
AcDbArc
 50
90.0
 51
135.0
  0
ARC
  5
68D
100
AcDbEntity
  8
0
100
AcDbCircle
 62
7
  6
CONTINUOUS
 10
281.0292759961
 20
168.319863143
 40
1.0
100
AcDbArc
 50
90.0
 51
180.0
  0
ARC
  5
68E
100
AcDbEntity
  8
0
100
AcDbCircle
 62
7
  6
CONTINUOUS
 10
279.0292759961
 20
180.4056495806
 40
1.0
100
AcDbArc
 50
0.0
 51
45.0
  0
ARC
  5
68F
100
AcDbEntity
  8
0
100
AcDbCircle
 62
7
  6
CONTINUOUS
 10
276.1150624337
 20
183.319863143
 40
1.0
100
AcDbArc
 50
45.0
 51
90.0
  0
ARC
  5
690
100
AcDbEntity
  8
0
100
AcDbCircle
 62
7
  6
CONTINUOUS
 10
279.5292759961
 20
180.819863143
 40
0.5
100
AcDbArc
 50
0.0
 51
90.0
  0
ARC
  5
691
100
AcDbEntity
  8
0
100
AcDbCircle
 62
7
  6
CONTINUOUS
 10
316.5292759961
 20
169.6127563618
 40
0.5
100
AcDbArc
 50
0.0
 51
45.0
  0
ARC
  5
692
100
AcDbEntity
  8
0
100
AcDbCircle
 62
7
  6
CONTINUOUS
 10
313.8221692149
 20
172.319863143
 40
0.5
100
AcDbArc
 50
45.0
 51
90.0
  0
ARC
  5
693
100
AcDbEntity
  8
0
100
AcDbCircle
 62
7
  6
CONTINUOUS
 10
289.7876454358
 20
168.919863143
 40
0.2
100
AcDbArc
 50
270.0
 51
45.0
  0
ARC
  5
694
100
AcDbEntity
  8
0
100
AcDbCircle
 62
7
  6
CONTINUOUS
 10
295.7273423977
 20
168.919863143
 40
0.2
100
AcDbArc
 50
270.0
 51
45.0
  0
ARC
  5
695
100
AcDbEntity
  8
0
100
AcDbCircle
 62
7
  6
CONTINUOUS
 10
301.6670393597
 20
168.919863143
 40
0.2
100
AcDbArc
 50
270.0
 51
45.0
  0
ARC
  5
696
100
AcDbEntity
  8
0
100
AcDbCircle
 62
7
  6
CONTINUOUS
 10
307.6067363217
 20
168.919863143
 40
0.2
100
AcDbArc
 50
270.0
 51
45.0
  0
ARC
  5
697
100
AcDbEntity
  8
0
100
AcDbCircle
 62
7
  6
CONTINUOUS
 10
313.5464332836
 20
168.919863143
 40
0.2
100
AcDbArc
 50
270.0
 51
45.0
  0
ARC
  5
698
100
AcDbEntity
  8
0
100
AcDbCircle
 62
7
  6
CONTINUOUS
 10
310.2150624337
 20
171.119863143
 40
0.2
100
AcDbArc
 50
90.0
 51
225.0
  0
ARC
  5
699
100
AcDbEntity
  8
0
100
AcDbCircle
 62
7
  6
CONTINUOUS
 10
304.2753654718
 20
171.119863143
 40
0.2
100
AcDbArc
 50
90.0
 51
225.0
  0
ARC
  5
69A
100
AcDbEntity
  8
0
100
AcDbCircle
 62
7
  6
CONTINUOUS
 10
298.3356685098
 20
171.119863143
 40
0.2
100
AcDbArc
 50
90.0
 51
225.0
  0
ARC
  5
69B
100
AcDbEntity
  8
0
100
AcDbCircle
 62
7
  6
CONTINUOUS
 10
292.3959715478
 20
171.119863143
 40
0.2
100
AcDbArc
 50
90.0
 51
225.0
  0
ARC
  5
69C
100
AcDbEntity
  8
0
100
AcDbCircle
 62
7
  6
CONTINUOUS
 10
286.4562745859
 20
171.119863143
 40
0.2
100
AcDbArc
 50
90.0
 51
225.0
  0
ARC
  5
69D
100
AcDbEntity
  8
0
100
AcDbCircle
 62
7
  6
CONTINUOUS
 10
270.7228834824
 20
180.419863143
 40
0.2
100
AcDbArc
 50
270.0
 51
45.0
  0
ARC
  5
69E
100
AcDbEntity
  8
0
100
AcDbCircle
 62
7
  6
CONTINUOUS
 10
276.6625804444
 20
180.419863143
 40
0.2
100
AcDbArc
 50
270.0
 51
45.0
  0
ARC
  5
69F
100
AcDbEntity
  8
0
100
AcDbCircle
 62
7
  6
CONTINUOUS
 10
273.3312095945
 20
182.619863143
 40
0.2
100
AcDbArc
 50
90.0
 51
225.0
  0
ELLIPSE
  5
6A0
100
AcDbEntity
  8
0
100
AcDbEllipse
 62
7
  6
CONTINUOUS
 10
129.820916238
 20
130.319863143
 30
0.0
 11
1.0
 21
-0.0
 31
0.0
 40
1.0
 41
-1.9978749132
 42
-1.5707963268
  0
ELLIPSE
  5
6A1
100
AcDbEntity
  8
0
100
AcDbEllipse
 62
7
  6
CONTINUOUS
 10
129.820916238
 20
183.319863143
 30
0.0
 11
-0.0
 21
1.0
 31
0.0
 40
1.0
 41
0.0
 42
0.4270785864
  0
ELLIPSE
  5
6A2
100
AcDbEntity
  8
0
100
AcDbEllipse
 62
7
  6
CONTINUOUS
 10
172.3924891132
 20
183.319863143
 30
0.0
 11
-0.0
 21
1.0
 31
0.0
 40
1.0
 41
-0.4270785864
 42
-0.0
  0
ELLIPSE
  5
6A3
100
AcDbEntity
  8
0
100
AcDbEllipse
 62
7
  6
CONTINUOUS
 10
172.3924891132
 20
130.319863143
 30
0.0
 11
-0.0
 21
1.0
 31
0.0
 40
1.0
 41
-3.1415926536
 42
-2.7145140672
  0
ENDSEC
  0
SECTION
  2
OBJECTS
  0
DICTIONARY
  5
C
100
AcDbDictionary
280
0
281
1
  3
ACAD_GROUP
350
D
  3
ACAD_MLINESTYLE
350
17
  3
ACAD_LAYOUT
350
1A
  3
ACAD_PLOTSETTINGS
350
19
  3
ACAD_PLOTSTYLENAME
350
E
  0
DICTIONARY
  5
D
102
{ACAD_REACTORS
330
C
102
}
100
AcDbDictionary
280
0
281
1
  0
ACDBDICTIONARYWDFLT
  5
E
102
{ACAD_REACTORS
330
C
102
}
100
AcDbDictionary
281
1
  3
Normal
350
F
100
AcDbDictionaryWithDefault
340
F
  0
DICTIONARY
  5
17
102
{ACAD_REACTORS
330
C
102
}
100
AcDbDictionary
280
0
281
1
  3
Standard
350
18
  0
DICTIONARY
  5
19
102
{ACAD_REACTORS
330
C
102
}
100
AcDbDictionary
281
1
  0
DICTIONARY
  5
1A
102
{ACAD_REACTORS
330
C
102
}
100
AcDbDictionary
281
1
  3
Model
350
6A4
  3
Layout1
350
6A5
  0
ACDBPLACEHOLDER
  5
F
102
{ACAD_REACTORS
330
E
102
}
  0
MLINESTYLE
  5
18
102
{ACAD_REACTORS
330
17
102
}
100
AcDbMlineStyle
  2
STANDARD
 70
0
  3

 62
256
 51
90.0
 52
90.0
 71
2
 49
0.5
 62
256
  6
BYLAYER
 49
-0.5
 62
256
  6
BYLAYER
  0
LAYOUT
  5
6A4
102
{ACAD_REACTORS
330
1A
102
}
100
AcDbPlotSettings
  1

  2
none_device
  4
ISO_A3_(420.00_x_297.00_MM)
  6

 40
0.0
 41
0.0
 42
0.0
 43
0.0
 44
420.0
 45
297.0
 46
0.0
 47
0.0
 48
0.0
 49
0.0
140
0.0
141
0.0
142
1.0
143
1.0
 70
1024
 72
1
 73
0
 74
0
  7

 75
0
147
1.0
148
0.0
149
0.0
100
AcDbLayout
  1
Model
 70
0
 71
0
 10
0.0
 20
0.0
 11
420.0
 21
297.0
 12
0.0
 22
0.0
 32
0.0
 14
0.0
 24
0.0
 34
0.0
 15
0.0
 25
0.0
 35
0.0
146
0.0
 13
0.0
 23
0.0
 33
0.0
 16
1.0
 26
0.0
 36
0.0
 17
0.0
 27
1.0
 37
0.0
 76
0
330
22C
345
0
346
0
  0
LAYOUT
  5
6A5
102
{ACAD_REACTORS
330
1A
102
}
100
AcDbPlotSettings
  1

  2
none_device
  4
ISO_A3_(420.00_x_297.00_MM)
  6

 40
0.0
 41
0.0
 42
0.0
 43
0.0
 44
420.0
 45
297.0
 46
0.0
 47
0.0
 48
0.0
 49
0.0
140
0.0
141
0.0
142
1.0
143
1.0
 70
0
 72
1
 73
0
 74
0
  7

 75
0
147
1.0
148
0.0
149
0.0
100
AcDbLayout
  1
Layout1
 70
0
 71
1
 10
0.0
 20
0.0
 11
420.0
 21
297.0
 12
0.0
 22
0.0
 32
0.0
 14
0.0
 24
0.0
 34
0.0
 15
0.0
 25
0.0
 35
0.0
146
0.0
 13
0.0
 23
0.0
 33
0.0
 16
1.0
 26
0.0
 36
0.0
 17
0.0
 27
1.0
 37
0.0
 76
0
330
22D
345
0
346
0
  0
ENDSEC
  0
EOF
