999
DXF file: HC6-09_18.dxf
999
Pro/ENGINEER 2018100 by Parametric Technology Corporation
  0
SECTION
  2
HEADER
  9
$ACADVER
  1
AC1015
  9
$DWGCODEPAGE
  3
ANSI_936
  9
$EXTMAX
 10
420.0
 20
297.0
 30
0.0
  9
$EXTMIN
 10
0.0
 20
0.0
 30
0.0
  9
$LIMMIN
 10
0.0
 20
0.0
  9
$LIMMAX
 10
420.0
 20
297.0
  9
$VIEWCTR
 10
210.0
 20
148.5
  9
$VIEWSIZE
 40
297.0
  9
$CLAYER
  8
0
  9
$LTSCALE
 40
23.1
  9
$CELTYPE
  6
BYLAYER
  9
$DIMSCALE
 40
1.0
  9
$DIMASZ
 40
3.5
  9
$DIMEXO
 40
0.0
  9
$DIMDLI
 40
15.96
  9
$DIMEXE
 40
1.5
  9
$DIMCEN
 40
3.78
  9
$DIMLFAC
 40
1.0
  9
$DIMBLK
  1
_FILLED
  9
$DIMALT
 70
0
  9
$DIMALTF
 40
25.4
  9
$DIMTXT
 40
3.5
  9
$DIMTOL
 70
1
  9
$DIMLIM
 70
0
  9
$DIMTFAC
 40
1.0
  9
$DIMTP
 40
0.01
  9
$DIMTM
 40
0.01
  9
$DIMGAP
 40
0.625
  9
$DIMDSEP
 70
46
  9
$AUNITS
 70
0
  9
$PDMODE
 70
3
  9
$PDSIZE
 40
1.0
  9
$HANDSEED
  5
9E1
  9
$TILEMODE
 70
1
  9
$MEASUREMENT
 70
1
  9
$INSUNITS
 70
4
  0
ENDSEC
  0
SECTION
  2
CLASSES
  0
CLASS
  1
ACDBDICTIONARYWDFLT
  2
AcDbDictionaryWithDefault
  3
AutoCAD 2000
 90
0
280
0
281
0
  0
CLASS
  1
ACDBPLACEHOLDER
  2
AcDbPlaceHolder
  3
AutoCAD 2000
 90
0
280
0
281
0
  0
CLASS
  1
LAYOUT
  2
AcDbLayout
  3
AutoCAD 2000
 90
0
280
0
281
0
  0
ENDSEC
  0
SECTION
  2
TABLES
  0
TABLE
  2
VPORT
  5
8
100
AcDbSymbolTable
 70
2
  0
VPORT
  5
1F4
100
AcDbSymbolTableRecord
100
AcDbViewportTableRecord
  2
*ACTIVE
 70
0
 10
0.0
 20
0.0
 11
1.0
 21
1.0
 12
210.0
 22
148.5
 13
0.0
 23
0.0
 14
1.0
 24
1.0
 15
0.0
 25
0.0
 16
0.0
 26
0.0
 36
1.0
 17
0.0
 27
0.0
 37
0.0
 40
297.0
 41
1.4141414141
 42
50.0
 43
0.0
 44
0.0
 50
0.0
 51
0.0
 71
0
 72
100
 73
1
 74
1
 75
0
 76
0
 77
0
 78
0
  0
ENDTAB
  0
TABLE
  2
LTYPE
  5
5
100
AcDbSymbolTable
 70
6
  0
LTYPE
  5
14
100
AcDbSymbolTableRecord
100
AcDbLinetypeTableRecord
  2
BYBLOCK
 70
0
  3

 72
65
 73
0
 40
0.0
  0
LTYPE
  5
15
100
AcDbSymbolTableRecord
100
AcDbLinetypeTableRecord
  2
BYLAYER
 70
0
  3

 72
65
 73
0
 40
0.0
  0
LTYPE
  5
16
100
AcDbSymbolTableRecord
100
AcDbLinetypeTableRecord
  2
CONTINUOUS
 70
64
  3
Solid line
 72
65
 73
0
 40
0.0
  0
LTYPE
  5
1F5
100
AcDbSymbolTableRecord
100
AcDbLinetypeTableRecord
  2
CENTER
 70
64
  3
____ _ ____ _ ____ _ ____ _ ____ _ ____ _ ____
 72
65
 73
4
 40
0.6
 49
0.375
 74
0
 49
-0.075
 74
0
 49
0.075
 74
0
 49
-0.075
 74
0
  0
LTYPE
  5
1F6
100
AcDbSymbolTableRecord
100
AcDbLinetypeTableRecord
  2
HIDDEN
 70
64
  3
- - - - - - - - - - - - - - - - - - - -
 72
65
 73
2
 40
0.2
 49
0.1
 74
0
 49
-0.1
 74
0
  0
LTYPE
  5
1F7
100
AcDbSymbolTableRecord
100
AcDbLinetypeTableRecord
  2
PHANTOM
 70
64
  3
_____ _ _ _____ _ _ _____ _ _ _____
 72
65
 73
6
 40
0.8
 49
0.45
 74
0
 49
-0.05
 74
0
 49
0.1
 74
0
 49
-0.05
 74
0
 49
0.1
 74
0
 49
-0.05
 74
0
  0
LTYPE
  5
1F8
100
AcDbSymbolTableRecord
100
AcDbLinetypeTableRecord
  2
DOT
 70
64
  3
. . . . . . . . . . . . . . . . . . . .
 72
65
 73
2
 40
0.2
 49
0.1
 74
0
 49
-0.1
 74
0
  0
LTYPE
  5
1F9
100
AcDbSymbolTableRecord
100
AcDbLinetypeTableRecord
  2
DASHED
 70
64
  3
- - - - - - - - - - - - - - - - - - - -
 72
65
 73
2
 40
0.2
 49
0.1
 74
0
 49
-0.1
 74
0
  0
ENDTAB
  0
TABLE
  2
LAYER
  5
2
100
AcDbSymbolTable
 70
36
  0
LAYER
  5
10
100
AcDbSymbolTableRecord
100
AcDbLayerTableRecord
  2
0
 70
0
 62
7
  6
CONTINUOUS
370
-3
390
F
  0
LAYER
  5
1FA
100
AcDbSymbolTableRecord
100
AcDbLayerTableRecord
  2
DEFAULT_1
 70
0
 62
7
  6
CENTER
370
-3
390
F
  0
LAYER
  5
1FB
100
AcDbSymbolTableRecord
100
AcDbLayerTableRecord
  2
DEFAULT_2
 70
0
 62
8
  6
HIDDEN
370
-3
390
F
  0
LAYER
  5
1FC
100
AcDbSymbolTableRecord
100
AcDbLayerTableRecord
  2
DEFAULT_3
 70
0
 62
7
  6
PHANTOM
370
-3
390
F
  0
LAYER
  5
1FD
100
AcDbSymbolTableRecord
100
AcDbLayerTableRecord
  2
00_COMPONENTS
 70
0
 62
7
  6
CONTINUOUS
370
-3
390
F
  0
LAYER
  5
1FE
100
AcDbSymbolTableRecord
100
AcDbLayerTableRecord
  2
01_1_DEFAULT_DATUMS
 70
0
 62
7
  6
CONTINUOUS
370
-3
390
F
  0
LAYER
  5
1FF
100
AcDbSymbolTableRecord
100
AcDbLayerTableRecord
  2
01_ALL_DTM_PLN
 70
0
 62
7
  6
CONTINUOUS
370
-3
390
F
  0
LAYER
  5
200
100
AcDbSymbolTableRecord
100
AcDbLayerTableRecord
  2
01_PLANES
 70
0
 62
7
  6
CONTINUOUS
370
-3
390
F
  0
LAYER
  5
201
100
AcDbSymbolTableRecord
100
AcDbLayerTableRecord
  2
01__ASM_ALL_DTM_PLN
 70
0
 62
7
  6
CONTINUOUS
370
-3
390
F
  0
LAYER
  5
202
100
AcDbSymbolTableRecord
100
AcDbLayerTableRecord
  2
01__ASM_DEF_DTM_PLN
 70
0
 62
7
  6
CONTINUOUS
370
-3
390
F
  0
LAYER
  5
203
100
AcDbSymbolTableRecord
100
AcDbLayerTableRecord
  2
01___PRT_ALL_DTM_PLN
 70
0
 62
7
  6
CONTINUOUS
370
-3
390
F
  0
LAYER
  5
204
100
AcDbSymbolTableRecord
100
AcDbLayerTableRecord
  2
01___PRT_DEF_DTM_PLN
 70
0
 62
7
  6
CONTINUOUS
370
-3
390
F
  0
LAYER
  5
205
100
AcDbSymbolTableRecord
100
AcDbLayerTableRecord
  2
02_ALL_AXES
 70
0
 62
7
  6
CONTINUOUS
370
-3
390
F
  0
LAYER
  5
206
100
AcDbSymbolTableRecord
100
AcDbLayerTableRecord
  2
02_COORD_SYS
 70
0
 62
7
  6
CONTINUOUS
370
-3
390
F
  0
LAYER
  5
207
100
AcDbSymbolTableRecord
100
AcDbLayerTableRecord
  2
02__ASM_ALL_AXES
 70
0
 62
7
  6
CONTINUOUS
370
-3
390
F
  0
LAYER
  5
208
100
AcDbSymbolTableRecord
100
AcDbLayerTableRecord
  2
02___PRT_ALL_AXES
 70
0
 62
7
  6
CONTINUOUS
370
-3
390
F
  0
LAYER
  5
209
100
AcDbSymbolTableRecord
100
AcDbLayerTableRecord
  2
03_ALL_CURVES
 70
0
 62
7
  6
CONTINUOUS
370
-3
390
F
  0
LAYER
  5
20A
100
AcDbSymbolTableRecord
100
AcDbLayerTableRecord
  2
03_AXES
 70
0
 62
7
  6
CONTINUOUS
370
-3
390
F
  0
LAYER
  5
20B
100
AcDbSymbolTableRecord
100
AcDbLayerTableRecord
  2
03__ASM_ALL_CURVES
 70
0
 62
7
  6
CONTINUOUS
370
-3
390
F
  0
LAYER
  5
20C
100
AcDbSymbolTableRecord
100
AcDbLayerTableRecord
  2
03___PRT_ALL_CURVES
 70
0
 62
7
  6
CONTINUOUS
370
-3
390
F
  0
LAYER
  5
20D
100
AcDbSymbolTableRecord
100
AcDbLayerTableRecord
  2
04_ALL_DTM_PNT
 70
0
 62
7
  6
CONTINUOUS
370
-3
390
F
  0
LAYER
  5
20E
100
AcDbSymbolTableRecord
100
AcDbLayerTableRecord
  2
04_POINTS
 70
0
 62
7
  6
CONTINUOUS
370
-3
390
F
  0
LAYER
  5
20F
100
AcDbSymbolTableRecord
100
AcDbLayerTableRecord
  2
04__ASM_ALL_DTM_PNT
 70
0
 62
7
  6
CONTINUOUS
370
-3
390
F
  0
LAYER
  5
210
100
AcDbSymbolTableRecord
100
AcDbLayerTableRecord
  2
04___PRT_ALL_DTM_PNT
 70
0
 62
7
  6
CONTINUOUS
370
-3
390
F
  0
LAYER
  5
211
100
AcDbSymbolTableRecord
100
AcDbLayerTableRecord
  2
05_ALL_DTM_CSYS
 70
0
 62
7
  6
CONTINUOUS
370
-3
390
F
  0
LAYER
  5
212
100
AcDbSymbolTableRecord
100
AcDbLayerTableRecord
  2
05_CURVES
 70
0
 62
7
  6
CONTINUOUS
370
-3
390
F
  0
LAYER
  5
213
100
AcDbSymbolTableRecord
100
AcDbLayerTableRecord
  2
05__ASM_ALL_DTM_CSYS
 70
0
 62
7
  6
CONTINUOUS
370
-3
390
F
  0
LAYER
  5
214
100
AcDbSymbolTableRecord
100
AcDbLayerTableRecord
  2
05__ASM_DEF_DTM_CSYS
 70
0
 62
7
  6
CONTINUOUS
370
-3
390
F
  0
LAYER
  5
215
100
AcDbSymbolTableRecord
100
AcDbLayerTableRecord
  2
05___PRT_ALL_DTM_CSYS
 70
0
 62
7
  6
CONTINUOUS
370
-3
390
F
  0
LAYER
  5
216
100
AcDbSymbolTableRecord
100
AcDbLayerTableRecord
  2
05___PRT_DEF_DTM_CSYS
 70
0
 62
7
  6
CONTINUOUS
370
-3
390
F
  0
LAYER
  5
217
100
AcDbSymbolTableRecord
100
AcDbLayerTableRecord
  2
06_ALL_SURFS
 70
0
 62
7
  6
CONTINUOUS
370
-3
390
F
  0
LAYER
  5
218
100
AcDbSymbolTableRecord
100
AcDbLayerTableRecord
  2
06_SURFS
 70
0
 62
7
  6
CONTINUOUS
370
-3
390
F
  0
LAYER
  5
219
100
AcDbSymbolTableRecord
100
AcDbLayerTableRecord
  2
06__ASM_ALL_SURFS
 70
0
 62
7
  6
CONTINUOUS
370
-3
390
F
  0
LAYER
  5
21A
100
AcDbSymbolTableRecord
100
AcDbLayerTableRecord
  2
06___PRT_ALL_SURFS
 70
0
 62
7
  6
CONTINUOUS
370
-3
390
F
  0
LAYER
  5
21B
100
AcDbSymbolTableRecord
100
AcDbLayerTableRecord
  2
07_COSMETICS
 70
0
 62
7
  6
CONTINUOUS
370
-3
390
F
  0
LAYER
  5
21C
100
AcDbSymbolTableRecord
100
AcDbLayerTableRecord
  2
07__ASM_ALL_SKELETONS
 70
0
 62
7
  6
CONTINUOUS
370
-3
390
F
  0
LAYER
  5
21D
100
AcDbSymbolTableRecord
100
AcDbLayerTableRecord
  2
10_NOTES
 70
0
 62
7
  6
CONTINUOUS
370
-3
390
F
  0
LAYER
  5
21E
100
AcDbSymbolTableRecord
100
AcDbLayerTableRecord
  2
13_REF_GTOL
 70
0
 62
7
  6
CONTINUOUS
370
-3
390
F
  0
LAYER
  5
21F
100
AcDbSymbolTableRecord
100
AcDbLayerTableRecord
  2
16_MISC
 70
0
 62
7
  6
CONTINUOUS
370
-3
390
F
  0
LAYER
  5
220
100
AcDbSymbolTableRecord
100
AcDbLayerTableRecord
  2
17_NO_PRINT
 70
0
 62
7
  6
CONTINUOUS
370
-3
390
F
  0
LAYER
  5
221
100
AcDbSymbolTableRecord
100
AcDbLayerTableRecord
  2
18_DATUM_CAMS_JOINTS
 70
0
 62
7
  6
CONTINUOUS
370
-3
390
F
  0
LAYER
  5
222
100
AcDbSymbolTableRecord
100
AcDbLayerTableRecord
  2
19_DATUM_FUNCTIONAL
 70
0
 62
7
  6
CONTINUOUS
370
-3
390
F
  0
LAYER
  5
223
100
AcDbSymbolTableRecord
100
AcDbLayerTableRecord
  2
20_DATUM_KINEMATIC_SCHEME
 70
0
 62
7
  6
CONTINUOUS
370
-3
390
F
  0
LAYER
  5
224
100
AcDbSymbolTableRecord
100
AcDbLayerTableRecord
  2
DETAILS
 70
0
 62
7
  6
CONTINUOUS
370
-3
390
F
  0
LAYER
  5
225
100
AcDbSymbolTableRecord
100
AcDbLayerTableRecord
  2
NOTES
 70
0
 62
7
  6
CONTINUOUS
370
-3
390
F
  0
ENDTAB
  0
TABLE
  2
STYLE
  5
3
100
AcDbSymbolTable
 70
1
  0
STYLE
  5
11
100
AcDbSymbolTableRecord
100
AcDbTextStyleTableRecord
  2
STANDARD
 70
0
 40
0.0
 41
1.0
 50
0.0
 71
0
 42
0.2
  3
changfangsong.ttf
  4

  0
STYLE
  5
226
100
AcDbSymbolTableRecord
100
AcDbTextStyleTableRecord
  2
TEXTSTYLE_1
 70
0
 40
0.0
 41
0.8
 50
0.0
 71
0
 42
0.2
  3
gdt
  4

  0
STYLE
  5
227
100
AcDbSymbolTableRecord
100
AcDbTextStyleTableRecord
  2
TEXTSTYLE_2
 70
0
 40
0.0
 41
0.7
 50
0.0
 71
0
 42
0.2
  3
gdt
  4

  0
ENDTAB
  0
TABLE
  2
VIEW
  5
6
100
AcDbSymbolTable
 70
0
  0
ENDTAB
  0
TABLE
  2
UCS
  5
7
100
AcDbSymbolTable
 70
0
  0
ENDTAB
  0
TABLE
  2
APPID
  5
9
100
AcDbSymbolTable
 70
1
  0
APPID
  5
228
100
AcDbSymbolTableRecord
100
AcDbRegAppTableRecord
  2
ACAD
 70
0
  0
ENDTAB
  0
TABLE
  2
BLOCK_RECORD
  5
1
100
AcDbSymbolTable
 70
0
  0
BLOCK_RECORD
  5
229
100
AcDbSymbolTableRecord
100
AcDbBlockTableRecord
  2
*Model_Space
  0
BLOCK_RECORD
  5
22A
100
AcDbSymbolTableRecord
100
AcDbBlockTableRecord
  2
*Paper_Space
  0
BLOCK_RECORD
  5
22B
100
AcDbSymbolTableRecord
100
AcDbBlockTableRecord
  2
_FILLED
  0
BLOCK_RECORD
  5
22C
100
AcDbSymbolTableRecord
100
AcDbBlockTableRecord
  2
*D0
  0
BLOCK_RECORD
  5
22D
100
AcDbSymbolTableRecord
100
AcDbBlockTableRecord
  2
*D1
  0
BLOCK_RECORD
  5
22E
100
AcDbSymbolTableRecord
100
AcDbBlockTableRecord
  2
*D2
  0
BLOCK_RECORD
  5
22F
100
AcDbSymbolTableRecord
100
AcDbBlockTableRecord
  2
*D3
  0
BLOCK_RECORD
  5
230
100
AcDbSymbolTableRecord
100
AcDbBlockTableRecord
  2
*D4
  0
BLOCK_RECORD
  5
231
100
AcDbSymbolTableRecord
100
AcDbBlockTableRecord
  2
*D5
  0
BLOCK_RECORD
  5
232
100
AcDbSymbolTableRecord
100
AcDbBlockTableRecord
  2
*D6
  0
BLOCK_RECORD
  5
233
100
AcDbSymbolTableRecord
100
AcDbBlockTableRecord
  2
*D7
  0
BLOCK_RECORD
  5
234
100
AcDbSymbolTableRecord
100
AcDbBlockTableRecord
  2
*D8
  0
ENDTAB
  0
TABLE
  2
DIMSTYLE
  5
A
100
AcDbSymbolTable
 70
1
100
AcDbDimStyleTable
 71
0
  0
DIMSTYLE
105
235
100
AcDbSymbolTableRecord
100
AcDbDimStyleTableRecord
  2
STANDARD
 70
0
  3

  4

 40
1.0
 41
3.5
 42
0.0
 43
0.38
 44
1.5
 45
0.0
 46
0.0
 47
0.01
 48
0.01
140
3.5
141
0.09
142
0.0
143
25.4
144
1.0
145
0.0
146
1.0
147
0.625
 71
1.0
 72
0.0
 73
0
 74
0
 75
0
 76
0
 77
1
 78
8
 79
2
170
0
171
1
172
0
173
0
174
0
175
0
176
0
177
0
178
5
270
2
179
2
271
2
272
2
273
2
274
2
275
0
280
0
281
0
282
0
283
1
284
8
285
0
286
0
287
3
288
0
340
11
278
46
341
22B
342
22B
343
22B
344
22B
  0
DIMSTYLE
105
236
100
AcDbSymbolTableRecord
100
AcDbDimStyleTableRecord
  2
DIMSTYLE_1
 70
0
  3

  4

 40
1.0
 41
3.5
 42
0.0
 43
0.38
 44
1.5
 45
0.0
 46
0.0
 47
0.01
 48
0.01
140
3.5
141
0.09
142
0.0
143
25.4
144
1.0
145
0.0
146
1.0
147
0.875
 71
0.0
 72
0.0
 73
0
 74
0
 75
0
 76
0
 77
1
 78
8
 79
2
170
0
171
1
172
0
173
0
174
0
175
0
176
0
177
0
178
5
270
2
179
2
271
2
272
2
273
2
274
2
275
0
280
0
281
0
282
0
283
1
284
8
285
0
286
0
287
3
288
0
340
11
278
46
341
22B
342
22B
343
22B
344
22B
  0
DIMSTYLE
105
237
100
AcDbSymbolTableRecord
100
AcDbDimStyleTableRecord
  2
DIMSTYLE_2
 70
0
  3

  4

 40
1.0
 41
3.5
 42
0.0
 43
0.38
 44
1.5
 45
0.0
 46
0.0
 47
0.01
 48
0.01
140
3.5
141
0.09
142
0.0
143
25.4
144
1.0
145
0.0
146
1.0
147
0.875
 71
0.0
 72
0.0
 73
0
 74
0
 75
0
 76
0
 77
1
 78
8
 79
2
170
0
171
1
172
0
173
0
174
0
175
0
176
0
177
0
178
5
270
2
179
2
271
0
272
0
273
2
274
2
275
0
280
0
281
0
282
0
283
1
284
8
285
0
286
0
287
3
288
0
340
11
278
46
341
22B
342
22B
343
22B
344
22B
  0
ENDTAB
  0
ENDSEC
  0
SECTION
  2
BLOCKS
  0
BLOCK
  5
20
100
AcDbEntity
  8
0
100
AcDbBlockBegin
  2
*Model_Space
 70
0
 10
0.0
 20
0.0
 30
0.0
  3
*Model_Space
  1

  0
ENDBLK
  5
21
100
AcDbEntity
  8
0
100
AcDbBlockEnd
  0
BLOCK
  5
1C
100
AcDbEntity
  8
0
100
AcDbBlockBegin
  2
*Paper_Space
 70
0
 10
0.0
 20
0.0
 30
0.0
  3
*Paper_Space
  1

  0
ENDBLK
  5
1D
100
AcDbEntity
  8
0
100
AcDbBlockEnd
  0
BLOCK
  5
238
100
AcDbEntity
  8
0
100
AcDbBlockBegin
  2
_FILLED
 70
64
 10
0.0
 20
0.0
  3
_FILLED
  1

  0
SOLID
  5
239
100
AcDbEntity
  8
0
  6
BYBLOCK
 62
0
100
AcDbTrace
 10
0.0
 20
0.0
 11
-1.0
 21
0.1428571429
 12
-1.0
 22
-0.1428571429
 13
-1.0
 23
-0.1428571429
  0
ENDBLK
  5
23A
100
AcDbEntity
  8
0
  6
BYBLOCK
 62
0
100
AcDbBlockEnd
  0
BLOCK
  5
23B
100
AcDbEntity
  8
0
100
AcDbBlockBegin
 62
2
  6
CONTINUOUS
  2
*D0
 70
65
 10
0.0
 20
0.0
  3
*D0
  1

  0
MTEXT
  5
23C
100
AcDbEntity
  8
0
100
AcDbMText
 62
5
  6
CONTINUOUS
  7
STANDARD
 71
2
 72
1
 10
178.7859907383
 20
166.377228891
 30
0.0
 11
0.0
 21
1.0
 31
0.0
 73
2
 44
0.9
  1
52[2.05]
 40
3.5
 41
15.1131147541
  0
LINE
  5
23D
100
AcDbEntity
  8
0
100
AcDbLine
 62
2
  6
CONTINUOUS
 10
172.1610907383
 20
192.377228891
 11
184.6609907383
 21
192.377228891
  0
LINE
  5
23E
100
AcDbEntity
  8
0
100
AcDbLine
 62
2
  6
CONTINUOUS
 10
172.1610907383
 20
140.377228891
 11
184.6609907383
 21
140.377228891
  0
LINE
  5
23F
100
AcDbEntity
  8
0
100
AcDbLine
 62
2
  6
CONTINUOUS
 10
183.1609907383
 20
192.377228891
 11
183.1609907383
 21
166.377228891
  0
LINE
  5
240
100
AcDbEntity
  8
0
100
AcDbLine
 62
2
  6
CONTINUOUS
 10
183.1609907383
 20
140.377228891
 11
183.1609907383
 21
166.377228891
  0
INSERT
  5
241
100
AcDbEntity
  8
0
100
AcDbBlockReference
 62
2
  6
CONTINUOUS
  2
_FILLED
 10
183.1609907383
 20
192.377228891
 41
3.5
 42
3.5
 43
3.5
 50
90.0
  0
INSERT
  5
242
100
AcDbEntity
  8
0
100
AcDbBlockReference
 62
2
  6
CONTINUOUS
  2
_FILLED
 10
183.1609907383
 20
140.377228891
 41
3.5
 42
3.5
 43
3.5
 50
270.0
  0
ENDBLK
  5
243
100
AcDbEntity
  8
0
  6
BYBLOCK
 62
0
100
AcDbBlockEnd
  0
BLOCK
  5
244
100
AcDbEntity
  8
0
100
AcDbBlockBegin
 62
2
  6
CONTINUOUS
  2
*D1
 70
65
 10
0.0
 20
0.0
  3
*D1
  1

  0
MTEXT
  5
245
100
AcDbEntity
  8
0
100
AcDbMText
 62
5
  6
CONTINUOUS
  7
STANDARD
 71
2
 72
1
 10
184.7859907383
 20
166.377228891
 30
0.0
 11
0.0
 21
1.0
 31
0.0
 73
2
 44
0.9
  1
65[2.56]
 40
3.5
 41
14.9868852459
  0
LINE
  5
246
100
AcDbEntity
  8
0
100
AcDbLine
 62
2
  6
CONTINUOUS
 10
172.1610907383
 20
198.877228891
 11
190.6609907383
 21
198.877228891
  0
LINE
  5
247
100
AcDbEntity
  8
0
100
AcDbLine
 62
2
  6
CONTINUOUS
 10
172.1610907383
 20
133.877228891
 11
190.6609907383
 21
133.877228891
  0
LINE
  5
248
100
AcDbEntity
  8
0
100
AcDbLine
 62
2
  6
CONTINUOUS
 10
189.1609907383
 20
198.877228891
 11
189.1609907383
 21
166.377228891
  0
LINE
  5
249
100
AcDbEntity
  8
0
100
AcDbLine
 62
2
  6
CONTINUOUS
 10
189.1609907383
 20
133.877228891
 11
189.1609907383
 21
166.377228891
  0
INSERT
  5
24A
100
AcDbEntity
  8
0
100
AcDbBlockReference
 62
2
  6
CONTINUOUS
  2
_FILLED
 10
189.1609907383
 20
198.877228891
 41
3.5
 42
3.5
 43
3.5
 50
90.0
  0
INSERT
  5
24B
100
AcDbEntity
  8
0
100
AcDbBlockReference
 62
2
  6
CONTINUOUS
  2
_FILLED
 10
189.1609907383
 20
133.877228891
 41
3.5
 42
3.5
 43
3.5
 50
270.0
  0
ENDBLK
  5
24C
100
AcDbEntity
  8
0
  6
BYBLOCK
 62
0
100
AcDbBlockEnd
  0
BLOCK
  5
24D
100
AcDbEntity
  8
0
100
AcDbBlockBegin
 62
2
  6
CONTINUOUS
  2
*D2
 70
65
 10
0.0
 20
0.0
  3
*D2
  1

  0
MTEXT
  5
24E
100
AcDbEntity
  8
0
100
AcDbMText
 62
5
  6
CONTINUOUS
  7
STANDARD
 71
2
 72
1
 10
150.6609907383
 20
219.052228891
 30
0.0
 11
1.0
 21
0.0
 31
0.0
 73
2
 44
0.9
  1
35[1.38]
 40
3.5
 41
15.2393442623
  0
LINE
  5
24F
100
AcDbEntity
  8
0
100
AcDbLine
 62
2
  6
CONTINUOUS
 10
133.1609907383
 20
202.877328891
 11
133.1609907383
 21
216.177228891
  0
LINE
  5
250
100
AcDbEntity
  8
0
100
AcDbLine
 62
2
  6
CONTINUOUS
 10
168.1609907383
 20
202.877328891
 11
168.1609907383
 21
216.177228891
  0
LINE
  5
251
100
AcDbEntity
  8
0
100
AcDbLine
 62
2
  6
CONTINUOUS
 10
133.1609907383
 20
214.677228891
 11
150.6609907383
 21
214.677228891
  0
LINE
  5
252
100
AcDbEntity
  8
0
100
AcDbLine
 62
2
  6
CONTINUOUS
 10
168.1609907383
 20
214.677228891
 11
150.6609907383
 21
214.677228891
  0
INSERT
  5
253
100
AcDbEntity
  8
0
100
AcDbBlockReference
 62
2
  6
CONTINUOUS
  2
_FILLED
 10
133.1609907383
 20
214.677228891
 41
3.5
 42
3.5
 43
3.5
 50
180.0
  0
INSERT
  5
254
100
AcDbEntity
  8
0
100
AcDbBlockReference
 62
2
  6
CONTINUOUS
  2
_FILLED
 10
168.1609907383
 20
214.677228891
 41
3.5
 42
3.5
 43
3.5
  0
ENDBLK
  5
255
100
AcDbEntity
  8
0
  6
BYBLOCK
 62
0
100
AcDbBlockEnd
  0
BLOCK
  5
256
100
AcDbEntity
  8
0
100
AcDbBlockBegin
 62
2
  6
CONTINUOUS
  2
*D3
 70
65
 10
0.0
 20
0.0
  3
*D3
  1

  0
MTEXT
  5
257
100
AcDbEntity
  8
0
100
AcDbMText
 62
5
  6
CONTINUOUS
  7
STANDARD
 71
2
 72
1
 10
150.6609907383
 20
225.052228891
 30
0.0
 11
1.0
 21
0.0
 31
0.0
 73
2
 44
0.9
  1
45[1.77]
 40
3.5
 41
14.493442623
  0
LINE
  5
258
100
AcDbEntity
  8
0
100
AcDbLine
 62
2
  6
CONTINUOUS
 10
128.1609907383
 20
202.877228891
 11
128.1609907383
 21
222.177228891
  0
LINE
  5
259
100
AcDbEntity
  8
0
100
AcDbLine
 62
2
  6
CONTINUOUS
 10
173.1609907383
 20
202.877228891
 11
173.1609907383
 21
222.177228891
  0
LINE
  5
25A
100
AcDbEntity
  8
0
100
AcDbLine
 62
2
  6
CONTINUOUS
 10
128.1609907383
 20
220.677228891
 11
150.6609907383
 21
220.677228891
  0
LINE
  5
25B
100
AcDbEntity
  8
0
100
AcDbLine
 62
2
  6
CONTINUOUS
 10
173.1609907383
 20
220.677228891
 11
150.6609907383
 21
220.677228891
  0
INSERT
  5
25C
100
AcDbEntity
  8
0
100
AcDbBlockReference
 62
2
  6
CONTINUOUS
  2
_FILLED
 10
128.1609907383
 20
220.677228891
 41
3.5
 42
3.5
 43
3.5
 50
180.0
  0
INSERT
  5
25D
100
AcDbEntity
  8
0
100
AcDbBlockReference
 62
2
  6
CONTINUOUS
  2
_FILLED
 10
173.1609907383
 20
220.677228891
 41
3.5
 42
3.5
 43
3.5
  0
ENDBLK
  5
25E
100
AcDbEntity
  8
0
  6
BYBLOCK
 62
0
100
AcDbBlockEnd
  0
BLOCK
  5
25F
100
AcDbEntity
  8
0
100
AcDbBlockBegin
 62
2
  6
CONTINUOUS
  2
*D4
 70
65
 10
0.0
 20
0.0
  3
*D4
  1

  0
MTEXT
  5
260
100
AcDbEntity
  8
0
100
AcDbMText
 62
5
  6
CONTINUOUS
  7
STANDARD
 71
2
 72
1
 10
144.6609907383
 20
231.052228891
 30
0.0
 11
1.0
 21
0.0
 31
0.0
 73
2
 44
0.9
  1
57[2.24] with HCAU-2S
 40
3.5
 41
38.6491803279
  0
LINE
  5
261
100
AcDbEntity
  8
0
100
AcDbLine
 62
2
  6
CONTINUOUS
 10
116.1609907383
 20
189.377228891
 11
116.1609907383
 21
228.177228891
  0
LINE
  5
262
100
AcDbEntity
  8
0
100
AcDbLine
 62
2
  6
CONTINUOUS
 10
173.1609907383
 20
181.727228891
 11
173.1609907383
 21
228.177228891
  0
LINE
  5
263
100
AcDbEntity
  8
0
100
AcDbLine
 62
2
  6
CONTINUOUS
 10
116.1609907383
 20
226.677228891
 11
144.6609907383
 21
226.677228891
  0
LINE
  5
264
100
AcDbEntity
  8
0
100
AcDbLine
 62
2
  6
CONTINUOUS
 10
173.1609907383
 20
226.677228891
 11
144.6609907383
 21
226.677228891
  0
INSERT
  5
265
100
AcDbEntity
  8
0
100
AcDbBlockReference
 62
2
  6
CONTINUOUS
  2
_FILLED
 10
116.1609907383
 20
226.677228891
 41
3.5
 42
3.5
 43
3.5
 50
180.0
  0
INSERT
  5
266
100
AcDbEntity
  8
0
100
AcDbBlockReference
 62
2
  6
CONTINUOUS
  2
_FILLED
 10
173.1609907383
 20
226.677228891
 41
3.5
 42
3.5
 43
3.5
  0
ENDBLK
  5
267
100
AcDbEntity
  8
0
  6
BYBLOCK
 62
0
100
AcDbBlockEnd
  0
BLOCK
  5
268
100
AcDbEntity
  8
0
100
AcDbBlockBegin
 62
2
  6
CONTINUOUS
  2
*D5
 70
65
 10
0.0
 20
0.0
  3
*D5
  1

  0
MTEXT
  5
269
100
AcDbEntity
  8
0
100
AcDbMText
 62
5
  6
CONTINUOUS
  7
TEXTSTYLE_2
 71
3
 72
1
 10
160.4129733074
 20
122.452228891
 30
0.0
 11
1.0
 21
0.0
 31
0.0
 73
2
 44
0.9
  1
{\fgdt;n}\fChangFangSong;4.5[0.18]
 40
3.5
 41
21.5355191257
  0
LINE
  5
26A
100
AcDbEntity
  8
0
100
AcDbLine
 62
2
  6
CONTINUOUS
 10
165.9109907383
 20
133.877228891
 11
165.9109907383
 21
116.577228891
  0
LINE
  5
26B
100
AcDbEntity
  8
0
100
AcDbLine
 62
2
  6
CONTINUOUS
 10
170.4109907383
 20
133.877228891
 11
170.4109907383
 21
116.577228891
  0
LINE
  5
26C
100
AcDbEntity
  8
0
100
AcDbLine
 62
2
  6
CONTINUOUS
 10
165.9109907383
 20
118.077228891
 11
138.8774541817
 21
118.077228891
  0
LINE
  5
26D
100
AcDbEntity
  8
0
100
AcDbLine
 62
2
  6
CONTINUOUS
 10
138.8774541817
 20
118.077228891
 11
168.1609907383
 21
118.077228891
  0
LINE
  5
26E
100
AcDbEntity
  8
0
100
AcDbLine
 62
2
  6
CONTINUOUS
 10
170.4109907383
 20
118.077228891
 11
175.4109907383
 21
118.077228891
  0
LINE
  5
26F
100
AcDbEntity
  8
0
100
AcDbLine
 62
2
  6
CONTINUOUS
 10
175.4109907383
 20
118.077228891
 11
168.1609907383
 21
118.077228891
  0
INSERT
  5
270
100
AcDbEntity
  8
0
100
AcDbBlockReference
 62
2
  6
CONTINUOUS
  2
_FILLED
 10
165.9109907383
 20
118.077228891
 41
3.5
 42
3.5
 43
3.5
  0
INSERT
  5
271
100
AcDbEntity
  8
0
100
AcDbBlockReference
 62
2
  6
CONTINUOUS
  2
_FILLED
 10
170.4109907383
 20
118.077228891
 41
3.5
 42
3.5
 43
3.5
 50
180.0
  0
ENDBLK
  5
272
100
AcDbEntity
  8
0
  6
BYBLOCK
 62
0
100
AcDbBlockEnd
  0
BLOCK
  5
273
100
AcDbEntity
  8
0
100
AcDbBlockBegin
 62
2
  6
CONTINUOUS
  2
*D6
 70
65
 10
0.0
 20
0.0
  3
*D6
  1

  0
MTEXT
  5
274
100
AcDbEntity
  8
0
100
AcDbMText
 62
5
  6
CONTINUOUS
  7
STANDARD
 71
2
 72
1
 10
289.6006970118
 20
225.052228891
 30
0.0
 11
1.0
 21
0.0
 31
0.0
 73
2
 44
0.9
  1
124.5[4.90] with HCAU-4N
 40
3.5
 41
44.4098360656
  0
LINE
  5
275
100
AcDbEntity
  8
0
100
AcDbLine
 62
2
  6
CONTINUOUS
 10
227.3506970118
 20
198.877228891
 11
227.3506970118
 21
222.177228891
  0
LINE
  5
276
100
AcDbEntity
  8
0
100
AcDbLine
 62
2
  6
CONTINUOUS
 10
351.8506970118
 20
180.9701221098
 11
351.8506970118
 21
222.177228891
  0
LINE
  5
277
100
AcDbEntity
  8
0
100
AcDbLine
 62
2
  6
CONTINUOUS
 10
227.3506970118
 20
220.677228891
 11
289.6006970118
 21
220.677228891
  0
LINE
  5
278
100
AcDbEntity
  8
0
100
AcDbLine
 62
2
  6
CONTINUOUS
 10
351.8506970118
 20
220.677228891
 11
289.6006970118
 21
220.677228891
  0
INSERT
  5
279
100
AcDbEntity
  8
0
100
AcDbBlockReference
 62
2
  6
CONTINUOUS
  2
_FILLED
 10
227.3506970118
 20
220.677228891
 41
3.5
 42
3.5
 43
3.5
 50
180.0
  0
INSERT
  5
27A
100
AcDbEntity
  8
0
100
AcDbBlockReference
 62
2
  6
CONTINUOUS
  2
_FILLED
 10
351.8506970118
 20
220.677228891
 41
3.5
 42
3.5
 43
3.5
  0
ENDBLK
  5
27B
100
AcDbEntity
  8
0
  6
BYBLOCK
 62
0
100
AcDbBlockEnd
  0
BLOCK
  5
27C
100
AcDbEntity
  8
0
100
AcDbBlockBegin
 62
2
  6
CONTINUOUS
  2
*D7
 70
65
 10
0.0
 20
0.0
  3
*D7
  1

  0
MTEXT
  5
27D
100
AcDbEntity
  8
0
100
AcDbMText
 62
5
  6
CONTINUOUS
  7
STANDARD
 71
2
 72
1
 10
212.9756970118
 20
166.377228891
 30
0.0
 11
0.0
 21
1.0
 31
0.0
 73
2
 44
0.9
  1
76.6[3.02]
 40
3.5
 41
18.5786885246
  0
LINE
  5
27E
100
AcDbEntity
  8
0
100
AcDbLine
 62
2
  6
CONTINUOUS
 10
259.6506970118
 20
204.677228891
 11
215.8506970118
 21
204.677228891
  0
LINE
  5
27F
100
AcDbEntity
  8
0
100
AcDbLine
 62
2
  6
CONTINUOUS
 10
260.1506970118
 20
128.077228891
 11
215.8506970118
 21
128.077228891
  0
LINE
  5
280
100
AcDbEntity
  8
0
100
AcDbLine
 62
2
  6
CONTINUOUS
 10
217.3506970118
 20
204.677228891
 11
217.3506970118
 21
166.377228891
  0
LINE
  5
281
100
AcDbEntity
  8
0
100
AcDbLine
 62
2
  6
CONTINUOUS
 10
217.3506970118
 20
128.077228891
 11
217.3506970118
 21
166.377228891
  0
INSERT
  5
282
100
AcDbEntity
  8
0
100
AcDbBlockReference
 62
2
  6
CONTINUOUS
  2
_FILLED
 10
217.3506970118
 20
204.677228891
 41
3.5
 42
3.5
 43
3.5
 50
90.0
  0
INSERT
  5
283
100
AcDbEntity
  8
0
100
AcDbBlockReference
 62
2
  6
CONTINUOUS
  2
_FILLED
 10
217.3506970118
 20
128.077228891
 41
3.5
 42
3.5
 43
3.5
 50
270.0
  0
ENDBLK
  5
284
100
AcDbEntity
  8
0
  6
BYBLOCK
 62
0
100
AcDbBlockEnd
  0
BLOCK
  5
285
100
AcDbEntity
  8
0
100
AcDbBlockBegin
 62
2
  6
CONTINUOUS
  2
*D8
 70
65
 10
0.0
 20
0.0
  3
*D8
  1

  0
MTEXT
  5
286
100
AcDbEntity
  8
0
100
AcDbMText
 62
5
  6
CONTINUOUS
  7
STANDARD
 71
2
 72
1
 10
270.8506970118
 20
219.052228891
 30
0.0
 11
1.0
 21
0.0
 31
0.0
 73
2
 44
0.9
  1
87[3.43]/89[3.50] with HCAC-2
 40
3.5
 41
54.1868852459
  0
LINE
  5
287
100
AcDbEntity
  8
0
100
AcDbLine
 62
2
  6
CONTINUOUS
 10
227.3506970118
 20
198.877228891
 11
227.3506970118
 21
216.177228891
  0
LINE
  5
288
100
AcDbEntity
  8
0
100
AcDbLine
 62
2
  6
CONTINUOUS
 10
314.3506970118
 20
180.9029173332
 11
314.3506970118
 21
216.177228891
  0
LINE
  5
289
100
AcDbEntity
  8
0
100
AcDbLine
 62
2
  6
CONTINUOUS
 10
227.3506970118
 20
214.677228891
 11
270.8506970118
 21
214.677228891
  0
LINE
  5
28A
100
AcDbEntity
  8
0
100
AcDbLine
 62
2
  6
CONTINUOUS
 10
314.3506970118
 20
214.677228891
 11
270.8506970118
 21
214.677228891
  0
INSERT
  5
28B
100
AcDbEntity
  8
0
100
AcDbBlockReference
 62
2
  6
CONTINUOUS
  2
_FILLED
 10
227.3506970118
 20
214.677228891
 41
3.5
 42
3.5
 43
3.5
 50
180.0
  0
INSERT
  5
28C
100
AcDbEntity
  8
0
100
AcDbBlockReference
 62
2
  6
CONTINUOUS
  2
_FILLED
 10
314.3506970118
 20
214.677228891
 41
3.5
 42
3.5
 43
3.5
  0
ENDBLK
  5
28D
100
AcDbEntity
  8
0
  6
BYBLOCK
 62
0
100
AcDbBlockEnd
  0
ENDSEC
  0
SECTION
  2
ENTITIES
  0
DIMENSION
  5
28E
100
AcDbEntity
  8
0
100
AcDbDimension
 62
2
  6
CONTINUOUS
  2
*D0
 10
183.1609907383
 20
140.377228891
 11
183.1609907383
 21
166.377228891
 70
160
 71
2
 72
2
 41
0.9
 42
52.0
  1
<>[2.05]
  3
DIMSTYLE_1
100
AcDbAlignedDimension
 13
172.1610907383
 23
192.377228891
 14
172.1610907383
 24
140.377228891
 50
270.0
100
AcDbRotatedDimension
  0
DIMENSION
  5
28F
100
AcDbEntity
  8
0
100
AcDbDimension
 62
2
  6
CONTINUOUS
  2
*D1
 10
189.1609907383
 20
133.877228891
 11
189.1609907383
 21
166.377228891
 70
160
 71
2
 72
2
 41
0.9
 42
65.0
  1
<>[2.56]
  3
DIMSTYLE_1
100
AcDbAlignedDimension
 13
172.1610907383
 23
198.877228891
 14
172.1610907383
 24
133.877228891
 50
270.0
100
AcDbRotatedDimension
  0
DIMENSION
  5
290
100
AcDbEntity
  8
0
100
AcDbDimension
 62
2
  6
CONTINUOUS
  2
*D2
 10
168.1609907383
 20
214.677228891
 11
150.6609907383
 21
214.677228891
 70
160
 71
2
 72
2
 41
0.9
 42
35.0
  1
<>[1.38]
  3
DIMSTYLE_1
100
AcDbAlignedDimension
 13
133.1609907383
 23
202.877328891
 14
168.1609907383
 24
202.877328891
100
AcDbRotatedDimension
  0
DIMENSION
  5
291
100
AcDbEntity
  8
0
100
AcDbDimension
 62
2
  6
CONTINUOUS
  2
*D3
 10
173.1609907383
 20
220.677228891
 11
150.6609907383
 21
220.677228891
 70
160
 71
2
 72
2
 41
0.9
 42
45.0
  1
<>[1.77]
  3
DIMSTYLE_1
100
AcDbAlignedDimension
 13
128.1609907383
 23
202.877228891
 14
173.1609907383
 24
202.877228891
100
AcDbRotatedDimension
  0
DIMENSION
  5
292
100
AcDbEntity
  8
0
100
AcDbDimension
 62
2
  6
CONTINUOUS
  2
*D4
 10
173.1609907383
 20
226.677228891
 11
144.6609907383
 21
226.677228891
 70
160
 71
2
 72
2
 41
0.9
 42
57.0
  1
<>[2.24] with HCAU-2S
  3
DIMSTYLE_2
100
AcDbAlignedDimension
 13
116.1609907383
 23
189.377228891
 14
173.1609907383
 24
181.727228891
100
AcDbRotatedDimension
  0
DIMENSION
  5
293
100
AcDbEntity
  8
0
100
AcDbDimension
 62
2
  6
CONTINUOUS
  2
*D5
 10
170.4109907383
 20
118.077228891
 11
149.6452137445
 21
118.077228891
 70
160
 71
3
 72
2
 41
0.9
 42
4.5
  1
%%c<>[0.18]
  3
DIMSTYLE_1
100
AcDbAlignedDimension
 13
165.9109907383
 23
133.877228891
 14
170.4109907383
 24
133.877228891
100
AcDbRotatedDimension
  0
DIMENSION
  5
294
100
AcDbEntity
  8
0
100
AcDbDimension
 62
2
  6
CONTINUOUS
  2
*D6
 10
351.8506970118
 20
220.677228891
 11
289.6006970118
 21
220.677228891
 70
160
 71
2
 72
2
 41
0.9
 42
124.5
  1
<>[4.90] with HCAU-4N
  3
DIMSTYLE_1
100
AcDbAlignedDimension
 13
227.3506970118
 23
198.877228891
 14
351.8506970118
 24
180.9701221098
100
AcDbRotatedDimension
  0
DIMENSION
  5
295
100
AcDbEntity
  8
0
100
AcDbDimension
 62
2
  6
CONTINUOUS
  2
*D7
 10
217.3506970118
 20
128.077228891
 11
217.3506970118
 21
166.377228891
 70
160
 71
2
 72
2
 41
0.9
 42
76.6
  1
<>[3.02]
  3
DIMSTYLE_1
100
AcDbAlignedDimension
 13
259.6506970118
 23
204.677228891
 14
260.1506970118
 24
128.077228891
 50
270.0
100
AcDbRotatedDimension
  0
DIMENSION
  5
296
100
AcDbEntity
  8
0
100
AcDbDimension
 62
2
  6
CONTINUOUS
  2
*D8
 10
314.3506970118
 20
214.677228891
 11
270.8506970118
 21
214.677228891
 70
160
 71
2
 72
2
 41
0.9
 42
87.0
  1
<>[3.43]/89[3.50] with HCAC-2
  3
DIMSTYLE_1
100
AcDbAlignedDimension
 13
227.3506970118
 23
198.877228891
 14
314.3506970118
 24
180.9029173332
100
AcDbRotatedDimension
  0
LINE
  5
297
100
AcDbEntity
  8
0
100
AcDbLine
 62
7
  6
CONTINUOUS
 10
163.1609907383
 20
128.077228891
 11
152.2609907383
 21
128.077228891
  0
LINE
  5
298
100
AcDbEntity
  8
0
100
AcDbLine
 62
7
  6
CONTINUOUS
 10
149.0609907383
 20
128.077228891
 11
138.1609907383
 21
128.077228891
  0
LINE
  5
299
100
AcDbEntity
  8
0
100
AcDbLine
 62
7
  6
CONTINUOUS
 10
149.7609907383
 20
128.077228891
 11
151.5609907383
 21
128.077228891
  0
LINE
  5
29A
100
AcDbEntity
  8
0
100
AcDbLine
 62
7
  6
CONTINUOUS
 10
121.4107691607
 20
192.8099109856
 11
121.3274272153
 21
192.710792414
  0
LINE
  5
29B
100
AcDbEntity
  8
0
100
AcDbLine
 62
7
  6
CONTINUOUS
 10
121.2283086437
 20
192.6274504686
 11
121.3274272153
 21
192.710792414
  0
LINE
  5
29C
100
AcDbEntity
  8
0
100
AcDbLine
 62
7
  6
CONTINUOUS
 10
170.1609907383
 20
128.877228891
 11
163.1609907383
 21
128.877228891
  0
LINE
  5
29D
100
AcDbEntity
  8
0
100
AcDbLine
 62
7
  6
CONTINUOUS
 10
162.6609907383
 20
128.877228891
 11
138.6609907383
 21
128.877228891
  0
LINE
  5
29E
100
AcDbEntity
  8
0
100
AcDbLine
 62
7
  6
CONTINUOUS
 10
131.1609907383
 20
128.877228891
 11
138.1609907383
 21
128.877228891
  0
LINE
  5
29F
100
AcDbEntity
  8
0
100
AcDbLine
 62
7
  6
CONTINUOUS
 10
172.6609907383
 20
129.377228891
 11
171.6609907383
 21
129.377228891
  0
LINE
  5
2A0
100
AcDbEntity
  8
0
100
AcDbLine
 62
7
  6
CONTINUOUS
 10
128.6609907383
 20
129.377228891
 11
131.2109907383
 21
129.377228891
  0
LINE
  5
2A1
100
AcDbEntity
  8
0
100
AcDbLine
 62
7
  6
CONTINUOUS
 10
117.6609907383
 20
130.777228891
 11
116.6609907383
 21
130.777228891
  0
LINE
  5
2A2
100
AcDbEntity
  8
0
100
AcDbLine
 62
7
  6
CONTINUOUS
 10
117.6609907383
 20
130.877228891
 11
123.1609907383
 21
130.877228891
  0
LINE
  5
2A3
100
AcDbEntity
  8
0
100
AcDbLine
 62
7
  6
CONTINUOUS
 10
129.6609907383
 20
131.3369634043
 11
129.4609907383
 21
131.3369634043
  0
LINE
  5
2A4
100
AcDbEntity
  8
0
100
AcDbLine
 62
7
  6
CONTINUOUS
 10
121.2283086437
 20
140.1270073134
 11
121.3274272153
 21
140.043665368
  0
LINE
  5
2A5
100
AcDbEntity
  8
0
100
AcDbLine
 62
7
  6
CONTINUOUS
 10
121.4107691607
 20
139.9445467965
 11
121.3274272153
 21
140.043665368
  0
LINE
  5
2A6
100
AcDbEntity
  8
0
100
AcDbLine
 62
7
  6
CONTINUOUS
 10
121.1120141513
 20
191.2042051822
 11
120.3225131072
 21
190.0387512599
  0
LINE
  5
2A7
100
AcDbEntity
  8
0
100
AcDbLine
 62
7
  6
CONTINUOUS
 10
123.2099673253
 20
192.5502525998
 11
123.9994683694
 21
193.7157065221
  0
LINE
  5
2A8
100
AcDbEntity
  8
0
100
AcDbLine
 62
7
  6
CONTINUOUS
 10
122.9112123159
 20
190.9445467965
 11
122.9945542613
 21
191.043665368
  0
LINE
  5
2A9
100
AcDbEntity
  8
0
100
AcDbLine
 62
7
  6
CONTINUOUS
 10
121.3274272153
 20
191.043665368
 11
120.3225131072
 21
190.0387512599
  0
LINE
  5
2AA
100
AcDbEntity
  8
0
100
AcDbLine
 62
7
  6
CONTINUOUS
 10
121.4107691607
 20
191.1270073134
 11
121.5609907383
 21
191.277228891
  0
LINE
  5
2AB
100
AcDbEntity
  8
0
100
AcDbLine
 62
7
  6
CONTINUOUS
 10
122.7609907383
 20
192.477228891
 11
122.9112123159
 21
192.6274504686
  0
LINE
  5
2AC
100
AcDbEntity
  8
0
100
AcDbLine
 62
7
  6
CONTINUOUS
 10
122.9945542613
 20
192.710792414
 11
123.9994683694
 21
193.7157065221
  0
LINE
  5
2AD
100
AcDbEntity
  8
0
100
AcDbLine
 62
7
  6
CONTINUOUS
 10
123.0936728328
 20
191.1270073134
 11
122.9945542613
 21
191.043665368
  0
LINE
  5
2AE
100
AcDbEntity
  8
0
100
AcDbLine
 62
7
  6
CONTINUOUS
 10
122.8340144471
 20
192.926205478
 11
123.9994683694
 21
193.7157065221
  0
LINE
  5
2AF
100
AcDbEntity
  8
0
100
AcDbLine
 62
7
  6
CONTINUOUS
 10
121.4879670295
 20
190.828252304
 11
120.3225131072
 21
190.0387512599
  0
LINE
  5
2B0
100
AcDbEntity
  8
0
100
AcDbLine
 62
7
  6
CONTINUOUS
 10
172.6609907383
 20
132.877228891
 11
171.6609907383
 21
132.877228891
  0
LINE
  5
2B1
100
AcDbEntity
  8
0
100
AcDbLine
 62
7
  6
CONTINUOUS
 10
129.6609907383
 20
132.877228891
 11
128.6609907383
 21
132.877228891
  0
LINE
  5
2B2
100
AcDbEntity
  8
0
100
AcDbLine
 62
7
  6
CONTINUOUS
 10
137.7109907383
 20
132.877228891
 11
141.0609907383
 21
132.877228891
  0
LINE
  5
2B3
100
AcDbEntity
  8
0
100
AcDbLine
 62
7
  6
CONTINUOUS
 10
148.5109907383
 20
132.877228891
 11
152.8109907383
 21
132.877228891
  0
LINE
  5
2B4
100
AcDbEntity
  8
0
100
AcDbLine
 62
7
  6
CONTINUOUS
 10
160.2609907383
 20
132.877228891
 11
163.1609907383
 21
132.877228891
  0
LINE
  5
2B5
100
AcDbEntity
  8
0
100
AcDbLine
 62
7
  6
CONTINUOUS
 10
155.0093787015
 20
132.977228891
 11
154.7944934167
 21
132.977228891
  0
LINE
  5
2B6
100
AcDbEntity
  8
0
100
AcDbLine
 62
7
  6
CONTINUOUS
 10
146.5274880598
 20
132.977228891
 11
146.312602775
 21
132.977228891
  0
LINE
  5
2B7
100
AcDbEntity
  8
DEFAULT_1
100
AcDbLine
 62
2
  6
CENTER
 10
131.2109907383
 20
133.877228891
 11
129.1608907383
 21
133.877228891
  0
LINE
  5
2B8
100
AcDbEntity
  8
0
100
AcDbLine
 62
7
  6
CONTINUOUS
 10
131.2109907383
 20
133.877228891
 11
137.7109907383
 21
133.877228891
  0
LINE
  5
2B9
100
AcDbEntity
  8
DEFAULT_1
100
AcDbLine
 62
2
  6
CENTER
 10
171.6609907383
 20
133.877228891
 11
172.1610907383
 21
133.877228891
  0
LINE
  5
2BA
100
AcDbEntity
  8
0
100
AcDbLine
 62
7
  6
CONTINUOUS
 10
162.0609907383
 20
133.877228891
 11
171.6609907383
 21
133.877228891
  0
LINE
  5
2BB
100
AcDbEntity
  8
0
100
AcDbLine
 62
7
  6
CONTINUOUS
 10
160.2609907383
 20
133.937228891
 11
158.1009907383
 21
133.937228891
  0
LINE
  5
2BC
100
AcDbEntity
  8
0
100
AcDbLine
 62
7
  6
CONTINUOUS
 10
146.5755575843
 20
133.937228891
 11
144.1009907383
 21
133.937228891
  0
LINE
  5
2BD
100
AcDbEntity
  8
0
100
AcDbLine
 62
7
  6
CONTINUOUS
 10
141.0609907383
 20
133.937228891
 11
143.2209907383
 21
133.937228891
  0
LINE
  5
2BE
100
AcDbEntity
  8
0
100
AcDbLine
 62
7
  6
CONTINUOUS
 10
154.7464238923
 20
133.937228891
 11
157.2209907383
 21
133.937228891
  0
LINE
  5
2BF
100
AcDbEntity
  8
0
100
AcDbLine
 62
7
  6
CONTINUOUS
 10
141.1101533619
 20
134.817228891
 11
143.2209907383
 21
134.817228891
  0
LINE
  5
2C0
100
AcDbEntity
  8
0
100
AcDbLine
 62
7
  6
CONTINUOUS
 10
144.1009907383
 20
134.817228891
 11
146.5755575843
 21
134.817228891
  0
LINE
  5
2C1
100
AcDbEntity
  8
0
100
AcDbLine
 62
7
  6
CONTINUOUS
 10
154.7464238923
 20
134.817228891
 11
157.2209907383
 21
134.817228891
  0
LINE
  5
2C2
100
AcDbEntity
  8
0
100
AcDbLine
 62
7
  6
CONTINUOUS
 10
158.1009907383
 20
134.817228891
 11
160.2118281157
 21
134.817228891
  0
LINE
  5
2C3
100
AcDbEntity
  8
0
100
AcDbLine
 62
7
  6
CONTINUOUS
 10
127.6609907383
 20
134.877228891
 11
117.6609907383
 21
134.877228891
  0
LINE
  5
2C4
100
AcDbEntity
  8
0
100
AcDbLine
 62
7
  6
CONTINUOUS
 10
122.8340144471
 20
139.828252304
 11
123.9994683694
 21
139.0387512599
  0
LINE
  5
2C5
100
AcDbEntity
  8
0
100
AcDbLine
 62
7
  6
CONTINUOUS
 10
121.4879670295
 20
141.926205478
 11
120.3225131072
 21
142.7157065221
  0
LINE
  5
2C6
100
AcDbEntity
  8
0
100
AcDbLine
 62
7
  6
CONTINUOUS
 10
123.0936728328
 20
141.6274504686
 11
122.9945542613
 21
141.710792414
  0
LINE
  5
2C7
100
AcDbEntity
  8
0
100
AcDbLine
 62
7
  6
CONTINUOUS
 10
122.9945542613
 20
140.043665368
 11
123.9994683694
 21
139.0387512599
  0
LINE
  5
2C8
100
AcDbEntity
  8
0
100
AcDbLine
 62
7
  6
CONTINUOUS
 10
122.9112123159
 20
140.1270073134
 11
122.7609907383
 21
140.277228891
  0
LINE
  5
2C9
100
AcDbEntity
  8
0
100
AcDbLine
 62
7
  6
CONTINUOUS
 10
121.5609907383
 20
141.477228891
 11
121.4107691607
 21
141.6274504686
  0
LINE
  5
2CA
100
AcDbEntity
  8
0
100
AcDbLine
 62
7
  6
CONTINUOUS
 10
121.3274272153
 20
141.710792414
 11
120.3225131072
 21
142.7157065221
  0
LINE
  5
2CB
100
AcDbEntity
  8
0
100
AcDbLine
 62
7
  6
CONTINUOUS
 10
122.9112123159
 20
141.8099109856
 11
122.9945542613
 21
141.710792414
  0
LINE
  5
2CC
100
AcDbEntity
  8
0
100
AcDbLine
 62
7
  6
CONTINUOUS
 10
121.1120141513
 20
141.5502525998
 11
120.3225131072
 21
142.7157065221
  0
LINE
  5
2CD
100
AcDbEntity
  8
0
100
AcDbLine
 62
7
  6
CONTINUOUS
 10
123.2099673253
 20
140.2042051822
 11
123.9994683694
 21
139.0387512599
  0
LINE
  5
2CE
100
AcDbEntity
  8
0
100
AcDbLine
 62
7
  6
CONTINUOUS
 10
116.1609907383
 20
131.277228891
 11
116.1609907383
 21
201.477228891
  0
LINE
  5
2CF
100
AcDbEntity
  8
0
100
AcDbLine
 62
7
  6
CONTINUOUS
 10
131.3609907383
 20
135.077228891
 11
137.7109907383
 21
135.077228891
  0
LINE
  5
2D0
100
AcDbEntity
  8
0
100
AcDbLine
 62
7
  6
CONTINUOUS
 10
163.3609907383
 20
135.077228891
 11
169.9609907383
 21
135.077228891
  0
LINE
  5
2D1
100
AcDbEntity
  8
0
100
AcDbLine
 62
7
  6
CONTINUOUS
 10
162.1609907383
 20
135.177228891
 11
171.5609907383
 21
135.177228891
  0
LINE
  5
2D2
100
AcDbEntity
  8
0
100
AcDbLine
 62
7
  6
CONTINUOUS
 10
162.9609907383
 20
135.6827011819
 11
170.7609907383
 21
135.6827011819
  0
LINE
  5
2D3
100
AcDbEntity
  8
0
100
AcDbLine
 62
7
  6
CONTINUOUS
 10
146.312602775
 20
135.777228891
 11
146.5274880598
 21
135.777228891
  0
LINE
  5
2D4
100
AcDbEntity
  8
0
100
AcDbLine
 62
7
  6
CONTINUOUS
 10
154.7944934167
 20
135.777228891
 11
155.0093787015
 21
135.777228891
  0
LINE
  5
2D5
100
AcDbEntity
  8
0
100
AcDbLine
 62
7
  6
CONTINUOUS
 10
171.6609907383
 20
135.877228891
 11
171.5609907383
 21
135.877228891
  0
LINE
  5
2D6
100
AcDbEntity
  8
0
100
AcDbLine
 62
7
  6
CONTINUOUS
 10
162.1609907383
 20
135.877228891
 11
162.0609907383
 21
135.877228891
  0
LINE
  5
2D7
100
AcDbEntity
  8
0
100
AcDbLine
 62
7
  6
CONTINUOUS
 10
131.2109907383
 20
135.877228891
 11
137.7109907383
 21
135.877228891
  0
LINE
  5
2D8
100
AcDbEntity
  8
0
100
AcDbLine
 62
7
  6
CONTINUOUS
 10
124.1609920627
 20
137.377228891
 11
120.1609903577
 21
137.377228891
  0
LINE
  5
2D9
100
AcDbEntity
  8
0
100
AcDbLine
 62
7
  6
CONTINUOUS
 10
129.7609907383
 20
137.377228891
 11
162.0609907383
 21
137.377228891
  0
LINE
  5
2DA
100
AcDbEntity
  8
0
100
AcDbLine
 62
7
  6
CONTINUOUS
 10
129.7609907383
 20
137.877228891
 11
129.6609907383
 21
137.877228891
  0
LINE
  5
2DB
100
AcDbEntity
  8
0
100
AcDbLine
 62
7
  6
CONTINUOUS
 10
117.6609907383
 20
177.277228891
 11
117.6609907383
 21
155.477228891
  0
LINE
  5
2DC
100
AcDbEntity
  8
0
100
AcDbLine
 62
7
  6
CONTINUOUS
 10
117.6609907383
 20
130.777228891
 11
117.6609907383
 21
135.377228891
  0
LINE
  5
2DD
100
AcDbEntity
  8
0
100
AcDbLine
 62
7
  6
CONTINUOUS
 10
117.6609907383
 20
139.377228891
 11
117.6609907383
 21
145.877228891
  0
LINE
  5
2DE
100
AcDbEntity
  8
0
100
AcDbLine
 62
7
  6
CONTINUOUS
 10
117.6609907383
 20
186.877228891
 11
117.6609907383
 21
193.377228891
  0
LINE
  5
2DF
100
AcDbEntity
  8
0
100
AcDbLine
 62
7
  6
CONTINUOUS
 10
117.6609907383
 20
197.377228891
 11
117.6609907383
 21
201.977228891
  0
LINE
  5
2E0
100
AcDbEntity
  8
0
100
AcDbLine
 62
7
  6
CONTINUOUS
 10
118.6609907383
 20
183.377228891
 11
118.6609907383
 21
177.3883400021
  0
LINE
  5
2E1
100
AcDbEntity
  8
0
100
AcDbLine
 62
7
  6
CONTINUOUS
 10
118.6609907383
 20
138.8772277154
 11
118.6609907383
 21
142.8772292716
  0
LINE
  5
2E2
100
AcDbEntity
  8
0
100
AcDbLine
 62
7
  6
CONTINUOUS
 10
118.6609907383
 20
149.377228891
 11
118.6609907383
 21
155.3661177799
  0
LINE
  5
2E3
100
AcDbEntity
  8
0
100
AcDbLine
 62
7
  6
CONTINUOUS
 10
118.6609907383
 20
155.4661177799
 11
118.6609907383
 21
177.2883400021
  0
LINE
  5
2E4
100
AcDbEntity
  8
0
100
AcDbLine
 62
7
  6
CONTINUOUS
 10
118.6609907383
 20
189.8772285105
 11
118.6609907383
 21
193.8772300666
  0
LINE
  5
2E5
100
AcDbEntity
  8
0
100
AcDbLine
 62
7
  6
CONTINUOUS
 10
121.1120141513
 20
180.7042051822
 11
120.3225131072
 21
179.5387512599
  0
LINE
  5
2E6
100
AcDbEntity
  8
0
100
AcDbLine
 62
7
  6
CONTINUOUS
 10
123.2099673253
 20
182.0502525998
 11
123.9994683694
 21
183.2157065221
  0
LINE
  5
2E7
100
AcDbEntity
  8
0
100
AcDbLine
 62
7
  6
CONTINUOUS
 10
121.4107691607
 20
182.3099109856
 11
121.3274272153
 21
182.210792414
  0
LINE
  5
2E8
100
AcDbEntity
  8
0
100
AcDbLine
 62
7
  6
CONTINUOUS
 10
122.9112123159
 20
180.4445467965
 11
122.9945542613
 21
180.543665368
  0
LINE
  5
2E9
100
AcDbEntity
  8
0
100
AcDbLine
 62
7
  6
CONTINUOUS
 10
121.3274272153
 20
180.543665368
 11
120.3225131072
 21
179.5387512599
  0
LINE
  5
2EA
100
AcDbEntity
  8
0
100
AcDbLine
 62
7
  6
CONTINUOUS
 10
121.4107691607
 20
180.6270073134
 11
121.5609907383
 21
180.777228891
  0
LINE
  5
2EB
100
AcDbEntity
  8
0
100
AcDbLine
 62
7
  6
CONTINUOUS
 10
122.7609907383
 20
181.977228891
 11
122.9112123159
 21
182.1274504686
  0
LINE
  5
2EC
100
AcDbEntity
  8
0
100
AcDbLine
 62
7
  6
CONTINUOUS
 10
122.9945542613
 20
182.210792414
 11
123.9994683694
 21
183.2157065221
  0
LINE
  5
2ED
100
AcDbEntity
  8
0
100
AcDbLine
 62
7
  6
CONTINUOUS
 10
121.2283086437
 20
182.1274504686
 11
121.3274272153
 21
182.210792414
  0
LINE
  5
2EE
100
AcDbEntity
  8
0
100
AcDbLine
 62
7
  6
CONTINUOUS
 10
122.8340144471
 20
182.426205478
 11
123.9994683694
 21
183.2157065221
  0
LINE
  5
2EF
100
AcDbEntity
  8
0
100
AcDbLine
 62
7
  6
CONTINUOUS
 10
169.7327656633
 20
138.877228891
 11
169.512602775
 21
138.877228891
  0
LINE
  5
2F0
100
AcDbEntity
  8
0
100
AcDbLine
 62
7
  6
CONTINUOUS
 10
164.2093787015
 20
138.877228891
 11
163.9892635947
 21
138.877228891
  0
LINE
  5
2F1
100
AcDbEntity
  8
0
100
AcDbLine
 62
7
  6
CONTINUOUS
 10
122.7609907383
 20
138.877228891
 11
121.5609907383
 21
138.877228891
  0
LINE
  5
2F2
100
AcDbEntity
  8
0
100
AcDbLine
 62
7
  6
CONTINUOUS
 10
129.7609907383
 20
139.077228891
 11
129.6609907383
 21
139.077228891
  0
LINE
  5
2F3
100
AcDbEntity
  8
0
100
AcDbLine
 62
7
  6
CONTINUOUS
 10
119.6092851498
 20
139.127228891
 11
119.7263189375
 21
139.127228891
  0
LINE
  5
2F4
100
AcDbEntity
  8
0
100
AcDbLine
 62
7
  6
CONTINUOUS
 10
124.595662539
 20
139.127228891
 11
124.7065280685
 21
139.127228891
  0
LINE
  5
2F5
100
AcDbEntity
  8
0
100
AcDbLine
 62
7
  6
CONTINUOUS
 10
127.6609907383
 20
139.377228891
 11
126.6609907383
 21
139.377228891
  0
LINE
  5
2F6
100
AcDbEntity
  8
0
100
AcDbLine
 62
7
  6
CONTINUOUS
 10
117.6609907383
 20
139.377228891
 11
116.1609907383
 21
139.377228891
  0
LINE
  5
2F7
100
AcDbEntity
  8
0
100
AcDbLine
 62
7
  6
CONTINUOUS
 10
169.7755575843
 20
139.837228891
 11
167.3009907383
 21
139.837228891
  0
LINE
  5
2F8
100
AcDbEntity
  8
0
100
AcDbLine
 62
7
  6
CONTINUOUS
 10
163.9464238923
 20
139.837228891
 11
166.4209907383
 21
139.837228891
  0
LINE
  5
2F9
100
AcDbEntity
  8
0
100
AcDbLine
 62
7
  6
CONTINUOUS
 10
119.2679510072
 20
140.277228891
 11
121.2331260424
 21
140.277228891
  0
LINE
  5
2FA
100
AcDbEntity
  8
0
100
AcDbLine
 62
7
  6
CONTINUOUS
 10
121.5609907383
 20
140.277228891
 11
122.7609907383
 21
140.277228891
  0
LINE
  5
2FB
100
AcDbEntity
  8
0
100
AcDbLine
 62
7
  6
CONTINUOUS
 10
123.0888554342
 20
140.277228891
 11
125.0540304694
 21
140.277228891
  0
LINE
  5
2FC
100
AcDbEntity
  8
DEFAULT_1
100
AcDbLine
 62
2
  6
CENTER
 10
168.1609907383
 20
140.377228891
 11
164.1608907383
 21
140.377228891
  0
LINE
  5
2FD
100
AcDbEntity
  8
DEFAULT_1
100
AcDbLine
 62
2
  6
CENTER
 10
133.1609907383
 20
140.377228891
 11
129.1608907383
 21
140.377228891
  0
LINE
  5
2FE
100
AcDbEntity
  8
DEFAULT_1
100
AcDbLine
 62
2
  6
CENTER
 10
133.1609907383
 20
140.377228891
 11
137.1610907383
 21
140.377228891
  0
LINE
  5
2FF
100
AcDbEntity
  8
DEFAULT_1
100
AcDbLine
 62
2
  6
CENTER
 10
168.1609907383
 20
140.377228891
 11
172.1610907383
 21
140.377228891
  0
LINE
  5
300
100
AcDbEntity
  8
0
100
AcDbLine
 62
7
  6
CONTINUOUS
 10
163.9464238923
 20
140.717228891
 11
166.4209907383
 21
140.717228891
  0
LINE
  5
301
100
AcDbEntity
  8
0
100
AcDbLine
 62
7
  6
CONTINUOUS
 10
167.3009907383
 20
140.717228891
 11
169.7755575843
 21
140.717228891
  0
LINE
  5
302
100
AcDbEntity
  8
0
100
AcDbLine
 62
7
  6
CONTINUOUS
 10
162.1609907383
 20
140.877228891
 11
162.0609907383
 21
140.877228891
  0
LINE
  5
303
100
AcDbEntity
  8
0
100
AcDbLine
 62
7
  6
CONTINUOUS
 10
122.8340144471
 20
150.328252304
 11
123.9994683694
 21
149.5387512599
  0
LINE
  5
304
100
AcDbEntity
  8
0
100
AcDbLine
 62
7
  6
CONTINUOUS
 10
121.2283086437
 20
150.6270073134
 11
121.3274272153
 21
150.543665368
  0
LINE
  5
305
100
AcDbEntity
  8
0
100
AcDbLine
 62
7
  6
CONTINUOUS
 10
122.9945542613
 20
150.543665368
 11
123.9994683694
 21
149.5387512599
  0
LINE
  5
306
100
AcDbEntity
  8
0
100
AcDbLine
 62
7
  6
CONTINUOUS
 10
122.9112123159
 20
150.6270073134
 11
122.7609907383
 21
150.777228891
  0
LINE
  5
307
100
AcDbEntity
  8
0
100
AcDbLine
 62
7
  6
CONTINUOUS
 10
121.5609907383
 20
151.977228891
 11
121.4107691607
 21
152.1274504686
  0
LINE
  5
308
100
AcDbEntity
  8
0
100
AcDbLine
 62
7
  6
CONTINUOUS
 10
121.3274272153
 20
152.210792414
 11
120.3225131072
 21
153.2157065221
  0
LINE
  5
309
100
AcDbEntity
  8
0
100
AcDbLine
 62
7
  6
CONTINUOUS
 10
121.4107691607
 20
150.4445467965
 11
121.3274272153
 21
150.543665368
  0
LINE
  5
30A
100
AcDbEntity
  8
0
100
AcDbLine
 62
7
  6
CONTINUOUS
 10
122.9112123159
 20
152.3099109856
 11
122.9945542613
 21
152.210792414
  0
LINE
  5
30B
100
AcDbEntity
  8
0
100
AcDbLine
 62
7
  6
CONTINUOUS
 10
121.1120141513
 20
152.0502525998
 11
120.3225131072
 21
153.2157065221
  0
LINE
  5
30C
100
AcDbEntity
  8
0
100
AcDbLine
 62
7
  6
CONTINUOUS
 10
123.2099673253
 20
150.7042051822
 11
123.9994683694
 21
149.5387512599
  0
LINE
  5
30D
100
AcDbEntity
  8
0
100
AcDbLine
 62
7
  6
CONTINUOUS
 10
120.1972331275
 20
194.2699672616
 11
120.1972331275
 21
194.1385261705
  0
LINE
  5
30E
100
AcDbEntity
  8
0
100
AcDbLine
 62
7
  6
CONTINUOUS
 10
120.1972331275
 20
189.6159316115
 11
120.1972331275
 21
189.4844905204
  0
LINE
  5
30F
100
AcDbEntity
  8
0
100
AcDbLine
 62
7
  6
CONTINUOUS
 10
120.1972331275
 20
183.7699672616
 11
120.1972331275
 21
183.6385261705
  0
LINE
  5
310
100
AcDbEntity
  8
0
100
AcDbLine
 62
7
  6
CONTINUOUS
 10
120.1972331275
 20
179.1159316115
 11
120.1972331275
 21
178.9844905204
  0
LINE
  5
311
100
AcDbEntity
  8
0
100
AcDbLine
 62
7
  6
CONTINUOUS
 10
120.1972331275
 20
153.7699672616
 11
120.1972331275
 21
153.6385261705
  0
LINE
  5
312
100
AcDbEntity
  8
0
100
AcDbLine
 62
7
  6
CONTINUOUS
 10
120.1972331275
 20
149.1159316115
 11
120.1972331275
 21
148.9844905204
  0
LINE
  5
313
100
AcDbEntity
  8
0
100
AcDbLine
 62
7
  6
CONTINUOUS
 10
120.1972331275
 20
143.2699672616
 11
120.1972331275
 21
143.1385261705
  0
LINE
  5
314
100
AcDbEntity
  8
0
100
AcDbLine
 62
7
  6
CONTINUOUS
 10
120.1972331275
 20
138.6159316115
 11
120.1972331275
 21
138.4844905204
  0
LINE
  5
315
100
AcDbEntity
  8
0
100
AcDbLine
 62
7
  6
CONTINUOUS
 10
120.9115460882
 20
181.977228891
 11
120.9115460882
 21
180.777228891
  0
LINE
  5
316
100
AcDbEntity
  8
0
100
AcDbLine
 62
7
  6
CONTINUOUS
 10
120.9115460882
 20
141.477228891
 11
120.9115460882
 21
140.277228891
  0
LINE
  5
317
100
AcDbEntity
  8
0
100
AcDbLine
 62
7
  6
CONTINUOUS
 10
120.9115460882
 20
150.777228891
 11
120.9115460882
 21
151.977228891
  0
LINE
  5
318
100
AcDbEntity
  8
0
100
AcDbLine
 62
7
  6
CONTINUOUS
 10
120.9115460882
 20
191.277228891
 11
120.9115460882
 21
192.477228891
  0
LINE
  5
319
100
AcDbEntity
  8
0
100
AcDbLine
 62
7
  6
CONTINUOUS
 10
121.5609907383
 20
192.477228891
 11
121.5609907383
 21
191.277228891
  0
LINE
  5
31A
100
AcDbEntity
  8
0
100
AcDbLine
 62
7
  6
CONTINUOUS
 10
121.5609907383
 20
183.377228891
 11
121.5609907383
 21
182.3050935869
  0
LINE
  5
31B
100
AcDbEntity
  8
0
100
AcDbLine
 62
7
  6
CONTINUOUS
 10
121.5609907383
 20
181.977228891
 11
121.5609907383
 21
180.777228891
  0
LINE
  5
31C
100
AcDbEntity
  8
0
100
AcDbLine
 62
7
  6
CONTINUOUS
 10
121.5609907383
 20
180.4493641951
 11
121.5609907383
 21
179.377228891
  0
LINE
  5
31D
100
AcDbEntity
  8
0
100
AcDbLine
 62
7
  6
CONTINUOUS
 10
121.5609907383
 20
151.977228891
 11
121.5609907383
 21
150.777228891
  0
LINE
  5
31E
100
AcDbEntity
  8
0
100
AcDbLine
 62
7
  6
CONTINUOUS
 10
121.5609907383
 20
142.877228891
 11
121.5609907383
 21
141.8050935869
  0
LINE
  5
31F
100
AcDbEntity
  8
0
100
AcDbLine
 62
7
  6
CONTINUOUS
 10
121.5609907383
 20
141.477228891
 11
121.5609907383
 21
140.277228891
  0
LINE
  5
320
100
AcDbEntity
  8
0
100
AcDbLine
 62
7
  6
CONTINUOUS
 10
121.5609907383
 20
139.9493641951
 11
121.5609907383
 21
138.877228891
  0
LINE
  5
321
100
AcDbEntity
  8
0
100
AcDbLine
 62
7
  6
CONTINUOUS
 10
121.5609907383
 20
149.377228891
 11
121.5609907383
 21
150.4493641951
  0
LINE
  5
322
100
AcDbEntity
  8
0
100
AcDbLine
 62
7
  6
CONTINUOUS
 10
121.5609907383
 20
152.3050935869
 11
121.5609907383
 21
153.377228891
  0
LINE
  5
323
100
AcDbEntity
  8
0
100
AcDbLine
 62
7
  6
CONTINUOUS
 10
121.5609907383
 20
189.877228891
 11
121.5609907383
 21
190.9493641951
  0
LINE
  5
324
100
AcDbEntity
  8
0
100
AcDbLine
 62
7
  6
CONTINUOUS
 10
121.5609907383
 20
192.8050935869
 11
121.5609907383
 21
193.877228891
  0
LINE
  5
325
100
AcDbEntity
  8
0
100
AcDbLine
 62
7
  6
CONTINUOUS
 10
122.1609907383
 20
197.877228891
 11
122.1609907383
 21
194.977228891
  0
LINE
  5
326
100
AcDbEntity
  8
0
100
AcDbLine
 62
7
  6
CONTINUOUS
 10
122.1609907383
 20
188.777228891
 11
122.1609907383
 21
188.177228891
  0
LINE
  5
327
100
AcDbEntity
  8
0
100
AcDbLine
 62
7
  6
CONTINUOUS
 10
122.1609907383
 20
187.377228891
 11
122.1609907383
 21
184.477228891
  0
LINE
  5
328
100
AcDbEntity
  8
0
100
AcDbLine
 62
7
  6
CONTINUOUS
 10
122.1609907383
 20
148.277228891
 11
122.1609907383
 21
145.377228891
  0
LINE
  5
329
100
AcDbEntity
  8
0
100
AcDbLine
 62
7
  6
CONTINUOUS
 10
122.1609907383
 20
144.577228891
 11
122.1609907383
 21
143.977228891
  0
LINE
  5
32A
100
AcDbEntity
  8
0
100
AcDbLine
 62
7
  6
CONTINUOUS
 10
122.1609907383
 20
137.777228891
 11
122.1609907383
 21
134.877228891
  0
LINE
  5
32B
100
AcDbEntity
  8
0
100
AcDbLine
 62
7
  6
CONTINUOUS
 10
122.1609907383
 20
154.477228891
 11
122.1609907383
 21
155.077228891
  0
LINE
  5
32C
100
AcDbEntity
  8
0
100
AcDbLine
 62
7
  6
CONTINUOUS
 10
122.1609907383
 20
177.677228891
 11
122.1609907383
 21
178.277228891
  0
LINE
  5
32D
100
AcDbEntity
  8
0
100
AcDbLine
 62
7
  6
CONTINUOUS
 10
122.7609907383
 20
138.877228891
 11
122.7609907383
 21
139.9493641951
  0
LINE
  5
32E
100
AcDbEntity
  8
0
100
AcDbLine
 62
7
  6
CONTINUOUS
 10
122.7609907383
 20
140.277228891
 11
122.7609907383
 21
141.477228891
  0
LINE
  5
32F
100
AcDbEntity
  8
0
100
AcDbLine
 62
7
  6
CONTINUOUS
 10
122.7609907383
 20
141.8050935869
 11
122.7609907383
 21
142.877228891
  0
LINE
  5
330
100
AcDbEntity
  8
0
100
AcDbLine
 62
7
  6
CONTINUOUS
 10
122.7609907383
 20
149.377228891
 11
122.7609907383
 21
150.4493641951
  0
LINE
  5
331
100
AcDbEntity
  8
0
100
AcDbLine
 62
7
  6
CONTINUOUS
 10
122.7609907383
 20
150.777228891
 11
122.7609907383
 21
151.977228891
  0
LINE
  5
332
100
AcDbEntity
  8
0
100
AcDbLine
 62
7
  6
CONTINUOUS
 10
122.7609907383
 20
152.3050935869
 11
122.7609907383
 21
153.377228891
  0
LINE
  5
333
100
AcDbEntity
  8
0
100
AcDbLine
 62
7
  6
CONTINUOUS
 10
122.7609907383
 20
179.377228891
 11
122.7609907383
 21
180.4493641951
  0
LINE
  5
334
100
AcDbEntity
  8
0
100
AcDbLine
 62
7
  6
CONTINUOUS
 10
122.7609907383
 20
180.777228891
 11
122.7609907383
 21
181.977228891
  0
LINE
  5
335
100
AcDbEntity
  8
0
100
AcDbLine
 62
7
  6
CONTINUOUS
 10
122.7609907383
 20
182.3050935869
 11
122.7609907383
 21
183.377228891
  0
LINE
  5
336
100
AcDbEntity
  8
0
100
AcDbLine
 62
7
  6
CONTINUOUS
 10
122.7609907383
 20
189.877228891
 11
122.7609907383
 21
190.9493641951
  0
LINE
  5
337
100
AcDbEntity
  8
0
100
AcDbLine
 62
7
  6
CONTINUOUS
 10
122.7609907383
 20
191.277228891
 11
122.7609907383
 21
192.477228891
  0
LINE
  5
338
100
AcDbEntity
  8
0
100
AcDbLine
 62
7
  6
CONTINUOUS
 10
122.7609907383
 20
192.8050935869
 11
122.7609907383
 21
193.877228891
  0
LINE
  5
339
100
AcDbEntity
  8
0
100
AcDbLine
 62
7
  6
CONTINUOUS
 10
123.0936728328
 20
180.6270073134
 11
122.9945542613
 21
180.543665368
  0
LINE
  5
33A
100
AcDbEntity
  8
0
100
AcDbLine
 62
7
  6
CONTINUOUS
 10
121.4879670295
 20
180.328252304
 11
120.3225131072
 21
179.5387512599
  0
LINE
  5
33B
100
AcDbEntity
  8
0
100
AcDbLine
 62
7
  6
CONTINUOUS
 10
122.7609907383
 20
141.477228891
 11
121.5609907383
 21
141.477228891
  0
LINE
  5
33C
100
AcDbEntity
  8
0
100
AcDbLine
 62
7
  6
CONTINUOUS
 10
119.2679510072
 20
141.477228891
 11
121.2331260424
 21
141.477228891
  0
LINE
  5
33D
100
AcDbEntity
  8
0
100
AcDbLine
 62
7
  6
CONTINUOUS
 10
123.0888554342
 20
141.477228891
 11
125.0540304694
 21
141.477228891
  0
LINE
  5
33E
100
AcDbEntity
  8
0
100
AcDbLine
 62
7
  6
CONTINUOUS
 10
163.9892158155
 20
141.677228891
 11
164.2093787015
 21
141.677228891
  0
LINE
  5
33F
100
AcDbEntity
  8
0
100
AcDbLine
 62
7
  6
CONTINUOUS
 10
169.512602775
 20
141.677228891
 11
169.7327178841
 21
141.677228891
  0
LINE
  5
340
100
AcDbEntity
  8
0
100
AcDbLine
 62
7
  6
CONTINUOUS
 10
124.7065280685
 20
142.627228891
 11
124.595662539
 21
142.627228891
  0
LINE
  5
341
100
AcDbEntity
  8
0
100
AcDbLine
 62
7
  6
CONTINUOUS
 10
119.7263189375
 20
142.627228891
 11
119.6092851498
 21
142.627228891
  0
LINE
  5
342
100
AcDbEntity
  8
0
100
AcDbLine
 62
7
  6
CONTINUOUS
 10
122.7609907383
 20
142.877228891
 11
121.5609907383
 21
142.877228891
  0
LINE
  5
343
100
AcDbEntity
  8
0
100
AcDbLine
 62
7
  6
CONTINUOUS
 10
129.7609907383
 20
143.377228891
 11
129.6609907383
 21
143.377228891
  0
LINE
  5
344
100
AcDbEntity
  8
0
100
AcDbLine
 62
7
  6
CONTINUOUS
 10
162.0609907383
 20
143.477228891
 11
171.6609907383
 21
143.477228891
  0
LINE
  5
345
100
AcDbEntity
  8
0
100
AcDbLine
 62
7
  6
CONTINUOUS
 10
158.8861954536
 20
143.877228891
 11
158.6517914279
 21
143.877228891
  0
LINE
  5
346
100
AcDbEntity
  8
0
100
AcDbLine
 62
7
  6
CONTINUOUS
 10
153.4701900487
 20
143.877228891
 11
153.2353434484
 21
143.877228891
  0
LINE
  5
347
100
AcDbEntity
  8
0
100
AcDbLine
 62
7
  6
CONTINUOUS
 10
148.0861252785
 20
143.877228891
 11
147.8517914279
 21
143.877228891
  0
LINE
  5
348
100
AcDbEntity
  8
0
100
AcDbLine
 62
7
  6
CONTINUOUS
 10
142.6701900487
 20
143.877228891
 11
142.4352893725
 21
143.877228891
  0
LINE
  5
349
100
AcDbEntity
  8
0
100
AcDbLine
 62
7
  6
CONTINUOUS
 10
137.2860805325
 20
143.877228891
 11
137.0517914279
 21
143.877228891
  0
LINE
  5
34A
100
AcDbEntity
  8
0
100
AcDbLine
 62
7
  6
CONTINUOUS
 10
131.8701900487
 20
143.877228891
 11
131.6349689054
 21
143.877228891
  0
LINE
  5
34B
100
AcDbEntity
  8
0
100
AcDbLine
 62
7
  6
CONTINUOUS
 10
120.1609895627
 20
144.377228891
 11
124.160991295
 21
144.377228891
  0
LINE
  5
34C
100
AcDbEntity
  8
0
100
AcDbLine
 62
7
  6
CONTINUOUS
 10
122.1609907383
 20
144.477228891
 11
117.6609907383
 21
144.977228891
  0
LINE
  5
34D
100
AcDbEntity
  8
0
100
AcDbLine
 62
7
  6
CONTINUOUS
 10
117.6609907383
 20
145.077228891
 11
122.1609907383
 21
144.577228891
  0
LINE
  5
34E
100
AcDbEntity
  8
0
100
AcDbLine
 62
7
  6
CONTINUOUS
 10
121.4879670295
 20
152.426205478
 11
120.3225131072
 21
153.2157065221
  0
LINE
  5
34F
100
AcDbEntity
  8
0
100
AcDbLine
 62
7
  6
CONTINUOUS
 10
123.0936728328
 20
152.1274504686
 11
122.9945542613
 21
152.210792414
  0
LINE
  5
350
100
AcDbEntity
  8
0
100
AcDbLine
 62
7
  6
CONTINUOUS
 10
123.4104353883
 20
181.977228891
 11
123.4104353883
 21
180.777228891
  0
LINE
  5
351
100
AcDbEntity
  8
0
100
AcDbLine
 62
7
  6
CONTINUOUS
 10
123.4104353883
 20
141.477228891
 11
123.4104353883
 21
140.277228891
  0
LINE
  5
352
100
AcDbEntity
  8
0
100
AcDbLine
 62
7
  6
CONTINUOUS
 10
123.4104353883
 20
150.777228891
 11
123.4104353883
 21
151.977228891
  0
LINE
  5
353
100
AcDbEntity
  8
0
100
AcDbLine
 62
7
  6
CONTINUOUS
 10
123.4104353883
 20
191.277228891
 11
123.4104353883
 21
192.477228891
  0
LINE
  5
354
100
AcDbEntity
  8
0
100
AcDbLine
 62
7
  6
CONTINUOUS
 10
124.1247483491
 20
138.4933959616
 11
124.1247483491
 21
138.6159316115
  0
LINE
  5
355
100
AcDbEntity
  8
0
100
AcDbLine
 62
7
  6
CONTINUOUS
 10
124.1247483491
 20
143.1385261705
 11
124.1247483491
 21
143.2610618204
  0
LINE
  5
356
100
AcDbEntity
  8
0
100
AcDbLine
 62
7
  6
CONTINUOUS
 10
124.1247483491
 20
148.9933959616
 11
124.1247483491
 21
149.1159316115
  0
LINE
  5
357
100
AcDbEntity
  8
0
100
AcDbLine
 62
7
  6
CONTINUOUS
 10
124.1247483491
 20
153.6385261705
 11
124.1247483491
 21
153.7610618204
  0
LINE
  5
358
100
AcDbEntity
  8
0
100
AcDbLine
 62
7
  6
CONTINUOUS
 10
124.1247483491
 20
178.9933959616
 11
124.1247483491
 21
179.1159316115
  0
LINE
  5
359
100
AcDbEntity
  8
0
100
AcDbLine
 62
7
  6
CONTINUOUS
 10
124.1247483491
 20
183.6385261705
 11
124.1247483491
 21
183.7610618204
  0
LINE
  5
35A
100
AcDbEntity
  8
0
100
AcDbLine
 62
7
  6
CONTINUOUS
 10
124.1247483491
 20
189.4933959616
 11
124.1247483491
 21
189.6159316115
  0
LINE
  5
35B
100
AcDbEntity
  8
0
100
AcDbLine
 62
7
  6
CONTINUOUS
 10
124.1247483491
 20
194.1385261705
 11
124.1247483491
 21
194.2610618204
  0
LINE
  5
35C
100
AcDbEntity
  8
0
100
AcDbLine
 62
7
  6
CONTINUOUS
 10
124.1609907383
 20
131.877228891
 11
124.1609907383
 21
134.877228891
  0
LINE
  5
35D
100
AcDbEntity
  8
0
100
AcDbLine
 62
7
  6
CONTINUOUS
 10
124.1609907383
 20
197.877228891
 11
124.1609907383
 21
200.877228891
  0
LINE
  5
35E
100
AcDbEntity
  8
0
100
AcDbLine
 62
7
  6
CONTINUOUS
 10
125.6609907383
 20
193.877229465
 11
125.6609907383
 21
189.877227602
  0
LINE
  5
35F
100
AcDbEntity
  8
0
100
AcDbLine
 62
7
  6
CONTINUOUS
 10
125.6609907383
 20
183.377228891
 11
125.6609907383
 21
149.377228891
  0
LINE
  5
360
100
AcDbEntity
  8
0
100
AcDbLine
 62
7
  6
CONTINUOUS
 10
125.6609907383
 20
142.8772302154
 11
125.6609907383
 21
138.8772283343
  0
LINE
  5
361
100
AcDbEntity
  8
0
100
AcDbLine
 62
7
  6
CONTINUOUS
 10
171.6609907383
 20
144.677228891
 11
171.5609907383
 21
144.677228891
  0
LINE
  5
362
100
AcDbEntity
  8
0
100
AcDbLine
 62
7
  6
CONTINUOUS
 10
171.6609907383
 20
144.877228891
 11
171.5609907383
 21
144.877228891
  0
LINE
  5
363
100
AcDbEntity
  8
0
100
AcDbLine
 62
7
  6
CONTINUOUS
 10
158.9755575843
 20
144.937228891
 11
156.5009907383
 21
144.937228891
  0
LINE
  5
364
100
AcDbEntity
  8
0
100
AcDbLine
 62
7
  6
CONTINUOUS
 10
148.1755575843
 20
144.937228891
 11
145.7009907383
 21
144.937228891
  0
LINE
  5
365
100
AcDbEntity
  8
0
100
AcDbLine
 62
7
  6
CONTINUOUS
 10
137.3755575843
 20
144.937228891
 11
134.9009907383
 21
144.937228891
  0
LINE
  5
366
100
AcDbEntity
  8
0
100
AcDbLine
 62
7
  6
CONTINUOUS
 10
131.5464238923
 20
144.937228891
 11
134.0209907383
 21
144.937228891
  0
LINE
  5
367
100
AcDbEntity
  8
0
100
AcDbLine
 62
7
  6
CONTINUOUS
 10
142.3464238923
 20
144.937228891
 11
144.8209907383
 21
144.937228891
  0
LINE
  5
368
100
AcDbEntity
  8
0
100
AcDbLine
 62
7
  6
CONTINUOUS
 10
153.1464238923
 20
144.937228891
 11
155.6209907383
 21
144.937228891
  0
LINE
  5
369
100
AcDbEntity
  8
0
100
AcDbLine
 62
7
  6
CONTINUOUS
 10
117.6609907383
 20
145.377228891
 11
126.6609907383
 21
145.377228891
  0
LINE
  5
36A
100
AcDbEntity
  8
0
100
AcDbLine
 62
7
  6
CONTINUOUS
 10
131.5464238923
 20
145.817228891
 11
134.0209907383
 21
145.817228891
  0
LINE
  5
36B
100
AcDbEntity
  8
0
100
AcDbLine
 62
7
  6
CONTINUOUS
 10
134.9009907383
 20
145.817228891
 11
137.3755575843
 21
145.817228891
  0
LINE
  5
36C
100
AcDbEntity
  8
0
100
AcDbLine
 62
7
  6
CONTINUOUS
 10
142.3464238923
 20
145.817228891
 11
144.8209907383
 21
145.817228891
  0
LINE
  5
36D
100
AcDbEntity
  8
0
100
AcDbLine
 62
7
  6
CONTINUOUS
 10
145.7009907383
 20
145.817228891
 11
148.1755575843
 21
145.817228891
  0
LINE
  5
36E
100
AcDbEntity
  8
0
100
AcDbLine
 62
7
  6
CONTINUOUS
 10
153.1464238923
 20
145.817228891
 11
155.6209907383
 21
145.817228891
  0
LINE
  5
36F
100
AcDbEntity
  8
0
100
AcDbLine
 62
7
  6
CONTINUOUS
 10
156.5009907383
 20
145.817228891
 11
158.9755575843
 21
145.817228891
  0
LINE
  5
370
100
AcDbEntity
  8
0
100
AcDbLine
 62
7
  6
CONTINUOUS
 10
171.6609907383
 20
146.877228891
 11
171.5609907383
 21
146.877228891
  0
LINE
  5
371
100
AcDbEntity
  8
0
100
AcDbLine
 62
7
  6
CONTINUOUS
 10
131.6386447962
 20
146.877228891
 11
131.8701900487
 21
146.877228891
  0
LINE
  5
372
100
AcDbEntity
  8
0
100
AcDbLine
 62
7
  6
CONTINUOUS
 10
137.0517914279
 20
146.877228891
 11
137.2832817508
 21
146.877228891
  0
LINE
  5
373
100
AcDbEntity
  8
0
100
AcDbLine
 62
7
  6
CONTINUOUS
 10
142.4364937924
 20
146.877228891
 11
142.6701900487
 21
146.877228891
  0
LINE
  5
374
100
AcDbEntity
  8
0
100
AcDbLine
 62
7
  6
CONTINUOUS
 10
147.8517914279
 20
146.877228891
 11
148.086619931
 21
146.877228891
  0
LINE
  5
375
100
AcDbEntity
  8
0
100
AcDbLine
 62
7
  6
CONTINUOUS
 10
153.2364836569
 20
146.877228891
 11
153.4701900487
 21
146.877228891
  0
LINE
  5
376
100
AcDbEntity
  8
0
100
AcDbLine
 62
7
  6
CONTINUOUS
 10
158.6517914279
 20
146.877228891
 11
158.8864737349
 21
146.877228891
  0
LINE
  5
377
100
AcDbEntity
  8
0
100
AcDbLine
 62
7
  6
CONTINUOUS
 10
129.6609907383
 20
147.377228891
 11
129.7609907383
 21
147.377228891
  0
LINE
  5
378
100
AcDbEntity
  8
0
100
AcDbLine
 62
7
  6
CONTINUOUS
 10
169.7381119643
 20
147.477228891
 11
169.512602775
 21
147.477228891
  0
LINE
  5
379
100
AcDbEntity
  8
0
100
AcDbLine
 62
7
  6
CONTINUOUS
 10
164.2093787015
 20
147.477228891
 11
163.983886299
 21
147.477228891
  0
LINE
  5
37A
100
AcDbEntity
  8
0
100
AcDbLine
 62
7
  6
CONTINUOUS
 10
172.8609907383
 20
147.577228891
 11
171.5109907383
 21
147.577228891
  0
LINE
  5
37B
100
AcDbEntity
  8
0
100
AcDbLine
 62
7
  6
CONTINUOUS
 10
162.2109907383
 20
147.577228891
 11
160.7109907383
 21
147.577228891
  0
LINE
  5
37C
100
AcDbEntity
  8
0
100
AcDbLine
 62
7
  6
CONTINUOUS
 10
151.4109907383
 20
147.577228891
 11
149.9109907383
 21
147.577228891
  0
LINE
  5
37D
100
AcDbEntity
  8
0
100
AcDbLine
 62
7
  6
CONTINUOUS
 10
140.6109907383
 20
147.577228891
 11
139.1109907383
 21
147.577228891
  0
LINE
  5
37E
100
AcDbEntity
  8
0
100
AcDbLine
 62
7
  6
CONTINUOUS
 10
129.8109907383
 20
147.577228891
 11
128.4609907383
 21
147.577228891
  0
LINE
  5
37F
100
AcDbEntity
  8
0
100
AcDbLine
 62
7
  6
CONTINUOUS
 10
126.6609907383
 20
138.877228891
 11
126.6609907383
 21
145.877228891
  0
LINE
  5
380
100
AcDbEntity
  8
0
100
AcDbLine
 62
7
  6
CONTINUOUS
 10
126.6609907383
 20
186.877228891
 11
126.6609907383
 21
193.877228891
  0
LINE
  5
381
100
AcDbEntity
  8
0
100
AcDbLine
 62
7
  6
CONTINUOUS
 10
128.1609907383
 20
129.877228891
 11
128.1609907383
 21
202.877228891
  0
LINE
  5
382
100
AcDbEntity
  8
0
100
AcDbLine
 62
7
  6
CONTINUOUS
 10
124.1609907383
 20
147.877228891
 11
120.1609907392
 21
147.877228891
  0
LINE
  5
383
100
AcDbEntity
  8
0
100
AcDbLine
 62
7
  6
CONTINUOUS
 10
169.7755575843
 20
148.437228891
 11
167.3009907383
 21
148.437228891
  0
LINE
  5
384
100
AcDbEntity
  8
0
100
AcDbLine
 62
7
  6
CONTINUOUS
 10
163.9464238923
 20
148.437228891
 11
166.4209907383
 21
148.437228891
  0
LINE
  5
385
100
AcDbEntity
  8
0
100
AcDbLine
 62
7
  6
CONTINUOUS
 10
163.9464238923
 20
149.317228891
 11
166.4209907383
 21
149.317228891
  0
LINE
  5
386
100
AcDbEntity
  8
0
100
AcDbLine
 62
7
  6
CONTINUOUS
 10
167.3009907383
 20
149.317228891
 11
169.7755575843
 21
149.317228891
  0
LINE
  5
387
100
AcDbEntity
  8
0
100
AcDbLine
 62
7
  6
CONTINUOUS
 10
121.5609907383
 20
149.377228891
 11
122.7609907383
 21
149.377228891
  0
LINE
  5
388
100
AcDbEntity
  8
0
100
AcDbLine
 62
7
  6
CONTINUOUS
 10
119.6092851498
 20
149.627228891
 11
119.7263189375
 21
149.627228891
  0
LINE
  5
389
100
AcDbEntity
  8
0
100
AcDbLine
 62
7
  6
CONTINUOUS
 10
124.595662539
 20
149.627228891
 11
124.7065280685
 21
149.627228891
  0
LINE
  5
38A
100
AcDbEntity
  8
0
100
AcDbLine
 62
7
  6
CONTINUOUS
 10
163.9857059824
 20
150.277228891
 11
164.2093787015
 21
150.277228891
  0
LINE
  5
38B
100
AcDbEntity
  8
0
100
AcDbLine
 62
7
  6
CONTINUOUS
 10
169.512602775
 20
150.277228891
 11
169.7354778078
 21
150.277228891
  0
LINE
  5
38C
100
AcDbEntity
  8
0
100
AcDbLine
 62
7
  6
CONTINUOUS
 10
129.8109907383
 20
150.377228891
 11
130.5609907383
 21
150.377228891
  0
LINE
  5
38D
100
AcDbEntity
  8
0
100
AcDbLine
 62
7
  6
CONTINUOUS
 10
138.3609907383
 20
150.377228891
 11
139.1109907383
 21
150.377228891
  0
LINE
  5
38E
100
AcDbEntity
  8
0
100
AcDbLine
 62
7
  6
CONTINUOUS
 10
140.6109907383
 20
150.377228891
 11
141.3609907383
 21
150.377228891
  0
LINE
  5
38F
100
AcDbEntity
  8
0
100
AcDbLine
 62
7
  6
CONTINUOUS
 10
149.1609907383
 20
150.377228891
 11
149.9109907383
 21
150.377228891
  0
LINE
  5
390
100
AcDbEntity
  8
0
100
AcDbLine
 62
7
  6
CONTINUOUS
 10
151.4109907383
 20
150.377228891
 11
152.1609907383
 21
150.377228891
  0
LINE
  5
391
100
AcDbEntity
  8
0
100
AcDbLine
 62
7
  6
CONTINUOUS
 10
159.9609907383
 20
150.377228891
 11
160.7109907383
 21
150.377228891
  0
LINE
  5
392
100
AcDbEntity
  8
0
100
AcDbLine
 62
7
  6
CONTINUOUS
 10
162.2109907383
 20
150.377228891
 11
162.9609907383
 21
150.377228891
  0
LINE
  5
393
100
AcDbEntity
  8
0
100
AcDbLine
 62
7
  6
CONTINUOUS
 10
170.7609907383
 20
150.377228891
 11
171.5109907383
 21
150.377228891
  0
LINE
  5
394
100
AcDbEntity
  8
0
100
AcDbLine
 62
7
  6
CONTINUOUS
 10
119.2679510072
 20
150.777228891
 11
121.2331260424
 21
150.777228891
  0
LINE
  5
395
100
AcDbEntity
  8
0
100
AcDbLine
 62
7
  6
CONTINUOUS
 10
121.5609907383
 20
150.777228891
 11
122.7609907383
 21
150.777228891
  0
LINE
  5
396
100
AcDbEntity
  8
0
100
AcDbLine
 62
7
  6
CONTINUOUS
 10
123.0888554342
 20
150.777228891
 11
125.0540304694
 21
150.777228891
  0
LINE
  5
397
100
AcDbEntity
  8
0
100
AcDbLine
 62
7
  6
CONTINUOUS
 10
129.4609907383
 20
129.377228891
 11
129.4609907383
 21
131.3369634043
  0
LINE
  5
398
100
AcDbEntity
  8
0
100
AcDbLine
 62
7
  6
CONTINUOUS
 10
129.4609907383
 20
201.4174943777
 11
129.4609907383
 21
203.377228891
  0
LINE
  5
399
100
AcDbEntity
  8
0
100
AcDbLine
 62
7
  6
CONTINUOUS
 10
129.6609907383
 20
131.3369634043
 11
129.6609907383
 21
147.577228891
  0
LINE
  5
39A
100
AcDbEntity
  8
0
100
AcDbLine
 62
7
  6
CONTINUOUS
 10
129.6609907383
 20
185.177228891
 11
129.6609907383
 21
201.4174943777
  0
LINE
  5
39B
100
AcDbEntity
  8
0
100
AcDbLine
 62
7
  6
CONTINUOUS
 10
129.7609907383
 20
137.377228891
 11
129.7609907383
 21
147.577228891
  0
LINE
  5
39C
100
AcDbEntity
  8
0
100
AcDbLine
 62
7
  6
CONTINUOUS
 10
129.7609907383
 20
185.177228891
 11
129.7609907383
 21
195.377228891
  0
LINE
  5
39D
100
AcDbEntity
  8
0
100
AcDbLine
 62
7
  6
CONTINUOUS
 10
129.8109907383
 20
147.577228891
 11
129.8109907383
 21
185.177228891
  0
LINE
  5
39E
100
AcDbEntity
  8
0
100
AcDbLine
 62
7
  6
CONTINUOUS
 10
129.8609907383
 20
151.377228891
 11
129.8609907383
 21
176.7332652688
  0
LINE
  5
39F
100
AcDbEntity
  8
0
100
AcDbLine
 62
7
  6
CONTINUOUS
 10
129.8609907383
 20
176.7336067002
 11
129.8609907383
 21
181.377228891
  0
LINE
  5
3A0
100
AcDbEntity
  8
0
100
AcDbLine
 62
7
  6
CONTINUOUS
 10
130.4609907383
 20
156.377228891
 11
130.4609907383
 21
176.377228891
  0
LINE
  5
3A1
100
AcDbEntity
  8
0
100
AcDbLine
 62
7
  6
CONTINUOUS
 10
130.5609907383
 20
182.377228891
 11
130.5609907383
 21
181.377228891
  0
LINE
  5
3A2
100
AcDbEntity
  8
0
100
AcDbLine
 62
7
  6
CONTINUOUS
 10
130.5609907383
 20
151.377228891
 11
130.5609907383
 21
150.377228891
  0
LINE
  5
3A3
100
AcDbEntity
  8
0
100
AcDbLine
 62
7
  6
CONTINUOUS
 10
131.2109907383
 20
203.377228891
 11
131.2109907383
 21
195.377228891
  0
LINE
  5
3A4
100
AcDbEntity
  8
0
100
AcDbLine
 62
7
  6
CONTINUOUS
 10
131.2109907383
 20
137.377228891
 11
131.2109907383
 21
129.377228891
  0
LINE
  5
3A5
100
AcDbEntity
  8
0
100
AcDbLine
 62
7
  6
CONTINUOUS
 10
131.6609907383
 20
196.877228891
 11
131.6609907383
 21
195.377228891
  0
LINE
  5
3A6
100
AcDbEntity
  8
0
100
AcDbLine
 62
7
  6
CONTINUOUS
 10
131.6609907383
 20
135.877228891
 11
131.6609907383
 21
137.377228891
  0
LINE
  5
3A7
100
AcDbEntity
  8
0
100
AcDbLine
 62
7
  6
CONTINUOUS
 10
132.1609907383
 20
197.677228891
 11
132.1609907383
 21
196.877228891
  0
LINE
  5
3A8
100
AcDbEntity
  8
0
100
AcDbLine
 62
7
  6
CONTINUOUS
 10
132.1609907383
 20
135.877228891
 11
132.1609907383
 21
135.077228891
  0
LINE
  5
3A9
100
AcDbEntity
  8
0
100
AcDbLine
 62
7
  6
CONTINUOUS
 10
129.8109907383
 20
151.377228891
 11
171.5109907383
 21
151.377228891
  0
LINE
  5
3AA
100
AcDbEntity
  8
0
100
AcDbLine
 62
7
  6
CONTINUOUS
 10
122.7609907383
 20
151.977228891
 11
121.5609907383
 21
151.977228891
  0
LINE
  5
3AB
100
AcDbEntity
  8
0
100
AcDbLine
 62
7
  6
CONTINUOUS
 10
119.2679510072
 20
151.977228891
 11
121.2331260424
 21
151.977228891
  0
LINE
  5
3AC
100
AcDbEntity
  8
0
100
AcDbLine
 62
7
  6
CONTINUOUS
 10
123.0888554342
 20
151.977228891
 11
125.0540304694
 21
151.977228891
  0
LINE
  5
3AD
100
AcDbEntity
  8
0
100
AcDbLine
 62
7
  6
CONTINUOUS
 10
171.5109907383
 20
152.377228891
 11
171.4609907383
 21
152.377228891
  0
LINE
  5
3AE
100
AcDbEntity
  8
0
100
AcDbLine
 62
7
  6
CONTINUOUS
 10
129.8609907383
 20
152.377228891
 11
129.8109907383
 21
152.377228891
  0
LINE
  5
3AF
100
AcDbEntity
  8
0
100
AcDbLine
 62
7
  6
CONTINUOUS
 10
124.7065280685
 20
153.127228891
 11
124.595662539
 21
153.127228891
  0
LINE
  5
3B0
100
AcDbEntity
  8
0
100
AcDbLine
 62
7
  6
CONTINUOUS
 10
119.7263189375
 20
153.127228891
 11
119.6092851498
 21
153.127228891
  0
LINE
  5
3B1
100
AcDbEntity
  8
0
100
AcDbLine
 62
7
  6
CONTINUOUS
 10
121.5609907383
 20
153.377228891
 11
122.7609907383
 21
153.377228891
  0
LINE
  5
3B2
100
AcDbEntity
  8
0
100
AcDbLine
 62
7
  6
CONTINUOUS
 10
117.6609907383
 20
155.477228891
 11
122.1609907383
 21
154.977228891
  0
LINE
  5
3B3
100
AcDbEntity
  8
0
100
AcDbLine
 62
7
  6
CONTINUOUS
 10
117.6609907383
 20
155.577228891
 11
122.1609907383
 21
155.077228891
  0
LINE
  5
3B4
100
AcDbEntity
  8
0
100
AcDbLine
 62
7
  6
CONTINUOUS
 10
133.1185085758
 20
177.2742615669
 11
133.1185085758
 21
177.0525490243
  0
LINE
  5
3B5
100
AcDbEntity
  8
0
100
AcDbLine
 62
7
  6
CONTINUOUS
 10
133.1185085758
 20
171.7019087578
 11
133.1185085758
 21
171.4826567229
  0
LINE
  5
3B6
100
AcDbEntity
  8
0
100
AcDbLine
 62
7
  6
CONTINUOUS
 10
133.1185085758
 20
161.2738218889
 11
133.1185085758
 21
161.0525490243
  0
LINE
  5
3B7
100
AcDbEntity
  8
0
100
AcDbLine
 62
7
  6
CONTINUOUS
 10
133.1185085758
 20
155.7019087578
 11
133.1185085758
 21
155.4775491036
  0
LINE
  5
3B8
100
AcDbEntity
  8
0
100
AcDbLine
 62
7
  6
CONTINUOUS
 10
133.129785645
 20
190.2854784861
 11
133.129785645
 21
190.0583923306
  0
LINE
  5
3B9
100
AcDbEntity
  8
0
100
AcDbLine
 62
7
  6
CONTINUOUS
 10
133.129785645
 20
184.6960654514
 11
133.129785645
 21
184.473562628
  0
LINE
  5
3BA
100
AcDbEntity
  8
0
100
AcDbLine
 62
7
  6
CONTINUOUS
 10
133.129785645
 20
148.2773100448
 11
133.129785645
 21
148.0583923306
  0
LINE
  5
3BB
100
AcDbEntity
  8
0
100
AcDbLine
 62
7
  6
CONTINUOUS
 10
133.129785645
 20
142.6960654514
 11
133.129785645
 21
142.4681830438
  0
LINE
  5
3BC
100
AcDbEntity
  8
DEFAULT_1
100
AcDbLine
 62
2
  6
CENTER
 10
133.1609907383
 20
198.877228891
 11
133.1609907383
 21
194.877128891
  0
LINE
  5
3BD
100
AcDbEntity
  8
02___PRT_ALL_AXES
100
AcDbLine
 62
2
  6
CENTER
 10
133.1609907383
 20
192.377228891
 11
133.1609907383
 21
188.377128891
  0
LINE
  5
3BE
100
AcDbEntity
  8
DEFAULT_1
100
AcDbLine
 62
2
  6
CENTER
 10
133.1609907383
 20
140.377228891
 11
133.1609907383
 21
136.377128891
  0
LINE
  5
3BF
100
AcDbEntity
  8
DEFAULT_1
100
AcDbLine
 62
2
  6
CENTER
 10
133.1609907383
 20
133.877228891
 11
133.1609907383
 21
129.877128891
  0
LINE
  5
3C0
100
AcDbEntity
  8
DEFAULT_1
100
AcDbLine
 62
2
  6
CENTER
 10
133.1609907383
 20
133.877228891
 11
133.1609907383
 21
136.377128891
  0
LINE
  5
3C1
100
AcDbEntity
  8
DEFAULT_1
100
AcDbLine
 62
2
  6
CENTER
 10
133.1609907383
 20
140.377228891
 11
133.1609907383
 21
144.377328891
  0
LINE
  5
3C2
100
AcDbEntity
  8
02___PRT_ALL_AXES
100
AcDbLine
 62
2
  6
CENTER
 10
133.1609907383
 20
192.377228891
 11
133.1609907383
 21
196.377328891
  0
LINE
  5
3C3
100
AcDbEntity
  8
DEFAULT_1
100
AcDbLine
 62
2
  6
CENTER
 10
133.1609907383
 20
198.877228891
 11
133.1609907383
 21
202.877328891
  0
LINE
  5
3C4
100
AcDbEntity
  8
0
100
AcDbLine
 62
7
  6
CONTINUOUS
 10
134.0209907383
 20
142.462662045
 11
134.0209907383
 21
144.937228891
  0
LINE
  5
3C5
100
AcDbEntity
  8
0
100
AcDbLine
 62
7
  6
CONTINUOUS
 10
134.0209907383
 20
145.817228891
 11
134.0209907383
 21
148.291795737
  0
LINE
  5
3C6
100
AcDbEntity
  8
0
100
AcDbLine
 62
7
  6
CONTINUOUS
 10
134.0209907383
 20
155.462662045
 11
134.0209907383
 21
157.937228891
  0
LINE
  5
3C7
100
AcDbEntity
  8
0
100
AcDbLine
 62
7
  6
CONTINUOUS
 10
134.0209907383
 20
158.817228891
 11
134.0209907383
 21
161.291795737
  0
LINE
  5
3C8
100
AcDbEntity
  8
0
100
AcDbLine
 62
7
  6
CONTINUOUS
 10
134.0209907383
 20
171.462662045
 11
134.0209907383
 21
173.937228891
  0
LINE
  5
3C9
100
AcDbEntity
  8
0
100
AcDbLine
 62
7
  6
CONTINUOUS
 10
134.0209907383
 20
174.817228891
 11
134.0209907383
 21
177.291795737
  0
LINE
  5
3CA
100
AcDbEntity
  8
0
100
AcDbLine
 62
7
  6
CONTINUOUS
 10
134.0209907383
 20
184.462662045
 11
134.0209907383
 21
186.937228891
  0
LINE
  5
3CB
100
AcDbEntity
  8
0
100
AcDbLine
 62
7
  6
CONTINUOUS
 10
134.0209907383
 20
187.817228891
 11
134.0209907383
 21
190.291795737
  0
LINE
  5
3CC
100
AcDbEntity
  8
0
100
AcDbLine
 62
7
  6
CONTINUOUS
 10
134.9009907383
 20
190.291795737
 11
134.9009907383
 21
187.817228891
  0
LINE
  5
3CD
100
AcDbEntity
  8
0
100
AcDbLine
 62
7
  6
CONTINUOUS
 10
134.9009907383
 20
177.291795737
 11
134.9009907383
 21
174.817228891
  0
LINE
  5
3CE
100
AcDbEntity
  8
0
100
AcDbLine
 62
7
  6
CONTINUOUS
 10
134.9009907383
 20
161.291795737
 11
134.9009907383
 21
158.817228891
  0
LINE
  5
3CF
100
AcDbEntity
  8
0
100
AcDbLine
 62
7
  6
CONTINUOUS
 10
134.9009907383
 20
148.291795737
 11
134.9009907383
 21
145.817228891
  0
LINE
  5
3D0
100
AcDbEntity
  8
0
100
AcDbLine
 62
7
  6
CONTINUOUS
 10
134.9009907383
 20
142.462662045
 11
134.9009907383
 21
144.937228891
  0
LINE
  5
3D1
100
AcDbEntity
  8
0
100
AcDbLine
 62
7
  6
CONTINUOUS
 10
134.9009907383
 20
155.462662045
 11
134.9009907383
 21
157.937228891
  0
LINE
  5
3D2
100
AcDbEntity
  8
0
100
AcDbLine
 62
7
  6
CONTINUOUS
 10
134.9009907383
 20
171.462662045
 11
134.9009907383
 21
173.937228891
  0
LINE
  5
3D3
100
AcDbEntity
  8
0
100
AcDbLine
 62
7
  6
CONTINUOUS
 10
134.9009907383
 20
184.462662045
 11
134.9009907383
 21
186.937228891
  0
LINE
  5
3D4
100
AcDbEntity
  8
0
100
AcDbLine
 62
7
  6
CONTINUOUS
 10
129.7609907383
 20
140.4438955577
 11
129.6609907383
 21
139.777228891
  0
LINE
  5
3D5
100
AcDbEntity
  8
0
100
AcDbLine
 62
7
  6
CONTINUOUS
 10
121.1120141513
 20
150.7042051822
 11
120.3225131072
 21
149.5387512599
  0
LINE
  5
3D6
100
AcDbEntity
  8
0
100
AcDbLine
 62
7
  6
CONTINUOUS
 10
123.2099673253
 20
152.0502525998
 11
123.9994683694
 21
153.2157065221
  0
LINE
  5
3D7
100
AcDbEntity
  8
0
100
AcDbLine
 62
7
  6
CONTINUOUS
 10
171.5109907383
 20
154.377228891
 11
171.4609907383
 21
154.377228891
  0
LINE
  5
3D8
100
AcDbEntity
  8
0
100
AcDbLine
 62
7
  6
CONTINUOUS
 10
168.8609907383
 20
154.377228891
 11
164.8609907383
 21
154.377228891
  0
LINE
  5
3D9
100
AcDbEntity
  8
0
100
AcDbLine
 62
7
  6
CONTINUOUS
 10
158.0609907383
 20
154.377228891
 11
154.0609907383
 21
154.377228891
  0
LINE
  5
3DA
100
AcDbEntity
  8
0
100
AcDbLine
 62
7
  6
CONTINUOUS
 10
147.2609907383
 20
154.377228891
 11
143.2609907383
 21
154.377228891
  0
LINE
  5
3DB
100
AcDbEntity
  8
0
100
AcDbLine
 62
7
  6
CONTINUOUS
 10
136.4609907383
 20
154.377228891
 11
132.4609907383
 21
154.377228891
  0
LINE
  5
3DC
100
AcDbEntity
  8
0
100
AcDbLine
 62
7
  6
CONTINUOUS
 10
129.8609907383
 20
154.377228891
 11
129.8109907383
 21
154.377228891
  0
LINE
  5
3DD
100
AcDbEntity
  8
0
100
AcDbLine
 62
7
  6
CONTINUOUS
 10
120.1609895627
 20
154.877228891
 11
124.160991295
 21
154.877228891
  0
LINE
  5
3DE
100
AcDbEntity
  8
0
100
AcDbLine
 62
7
  6
CONTINUOUS
 10
169.7378795779
 20
156.977228891
 11
169.512602775
 21
156.977228891
  0
LINE
  5
3DF
100
AcDbEntity
  8
0
100
AcDbLine
 62
7
  6
CONTINUOUS
 10
164.2093787015
 20
156.977228891
 11
163.9845379839
 21
156.977228891
  0
LINE
  5
3E0
100
AcDbEntity
  8
0
100
AcDbLine
 62
7
  6
CONTINUOUS
 10
158.9378795779
 20
156.977228891
 11
158.712602775
 21
156.977228891
  0
LINE
  5
3E1
100
AcDbEntity
  8
0
100
AcDbLine
 62
7
  6
CONTINUOUS
 10
153.4093787015
 20
156.977228891
 11
153.1845379839
 21
156.977228891
  0
LINE
  5
3E2
100
AcDbEntity
  8
0
100
AcDbLine
 62
7
  6
CONTINUOUS
 10
148.1378729285
 20
156.977228891
 11
147.912602775
 21
156.977228891
  0
LINE
  5
3E3
100
AcDbEntity
  8
0
100
AcDbLine
 62
7
  6
CONTINUOUS
 10
142.6093787015
 20
156.977228891
 11
142.3845355721
 21
156.977228891
  0
LINE
  5
3E4
100
AcDbEntity
  8
0
100
AcDbLine
 62
7
  6
CONTINUOUS
 10
137.3378729285
 20
156.977228891
 11
137.112602775
 21
156.977228891
  0
LINE
  5
3E5
100
AcDbEntity
  8
0
100
AcDbLine
 62
7
  6
CONTINUOUS
 10
131.8093787015
 20
156.977228891
 11
131.5845355721
 21
156.977228891
  0
LINE
  5
3E6
100
AcDbEntity
  8
0
100
AcDbLine
 62
7
  6
CONTINUOUS
 10
121.1120141513
 20
182.0502525998
 11
120.3225131072
 21
183.2157065221
  0
LINE
  5
3E7
100
AcDbEntity
  8
0
100
AcDbLine
 62
7
  6
CONTINUOUS
 10
123.2099673253
 20
180.7042051822
 11
123.9994683694
 21
179.5387512599
  0
LINE
  5
3E8
100
AcDbEntity
  8
0
100
AcDbLine
 62
7
  6
CONTINUOUS
 10
129.7609907383
 20
192.3105622243
 11
129.6609907383
 21
192.977228891
  0
LINE
  5
3E9
100
AcDbEntity
  8
0
100
AcDbLine
 62
7
  6
CONTINUOUS
 10
135.7921958315
 20
142.4692491682
 11
135.7921958315
 21
142.6960654514
  0
LINE
  5
3EA
100
AcDbEntity
  8
0
100
AcDbLine
 62
7
  6
CONTINUOUS
 10
135.7921958315
 20
148.0583923306
 11
135.7921958315
 21
148.2828439867
  0
LINE
  5
3EB
100
AcDbEntity
  8
0
100
AcDbLine
 62
7
  6
CONTINUOUS
 10
135.7921958315
 20
184.475275803
 11
135.7921958315
 21
184.6960654514
  0
LINE
  5
3EC
100
AcDbEntity
  8
0
100
AcDbLine
 62
7
  6
CONTINUOUS
 10
135.7921958315
 20
190.0583923306
 11
135.7921958315
 21
190.2857315468
  0
LINE
  5
3ED
100
AcDbEntity
  8
0
100
AcDbLine
 62
7
  6
CONTINUOUS
 10
135.8034729008
 20
155.4784105214
 11
135.8034729008
 21
155.7019087578
  0
LINE
  5
3EE
100
AcDbEntity
  8
0
100
AcDbLine
 62
7
  6
CONTINUOUS
 10
135.8034729008
 20
161.0525490243
 11
135.8034729008
 21
161.2713997852
  0
LINE
  5
3EF
100
AcDbEntity
  8
0
100
AcDbLine
 62
7
  6
CONTINUOUS
 10
135.8034729008
 20
171.4825884028
 11
135.8034729008
 21
171.7019087578
  0
LINE
  5
3F0
100
AcDbEntity
  8
0
100
AcDbLine
 62
7
  6
CONTINUOUS
 10
135.8034729008
 20
177.0525490243
 11
135.8034729008
 21
177.2757512938
  0
LINE
  5
3F1
100
AcDbEntity
  8
0
100
AcDbLine
 62
7
  6
CONTINUOUS
 10
136.6609907383
 20
135.077228891
 11
136.6609907383
 21
135.877228891
  0
LINE
  5
3F2
100
AcDbEntity
  8
0
100
AcDbLine
 62
7
  6
CONTINUOUS
 10
136.6609907383
 20
196.877228891
 11
136.6609907383
 21
197.677228891
  0
LINE
  5
3F3
100
AcDbEntity
  8
0
100
AcDbLine
 62
7
  6
CONTINUOUS
 10
137.7109907383
 20
132.877228891
 11
137.7109907383
 21
137.377228891
  0
LINE
  5
3F4
100
AcDbEntity
  8
0
100
AcDbLine
 62
7
  6
CONTINUOUS
 10
137.7109907383
 20
195.377228891
 11
137.7109907383
 21
199.877228891
  0
LINE
  5
3F5
100
AcDbEntity
  8
0
100
AcDbLine
 62
7
  6
CONTINUOUS
 10
138.1609907383
 20
128.077228891
 11
138.1609907383
 21
132.877228891
  0
LINE
  5
3F6
100
AcDbEntity
  8
0
100
AcDbLine
 62
7
  6
CONTINUOUS
 10
138.1609907383
 20
199.877228891
 11
138.1609907383
 21
204.677228891
  0
LINE
  5
3F7
100
AcDbEntity
  8
0
100
AcDbLine
 62
7
  6
CONTINUOUS
 10
138.3609907383
 20
182.377228891
 11
138.3609907383
 21
181.377228891
  0
LINE
  5
3F8
100
AcDbEntity
  8
0
100
AcDbLine
 62
7
  6
CONTINUOUS
 10
138.3609907383
 20
151.377228891
 11
138.3609907383
 21
150.377228891
  0
LINE
  5
3F9
100
AcDbEntity
  8
0
100
AcDbLine
 62
7
  6
CONTINUOUS
 10
138.4609907383
 20
176.377228891
 11
138.4609907383
 21
156.377228891
  0
LINE
  5
3FA
100
AcDbEntity
  8
0
100
AcDbLine
 62
7
  6
CONTINUOUS
 10
121.4107691607
 20
152.3099109856
 11
121.3274272153
 21
152.210792414
  0
LINE
  5
3FB
100
AcDbEntity
  8
0
100
AcDbLine
 62
7
  6
CONTINUOUS
 10
122.9112123159
 20
150.4445467965
 11
122.9945542613
 21
150.543665368
  0
LINE
  5
3FC
100
AcDbEntity
  8
0
100
AcDbLine
 62
7
  6
CONTINUOUS
 10
169.7755575843
 20
157.937228891
 11
167.3009907383
 21
157.937228891
  0
LINE
  5
3FD
100
AcDbEntity
  8
0
100
AcDbLine
 62
7
  6
CONTINUOUS
 10
158.9755575843
 20
157.937228891
 11
156.5009907383
 21
157.937228891
  0
LINE
  5
3FE
100
AcDbEntity
  8
0
100
AcDbLine
 62
7
  6
CONTINUOUS
 10
148.1755575843
 20
157.937228891
 11
145.7009907383
 21
157.937228891
  0
LINE
  5
3FF
100
AcDbEntity
  8
0
100
AcDbLine
 62
7
  6
CONTINUOUS
 10
137.3755575843
 20
157.937228891
 11
134.9009907383
 21
157.937228891
  0
LINE
  5
400
100
AcDbEntity
  8
0
100
AcDbLine
 62
7
  6
CONTINUOUS
 10
131.5464238923
 20
157.937228891
 11
134.0209907383
 21
157.937228891
  0
LINE
  5
401
100
AcDbEntity
  8
0
100
AcDbLine
 62
7
  6
CONTINUOUS
 10
142.3464238923
 20
157.937228891
 11
144.8209907383
 21
157.937228891
  0
LINE
  5
402
100
AcDbEntity
  8
0
100
AcDbLine
 62
7
  6
CONTINUOUS
 10
153.1464238923
 20
157.937228891
 11
155.6209907383
 21
157.937228891
  0
LINE
  5
403
100
AcDbEntity
  8
0
100
AcDbLine
 62
7
  6
CONTINUOUS
 10
163.9464238923
 20
157.937228891
 11
166.4209907383
 21
157.937228891
  0
LINE
  5
404
100
AcDbEntity
  8
0
100
AcDbLine
 62
7
  6
CONTINUOUS
 10
131.5464238923
 20
158.817228891
 11
134.0209907383
 21
158.817228891
  0
LINE
  5
405
100
AcDbEntity
  8
0
100
AcDbLine
 62
7
  6
CONTINUOUS
 10
134.9009907383
 20
158.817228891
 11
137.3755575843
 21
158.817228891
  0
LINE
  5
406
100
AcDbEntity
  8
0
100
AcDbLine
 62
7
  6
CONTINUOUS
 10
142.3464238923
 20
158.817228891
 11
144.8209907383
 21
158.817228891
  0
LINE
  5
407
100
AcDbEntity
  8
0
100
AcDbLine
 62
7
  6
CONTINUOUS
 10
145.7009907383
 20
158.817228891
 11
148.1755575843
 21
158.817228891
  0
LINE
  5
408
100
AcDbEntity
  8
0
100
AcDbLine
 62
7
  6
CONTINUOUS
 10
153.1464238923
 20
158.817228891
 11
155.6209907383
 21
158.817228891
  0
LINE
  5
409
100
AcDbEntity
  8
0
100
AcDbLine
 62
7
  6
CONTINUOUS
 10
156.5009907383
 20
158.817228891
 11
158.9755575843
 21
158.817228891
  0
LINE
  5
40A
100
AcDbEntity
  8
0
100
AcDbLine
 62
7
  6
CONTINUOUS
 10
163.9464238923
 20
158.817228891
 11
166.4209907383
 21
158.817228891
  0
LINE
  5
40B
100
AcDbEntity
  8
0
100
AcDbLine
 62
7
  6
CONTINUOUS
 10
167.3009907383
 20
158.817228891
 11
169.7755575843
 21
158.817228891
  0
LINE
  5
40C
100
AcDbEntity
  8
0
100
AcDbLine
 62
7
  6
CONTINUOUS
 10
131.5845850142
 20
159.777228891
 11
131.8093787015
 21
159.777228891
  0
LINE
  5
40D
100
AcDbEntity
  8
0
100
AcDbLine
 62
7
  6
CONTINUOUS
 10
137.112602775
 20
159.777228891
 11
137.3357273269
 21
159.777228891
  0
LINE
  5
40E
100
AcDbEntity
  8
0
100
AcDbLine
 62
7
  6
CONTINUOUS
 10
142.3845850142
 20
159.777228891
 11
142.6093787015
 21
159.777228891
  0
LINE
  5
40F
100
AcDbEntity
  8
0
100
AcDbLine
 62
7
  6
CONTINUOUS
 10
147.912602775
 20
159.777228891
 11
148.1357273269
 21
159.777228891
  0
LINE
  5
410
100
AcDbEntity
  8
0
100
AcDbLine
 62
7
  6
CONTINUOUS
 10
153.1844871102
 20
159.777228891
 11
153.4093787015
 21
159.777228891
  0
LINE
  5
411
100
AcDbEntity
  8
0
100
AcDbLine
 62
7
  6
CONTINUOUS
 10
158.712602775
 20
159.777228891
 11
158.9357140521
 21
159.777228891
  0
LINE
  5
412
100
AcDbEntity
  8
0
100
AcDbLine
 62
7
  6
CONTINUOUS
 10
163.9844871102
 20
159.777228891
 11
164.2093787015
 21
159.777228891
  0
LINE
  5
413
100
AcDbEntity
  8
0
100
AcDbLine
 62
7
  6
CONTINUOUS
 10
169.512602775
 20
159.777228891
 11
169.7357140521
 21
159.777228891
  0
LINE
  5
414
100
AcDbEntity
  8
0
100
AcDbLine
 62
7
  6
CONTINUOUS
 10
121.4107691607
 20
180.4445467965
 11
121.3274272153
 21
180.543665368
  0
LINE
  5
415
100
AcDbEntity
  8
0
100
AcDbLine
 62
7
  6
CONTINUOUS
 10
122.9112123159
 20
182.3099109856
 11
122.9945542613
 21
182.210792414
  0
LINE
  5
416
100
AcDbEntity
  8
0
100
AcDbLine
 62
7
  6
CONTINUOUS
 10
139.1109907383
 20
147.577228891
 11
139.1109907383
 21
151.377228891
  0
LINE
  5
417
100
AcDbEntity
  8
0
100
AcDbLine
 62
7
  6
CONTINUOUS
 10
139.1109907383
 20
181.377228891
 11
139.1109907383
 21
185.177228891
  0
LINE
  5
418
100
AcDbEntity
  8
0
100
AcDbLine
 62
7
  6
CONTINUOUS
 10
139.2609907383
 20
132.877228891
 11
139.2609907383
 21
137.377228891
  0
LINE
  5
419
100
AcDbEntity
  8
0
100
AcDbLine
 62
7
  6
CONTINUOUS
 10
139.2609907383
 20
195.377228891
 11
139.2609907383
 21
199.877228891
  0
LINE
  5
41A
100
AcDbEntity
  8
0
100
AcDbLine
 62
7
  6
CONTINUOUS
 10
140.4609907383
 20
199.877228891
 11
140.4609907383
 21
195.377228891
  0
LINE
  5
41B
100
AcDbEntity
  8
0
100
AcDbLine
 62
7
  6
CONTINUOUS
 10
140.4609907383
 20
137.377228891
 11
140.4609907383
 21
132.877228891
  0
LINE
  5
41C
100
AcDbEntity
  8
0
100
AcDbLine
 62
7
  6
CONTINUOUS
 10
140.6109907383
 20
185.177228891
 11
140.6109907383
 21
181.377228891
  0
LINE
  5
41D
100
AcDbEntity
  8
0
100
AcDbLine
 62
7
  6
CONTINUOUS
 10
140.6109907383
 20
151.377228891
 11
140.6109907383
 21
147.577228891
  0
LINE
  5
41E
100
AcDbEntity
  8
0
100
AcDbLine
 62
7
  6
CONTINUOUS
 10
141.0609907383
 20
199.877228891
 11
141.0609907383
 21
198.377228891
  0
LINE
  5
41F
100
AcDbEntity
  8
0
100
AcDbLine
 62
7
  6
CONTINUOUS
 10
141.0609907383
 20
132.877228891
 11
141.0609907383
 21
134.377228891
  0
LINE
  5
420
100
AcDbEntity
  8
0
100
AcDbLine
 62
7
  6
CONTINUOUS
 10
141.2609907383
 20
156.377228891
 11
141.2609907383
 21
161.377228891
  0
LINE
  5
421
100
AcDbEntity
  8
0
100
AcDbLine
 62
7
  6
CONTINUOUS
 10
141.2609907383
 20
171.377228891
 11
141.2609907383
 21
176.377228891
  0
LINE
  5
422
100
AcDbEntity
  8
0
100
AcDbLine
 62
7
  6
CONTINUOUS
 10
141.3609907383
 20
182.377228891
 11
141.3609907383
 21
181.377228891
  0
LINE
  5
423
100
AcDbEntity
  8
0
100
AcDbLine
 62
7
  6
CONTINUOUS
 10
141.3609907383
 20
151.377228891
 11
141.3609907383
 21
150.377228891
  0
LINE
  5
424
100
AcDbEntity
  8
0
100
AcDbLine
 62
7
  6
CONTINUOUS
 10
121.1120141513
 20
140.2042051822
 11
120.3225131072
 21
139.0387512599
  0
LINE
  5
425
100
AcDbEntity
  8
0
100
AcDbLine
 62
7
  6
CONTINUOUS
 10
123.2099673253
 20
141.5502525998
 11
123.9994683694
 21
142.7157065221
  0
LINE
  5
426
100
AcDbEntity
  8
0
100
AcDbLine
 62
7
  6
CONTINUOUS
 10
121.3274272153
 20
150.543665368
 11
120.3225131072
 21
149.5387512599
  0
LINE
  5
427
100
AcDbEntity
  8
0
100
AcDbLine
 62
7
  6
CONTINUOUS
 10
121.4107691607
 20
150.6270073134
 11
121.5609907383
 21
150.777228891
  0
LINE
  5
428
100
AcDbEntity
  8
0
100
AcDbLine
 62
7
  6
CONTINUOUS
 10
122.7609907383
 20
151.977228891
 11
122.9112123159
 21
152.1274504686
  0
LINE
  5
429
100
AcDbEntity
  8
0
100
AcDbLine
 62
7
  6
CONTINUOUS
 10
122.9945542613
 20
152.210792414
 11
123.9994683694
 21
153.2157065221
  0
LINE
  5
42A
100
AcDbEntity
  8
0
100
AcDbLine
 62
7
  6
CONTINUOUS
 10
121.2283086437
 20
152.1274504686
 11
121.3274272153
 21
152.210792414
  0
LINE
  5
42B
100
AcDbEntity
  8
0
100
AcDbLine
 62
7
  6
CONTINUOUS
 10
131.4609896882
 20
162.377228891
 11
137.4609911073
 21
162.377228891
  0
LINE
  5
42C
100
AcDbEntity
  8
0
100
AcDbLine
 62
7
  6
CONTINUOUS
 10
142.2609907383
 20
162.377228891
 11
148.2609907383
 21
162.377228891
  0
LINE
  5
42D
100
AcDbEntity
  8
0
100
AcDbLine
 62
7
  6
CONTINUOUS
 10
153.0609907383
 20
162.377228891
 11
159.0609907383
 21
162.377228891
  0
LINE
  5
42E
100
AcDbEntity
  8
0
100
AcDbLine
 62
7
  6
CONTINUOUS
 10
163.8609903677
 20
162.377228891
 11
169.8609917834
 21
162.377228891
  0
LINE
  5
42F
100
AcDbEntity
  8
0
100
AcDbLine
 62
7
  6
CONTINUOUS
 10
171.5109907383
 20
162.627228891
 11
171.4609907383
 21
162.627228891
  0
LINE
  5
430
100
AcDbEntity
  8
0
100
AcDbLine
 62
7
  6
CONTINUOUS
 10
129.8609907383
 20
162.627228891
 11
129.8109907383
 21
162.627228891
  0
LINE
  5
431
100
AcDbEntity
  8
0
100
AcDbLine
 62
7
  6
CONTINUOUS
 10
121.2283086437
 20
180.6270073134
 11
121.3274272153
 21
180.543665368
  0
LINE
  5
432
100
AcDbEntity
  8
0
100
AcDbLine
 62
7
  6
CONTINUOUS
 10
122.9945542613
 20
180.543665368
 11
123.9994683694
 21
179.5387512599
  0
LINE
  5
433
100
AcDbEntity
  8
0
100
AcDbLine
 62
7
  6
CONTINUOUS
 10
122.9112123159
 20
180.6270073134
 11
122.7609907383
 21
180.777228891
  0
LINE
  5
434
100
AcDbEntity
  8
0
100
AcDbLine
 62
7
  6
CONTINUOUS
 10
121.5609907383
 20
181.977228891
 11
121.4107691607
 21
182.1274504686
  0
LINE
  5
435
100
AcDbEntity
  8
0
100
AcDbLine
 62
7
  6
CONTINUOUS
 10
121.3274272153
 20
182.210792414
 11
120.3225131072
 21
183.2157065221
  0
LINE
  5
436
100
AcDbEntity
  8
0
100
AcDbLine
 62
7
  6
CONTINUOUS
 10
121.1120141513
 20
192.5502525998
 11
120.3225131072
 21
193.7157065221
  0
LINE
  5
437
100
AcDbEntity
  8
0
100
AcDbLine
 62
7
  6
CONTINUOUS
 10
123.2099673253
 20
191.2042051822
 11
123.9994683694
 21
190.0387512599
  0
LINE
  5
438
100
AcDbEntity
  8
02___PRT_ALL_AXES
100
AcDbLine
 62
7
  6
CONTINUOUS
 10
142.0109907383
 20
196.3678757613
 11
142.0109907383
 21
195.377228891
  0
LINE
  5
439
100
AcDbEntity
  8
02___PRT_ALL_AXES
100
AcDbLine
 62
7
  6
CONTINUOUS
 10
142.0109907383
 20
137.377228891
 11
142.0109907383
 21
136.3865820208
  0
LINE
  5
43A
100
AcDbEntity
  8
0
100
AcDbLine
 62
7
  6
CONTINUOUS
 10
142.3185085758
 20
201.2602470807
 11
142.3185085758
 21
201.0525490243
  0
LINE
  5
43B
100
AcDbEntity
  8
0
100
AcDbLine
 62
7
  6
CONTINUOUS
 10
142.3185085758
 20
195.7019087578
 11
142.3185085758
 21
195.4942107013
  0
LINE
  5
43C
100
AcDbEntity
  8
0
100
AcDbLine
 62
7
  6
CONTINUOUS
 10
142.3185085758
 20
137.2602470807
 11
142.3185085758
 21
137.0525490243
  0
LINE
  5
43D
100
AcDbEntity
  8
0
100
AcDbLine
 62
7
  6
CONTINUOUS
 10
142.3185085758
 20
131.7019087578
 11
142.3185085758
 21
131.4942107013
  0
LINE
  5
43E
100
AcDbEntity
  8
0
100
AcDbLine
 62
7
  6
CONTINUOUS
 10
143.2209907383
 20
131.462662045
 11
143.2209907383
 21
133.937228891
  0
LINE
  5
43F
100
AcDbEntity
  8
0
100
AcDbLine
 62
7
  6
CONTINUOUS
 10
143.2209907383
 20
134.817228891
 11
143.2209907383
 21
137.291795737
  0
LINE
  5
440
100
AcDbEntity
  8
0
100
AcDbLine
 62
7
  6
CONTINUOUS
 10
143.2209907383
 20
195.462662045
 11
143.2209907383
 21
197.937228891
  0
LINE
  5
441
100
AcDbEntity
  8
0
100
AcDbLine
 62
7
  6
CONTINUOUS
 10
143.2209907383
 20
198.817228891
 11
143.2209907383
 21
201.291795737
  0
LINE
  5
442
100
AcDbEntity
  8
0
100
AcDbLine
 62
7
  6
CONTINUOUS
 10
143.9185085758
 20
177.2742615669
 11
143.9185085758
 21
177.0525490243
  0
LINE
  5
443
100
AcDbEntity
  8
0
100
AcDbLine
 62
7
  6
CONTINUOUS
 10
143.9185085758
 20
171.7019087578
 11
143.9185085758
 21
171.4826567229
  0
LINE
  5
444
100
AcDbEntity
  8
0
100
AcDbLine
 62
7
  6
CONTINUOUS
 10
143.9185085758
 20
161.2738218889
 11
143.9185085758
 21
161.0525490243
  0
LINE
  5
445
100
AcDbEntity
  8
0
100
AcDbLine
 62
7
  6
CONTINUOUS
 10
143.9185085758
 20
155.7019087578
 11
143.9185085758
 21
155.4775491036
  0
LINE
  5
446
100
AcDbEntity
  8
0
100
AcDbLine
 62
7
  6
CONTINUOUS
 10
143.929785645
 20
190.2854784861
 11
143.929785645
 21
190.0583923306
  0
LINE
  5
447
100
AcDbEntity
  8
0
100
AcDbLine
 62
7
  6
CONTINUOUS
 10
143.929785645
 20
184.6960654514
 11
143.929785645
 21
184.4682528964
  0
LINE
  5
448
100
AcDbEntity
  8
0
100
AcDbLine
 62
7
  6
CONTINUOUS
 10
143.929785645
 20
148.2853120727
 11
143.929785645
 21
148.0583923306
  0
LINE
  5
449
100
AcDbEntity
  8
0
100
AcDbLine
 62
7
  6
CONTINUOUS
 10
143.929785645
 20
142.6960654514
 11
143.929785645
 21
142.4681830438
  0
LINE
  5
44A
100
AcDbEntity
  8
0
100
AcDbLine
 62
7
  6
CONTINUOUS
 10
144.1009907383
 20
201.291795737
 11
144.1009907383
 21
198.817228891
  0
LINE
  5
44B
100
AcDbEntity
  8
0
100
AcDbLine
 62
7
  6
CONTINUOUS
 10
144.1009907383
 20
137.291795737
 11
144.1009907383
 21
134.817228891
  0
LINE
  5
44C
100
AcDbEntity
  8
0
100
AcDbLine
 62
7
  6
CONTINUOUS
 10
144.1009907383
 20
131.462662045
 11
144.1009907383
 21
133.937228891
  0
LINE
  5
44D
100
AcDbEntity
  8
0
100
AcDbLine
 62
7
  6
CONTINUOUS
 10
144.1009907383
 20
195.462662045
 11
144.1009907383
 21
197.937228891
  0
LINE
  5
44E
100
AcDbEntity
  8
0
100
AcDbLine
 62
7
  6
CONTINUOUS
 10
144.8209907383
 20
142.462662045
 11
144.8209907383
 21
144.937228891
  0
LINE
  5
44F
100
AcDbEntity
  8
0
100
AcDbLine
 62
7
  6
CONTINUOUS
 10
144.8209907383
 20
145.817228891
 11
144.8209907383
 21
148.291795737
  0
LINE
  5
450
100
AcDbEntity
  8
0
100
AcDbLine
 62
7
  6
CONTINUOUS
 10
144.8209907383
 20
155.462662045
 11
144.8209907383
 21
157.937228891
  0
LINE
  5
451
100
AcDbEntity
  8
0
100
AcDbLine
 62
7
  6
CONTINUOUS
 10
144.8209907383
 20
158.817228891
 11
144.8209907383
 21
161.291795737
  0
LINE
  5
452
100
AcDbEntity
  8
0
100
AcDbLine
 62
7
  6
CONTINUOUS
 10
144.8209907383
 20
171.462662045
 11
144.8209907383
 21
173.937228891
  0
LINE
  5
453
100
AcDbEntity
  8
0
100
AcDbLine
 62
7
  6
CONTINUOUS
 10
144.8209907383
 20
174.817228891
 11
144.8209907383
 21
177.291795737
  0
LINE
  5
454
100
AcDbEntity
  8
0
100
AcDbLine
 62
7
  6
CONTINUOUS
 10
144.8209907383
 20
184.462662045
 11
144.8209907383
 21
186.937228891
  0
LINE
  5
455
100
AcDbEntity
  8
0
100
AcDbLine
 62
7
  6
CONTINUOUS
 10
144.8209907383
 20
187.817228891
 11
144.8209907383
 21
190.291795737
  0
LINE
  5
456
100
AcDbEntity
  8
0
100
AcDbLine
 62
7
  6
CONTINUOUS
 10
145.0034729008
 20
131.4942107013
 11
145.0034729008
 21
131.7019087578
  0
LINE
  5
457
100
AcDbEntity
  8
0
100
AcDbLine
 62
7
  6
CONTINUOUS
 10
145.0034729008
 20
137.0525490243
 11
145.0034729008
 21
137.2602470807
  0
LINE
  5
458
100
AcDbEntity
  8
0
100
AcDbLine
 62
7
  6
CONTINUOUS
 10
145.0034729008
 20
195.4942107013
 11
145.0034729008
 21
195.7019087578
  0
LINE
  5
459
100
AcDbEntity
  8
0
100
AcDbLine
 62
7
  6
CONTINUOUS
 10
145.0034729008
 20
201.0525490243
 11
145.0034729008
 21
201.2602470807
  0
LINE
  5
45A
100
AcDbEntity
  8
0
100
AcDbLine
 62
7
  6
CONTINUOUS
 10
121.4107691607
 20
141.8099109856
 11
121.3274272153
 21
141.710792414
  0
LINE
  5
45B
100
AcDbEntity
  8
0
100
AcDbLine
 62
7
  6
CONTINUOUS
 10
122.9112123159
 20
139.9445467965
 11
122.9945542613
 21
140.043665368
  0
LINE
  5
45C
100
AcDbEntity
  8
0
100
AcDbLine
 62
7
  6
CONTINUOUS
 10
123.0936728328
 20
150.6270073134
 11
122.9945542613
 21
150.543665368
  0
LINE
  5
45D
100
AcDbEntity
  8
0
100
AcDbLine
 62
7
  6
CONTINUOUS
 10
122.8340144471
 20
152.426205478
 11
123.9994683694
 21
153.2157065221
  0
LINE
  5
45E
100
AcDbEntity
  8
0
100
AcDbLine
 62
7
  6
CONTINUOUS
 10
121.4879670295
 20
150.328252304
 11
120.3225131072
 21
149.5387512599
  0
LINE
  5
45F
100
AcDbEntity
  8
0
100
AcDbLine
 62
7
  6
CONTINUOUS
 10
164.8609907383
 20
164.877228891
 11
168.8609907383
 21
164.877228891
  0
LINE
  5
460
100
AcDbEntity
  8
0
100
AcDbLine
 62
7
  6
CONTINUOUS
 10
165.1609907383
 20
165.377228891
 11
168.5609907383
 21
165.377228891
  0
LINE
  5
461
100
AcDbEntity
  8
0
100
AcDbLine
 62
7
  6
CONTINUOUS
 10
122.8340144471
 20
180.328252304
 11
123.9994683694
 21
179.5387512599
  0
LINE
  5
462
100
AcDbEntity
  8
0
100
AcDbLine
 62
7
  6
CONTINUOUS
 10
121.4879670295
 20
182.426205478
 11
120.3225131072
 21
183.2157065221
  0
LINE
  5
463
100
AcDbEntity
  8
0
100
AcDbLine
 62
7
  6
CONTINUOUS
 10
123.0936728328
 20
182.1274504686
 11
122.9945542613
 21
182.210792414
  0
LINE
  5
464
100
AcDbEntity
  8
0
100
AcDbLine
 62
7
  6
CONTINUOUS
 10
121.4107691607
 20
190.9445467965
 11
121.3274272153
 21
191.043665368
  0
LINE
  5
465
100
AcDbEntity
  8
0
100
AcDbLine
 62
7
  6
CONTINUOUS
 10
122.9112123159
 20
192.8099109856
 11
122.9945542613
 21
192.710792414
  0
LINE
  5
466
100
AcDbEntity
  8
0
100
AcDbLine
 62
7
  6
CONTINUOUS
 10
145.7009907383
 20
190.291795737
 11
145.7009907383
 21
187.817228891
  0
LINE
  5
467
100
AcDbEntity
  8
0
100
AcDbLine
 62
7
  6
CONTINUOUS
 10
145.7009907383
 20
177.291795737
 11
145.7009907383
 21
174.817228891
  0
LINE
  5
468
100
AcDbEntity
  8
0
100
AcDbLine
 62
7
  6
CONTINUOUS
 10
145.7009907383
 20
161.291795737
 11
145.7009907383
 21
158.817228891
  0
LINE
  5
469
100
AcDbEntity
  8
0
100
AcDbLine
 62
7
  6
CONTINUOUS
 10
145.7009907383
 20
148.291795737
 11
145.7009907383
 21
145.817228891
  0
LINE
  5
46A
100
AcDbEntity
  8
0
100
AcDbLine
 62
7
  6
CONTINUOUS
 10
145.7009907383
 20
142.462662045
 11
145.7009907383
 21
144.937228891
  0
LINE
  5
46B
100
AcDbEntity
  8
0
100
AcDbLine
 62
7
  6
CONTINUOUS
 10
145.7009907383
 20
155.462662045
 11
145.7009907383
 21
157.937228891
  0
LINE
  5
46C
100
AcDbEntity
  8
0
100
AcDbLine
 62
7
  6
CONTINUOUS
 10
145.7009907383
 20
171.462662045
 11
145.7009907383
 21
173.937228891
  0
LINE
  5
46D
100
AcDbEntity
  8
0
100
AcDbLine
 62
7
  6
CONTINUOUS
 10
145.7009907383
 20
184.462662045
 11
145.7009907383
 21
186.937228891
  0
LINE
  5
46E
100
AcDbEntity
  8
0
100
AcDbLine
 62
7
  6
CONTINUOUS
 10
146.5921958315
 20
142.4692491682
 11
146.5921958315
 21
142.6960654514
  0
LINE
  5
46F
100
AcDbEntity
  8
0
100
AcDbLine
 62
7
  6
CONTINUOUS
 10
146.5921958315
 20
148.0583923306
 11
146.5921958315
 21
148.2862953096
  0
LINE
  5
470
100
AcDbEntity
  8
0
100
AcDbLine
 62
7
  6
CONTINUOUS
 10
146.5921958315
 20
184.4690307992
 11
146.5921958315
 21
184.6960654514
  0
LINE
  5
471
100
AcDbEntity
  8
0
100
AcDbLine
 62
7
  6
CONTINUOUS
 10
146.5921958315
 20
190.0583923306
 11
146.5921958315
 21
190.2857315468
  0
LINE
  5
472
100
AcDbEntity
  8
0
100
AcDbLine
 62
7
  6
CONTINUOUS
 10
146.6034729008
 20
155.4784105214
 11
146.6034729008
 21
155.7019087578
  0
LINE
  5
473
100
AcDbEntity
  8
0
100
AcDbLine
 62
7
  6
CONTINUOUS
 10
146.6034729008
 20
161.0525490243
 11
146.6034729008
 21
161.2713997852
  0
LINE
  5
474
100
AcDbEntity
  8
0
100
AcDbLine
 62
7
  6
CONTINUOUS
 10
146.6034729008
 20
171.4825884028
 11
146.6034729008
 21
171.7019087578
  0
LINE
  5
475
100
AcDbEntity
  8
0
100
AcDbLine
 62
7
  6
CONTINUOUS
 10
146.6034729008
 20
177.0525490243
 11
146.6034729008
 21
177.2757512938
  0
LINE
  5
476
100
AcDbEntity
  8
0
100
AcDbLine
 62
7
  6
CONTINUOUS
 10
121.3274272153
 20
140.043665368
 11
120.3225131072
 21
139.0387512599
  0
LINE
  5
477
100
AcDbEntity
  8
0
100
AcDbLine
 62
7
  6
CONTINUOUS
 10
121.4107691607
 20
140.1270073134
 11
121.5609907383
 21
140.277228891
  0
LINE
  5
478
100
AcDbEntity
  8
0
100
AcDbLine
 62
7
  6
CONTINUOUS
 10
122.7609907383
 20
141.477228891
 11
122.9112123159
 21
141.6274504686
  0
LINE
  5
479
100
AcDbEntity
  8
0
100
AcDbLine
 62
7
  6
CONTINUOUS
 10
122.9945542613
 20
141.710792414
 11
123.9994683694
 21
142.7157065221
  0
LINE
  5
47A
100
AcDbEntity
  8
0
100
AcDbLine
 62
7
  6
CONTINUOUS
 10
168.5609907383
 20
167.377228891
 11
165.1609907383
 21
167.377228891
  0
LINE
  5
47B
100
AcDbEntity
  8
0
100
AcDbLine
 62
7
  6
CONTINUOUS
 10
168.8609907383
 20
167.877228891
 11
164.8609907383
 21
167.877228891
  0
LINE
  5
47C
100
AcDbEntity
  8
0
100
AcDbLine
 62
7
  6
CONTINUOUS
 10
122.9945542613
 20
191.043665368
 11
123.9994683694
 21
190.0387512599
  0
LINE
  5
47D
100
AcDbEntity
  8
0
100
AcDbLine
 62
7
  6
CONTINUOUS
 10
122.9112123159
 20
191.1270073134
 11
122.7609907383
 21
191.277228891
  0
LINE
  5
47E
100
AcDbEntity
  8
0
100
AcDbLine
 62
7
  6
CONTINUOUS
 10
121.5609907383
 20
192.477228891
 11
121.4107691607
 21
192.6274504686
  0
LINE
  5
47F
100
AcDbEntity
  8
0
100
AcDbLine
 62
7
  6
CONTINUOUS
 10
121.3274272153
 20
192.710792414
 11
120.3225131072
 21
193.7157065221
  0
LINE
  5
480
100
AcDbEntity
  8
0
100
AcDbLine
 62
7
  6
CONTINUOUS
 10
148.5109907383
 20
132.877228891
 11
148.5109907383
 21
137.377228891
  0
LINE
  5
481
100
AcDbEntity
  8
0
100
AcDbLine
 62
7
  6
CONTINUOUS
 10
148.5109907383
 20
195.377228891
 11
148.5109907383
 21
199.877228891
  0
LINE
  5
482
100
AcDbEntity
  8
0
100
AcDbLine
 62
7
  6
CONTINUOUS
 10
148.6609907383
 20
181.377228891
 11
148.6609907383
 21
184.377228891
  0
LINE
  5
483
100
AcDbEntity
  8
0
100
AcDbLine
 62
7
  6
CONTINUOUS
 10
149.0609907383
 20
204.677228891
 11
149.0609907383
 21
203.877228891
  0
LINE
  5
484
100
AcDbEntity
  8
0
100
AcDbLine
 62
7
  6
CONTINUOUS
 10
149.0609907383
 20
128.077228891
 11
149.0609907383
 21
128.877228891
  0
LINE
  5
485
100
AcDbEntity
  8
0
100
AcDbLine
 62
7
  6
CONTINUOUS
 10
149.1609907383
 20
182.377228891
 11
149.1609907383
 21
181.377228891
  0
LINE
  5
486
100
AcDbEntity
  8
0
100
AcDbLine
 62
7
  6
CONTINUOUS
 10
149.1609907383
 20
151.377228891
 11
149.1609907383
 21
150.377228891
  0
LINE
  5
487
100
AcDbEntity
  8
0
100
AcDbLine
 62
7
  6
CONTINUOUS
 10
149.2609907383
 20
176.377228891
 11
149.2609907383
 21
171.377228891
  0
LINE
  5
488
100
AcDbEntity
  8
0
100
AcDbLine
 62
7
  6
CONTINUOUS
 10
149.2609907383
 20
161.377228891
 11
149.2609907383
 21
156.377228891
  0
LINE
  5
489
100
AcDbEntity
  8
0
100
AcDbLine
 62
7
  6
CONTINUOUS
 10
149.7609907383
 20
204.677228891
 11
149.7609907383
 21
203.877228891
  0
LINE
  5
48A
100
AcDbEntity
  8
0
100
AcDbLine
 62
7
  6
CONTINUOUS
 10
149.7609907383
 20
128.877228891
 11
149.7609907383
 21
128.077228891
  0
LINE
  5
48B
100
AcDbEntity
  8
0
100
AcDbLine
 62
7
  6
CONTINUOUS
 10
149.9109907383
 20
147.577228891
 11
149.9109907383
 21
151.377228891
  0
LINE
  5
48C
100
AcDbEntity
  8
0
100
AcDbLine
 62
7
  6
CONTINUOUS
 10
149.9109907383
 20
181.377228891
 11
149.9109907383
 21
185.177228891
  0
LINE
  5
48D
100
AcDbEntity
  8
0
100
AcDbLine
 62
7
  6
CONTINUOUS
 10
150.0609907383
 20
132.877228891
 11
150.0609907383
 21
137.377228891
  0
LINE
  5
48E
100
AcDbEntity
  8
0
100
AcDbLine
 62
7
  6
CONTINUOUS
 10
150.0609907383
 20
195.377228891
 11
150.0609907383
 21
199.877228891
  0
LINE
  5
48F
100
AcDbEntity
  8
0
100
AcDbLine
 62
7
  6
CONTINUOUS
 10
151.2609907383
 20
199.877228891
 11
151.2609907383
 21
195.377228891
  0
LINE
  5
490
100
AcDbEntity
  8
0
100
AcDbLine
 62
7
  6
CONTINUOUS
 10
151.2609907383
 20
137.377228891
 11
151.2609907383
 21
132.877228891
  0
LINE
  5
491
100
AcDbEntity
  8
0
100
AcDbLine
 62
7
  6
CONTINUOUS
 10
151.4109907383
 20
185.177228891
 11
151.4109907383
 21
181.377228891
  0
LINE
  5
492
100
AcDbEntity
  8
0
100
AcDbLine
 62
7
  6
CONTINUOUS
 10
151.4109907383
 20
151.377228891
 11
151.4109907383
 21
147.577228891
  0
LINE
  5
493
100
AcDbEntity
  8
0
100
AcDbLine
 62
7
  6
CONTINUOUS
 10
121.2283086437
 20
141.6274504686
 11
121.3274272153
 21
141.710792414
  0
LINE
  5
494
100
AcDbEntity
  8
0
100
AcDbLine
 62
7
  6
CONTINUOUS
 10
123.0936728328
 20
140.1270073134
 11
122.9945542613
 21
140.043665368
  0
LINE
  5
495
100
AcDbEntity
  8
0
100
AcDbLine
 62
7
  6
CONTINUOUS
 10
129.8109907383
 20
170.127228891
 11
129.8609907383
 21
170.127228891
  0
LINE
  5
496
100
AcDbEntity
  8
0
100
AcDbLine
 62
7
  6
CONTINUOUS
 10
171.4609907383
 20
170.127228891
 11
171.5109907383
 21
170.127228891
  0
LINE
  5
497
100
AcDbEntity
  8
0
100
AcDbLine
 62
7
  6
CONTINUOUS
 10
169.8609917884
 20
170.377228891
 11
163.8609903693
 21
170.377228891
  0
LINE
  5
498
100
AcDbEntity
  8
0
100
AcDbLine
 62
7
  6
CONTINUOUS
 10
159.0609907383
 20
170.377228891
 11
153.0609907383
 21
170.377228891
  0
LINE
  5
499
100
AcDbEntity
  8
0
100
AcDbLine
 62
7
  6
CONTINUOUS
 10
148.2609907383
 20
170.377228891
 11
142.2609907383
 21
170.377228891
  0
LINE
  5
49A
100
AcDbEntity
  8
0
100
AcDbLine
 62
7
  6
CONTINUOUS
 10
137.4609911088
 20
170.377228891
 11
131.4609896932
 21
170.377228891
  0
LINE
  5
49B
100
AcDbEntity
  8
0
100
AcDbLine
 62
7
  6
CONTINUOUS
 10
169.7373964624
 20
172.977228891
 11
169.512602775
 21
172.977228891
  0
LINE
  5
49C
100
AcDbEntity
  8
0
100
AcDbLine
 62
7
  6
CONTINUOUS
 10
164.2093787015
 20
172.977228891
 11
163.9862541497
 21
172.977228891
  0
LINE
  5
49D
100
AcDbEntity
  8
0
100
AcDbLine
 62
7
  6
CONTINUOUS
 10
158.9373964624
 20
172.977228891
 11
158.712602775
 21
172.977228891
  0
LINE
  5
49E
100
AcDbEntity
  8
0
100
AcDbLine
 62
7
  6
CONTINUOUS
 10
153.4093787015
 20
172.977228891
 11
153.1862541497
 21
172.977228891
  0
LINE
  5
49F
100
AcDbEntity
  8
0
100
AcDbLine
 62
7
  6
CONTINUOUS
 10
148.1374943664
 20
172.977228891
 11
147.912602775
 21
172.977228891
  0
LINE
  5
4A0
100
AcDbEntity
  8
0
100
AcDbLine
 62
7
  6
CONTINUOUS
 10
142.6093787015
 20
172.977228891
 11
142.3862674244
 21
172.977228891
  0
LINE
  5
4A1
100
AcDbEntity
  8
0
100
AcDbLine
 62
7
  6
CONTINUOUS
 10
137.3374943664
 20
172.977228891
 11
137.112602775
 21
172.977228891
  0
LINE
  5
4A2
100
AcDbEntity
  8
0
100
AcDbLine
 62
7
  6
CONTINUOUS
 10
131.8093787015
 20
172.977228891
 11
131.5862674244
 21
172.977228891
  0
LINE
  5
4A3
100
AcDbEntity
  8
0
100
AcDbLine
 62
7
  6
CONTINUOUS
 10
121.2283086437
 20
191.1270073134
 11
121.3274272153
 21
191.043665368
  0
LINE
  5
4A4
100
AcDbEntity
  8
0
100
AcDbLine
 62
7
  6
CONTINUOUS
 10
123.0936728328
 20
192.6274504686
 11
122.9945542613
 21
192.710792414
  0
LINE
  5
4A5
100
AcDbEntity
  8
0
100
AcDbLine
 62
7
  6
CONTINUOUS
 10
151.5609907383
 20
128.077228891
 11
151.5609907383
 21
128.877228891
  0
LINE
  5
4A6
100
AcDbEntity
  8
0
100
AcDbLine
 62
7
  6
CONTINUOUS
 10
151.5609907383
 20
203.877228891
 11
151.5609907383
 21
204.677228891
  0
LINE
  5
4A7
100
AcDbEntity
  8
0
100
AcDbLine
 62
7
  6
CONTINUOUS
 10
152.0609907383
 20
156.377228891
 11
152.0609907383
 21
161.377228891
  0
LINE
  5
4A8
100
AcDbEntity
  8
0
100
AcDbLine
 62
7
  6
CONTINUOUS
 10
152.0609907383
 20
171.377228891
 11
152.0609907383
 21
176.377228891
  0
LINE
  5
4A9
100
AcDbEntity
  8
0
100
AcDbLine
 62
7
  6
CONTINUOUS
 10
152.1609907383
 20
182.377228891
 11
152.1609907383
 21
181.377228891
  0
LINE
  5
4AA
100
AcDbEntity
  8
0
100
AcDbLine
 62
7
  6
CONTINUOUS
 10
152.1609907383
 20
151.377228891
 11
152.1609907383
 21
150.377228891
  0
LINE
  5
4AB
100
AcDbEntity
  8
0
100
AcDbLine
 62
7
  6
CONTINUOUS
 10
152.2609907383
 20
204.677228891
 11
152.2609907383
 21
203.877228891
  0
LINE
  5
4AC
100
AcDbEntity
  8
0
100
AcDbLine
 62
7
  6
CONTINUOUS
 10
152.2609907383
 20
128.077228891
 11
152.2609907383
 21
128.877228891
  0
LINE
  5
4AD
100
AcDbEntity
  8
0
100
AcDbLine
 62
7
  6
CONTINUOUS
 10
152.6609907383
 20
184.377228891
 11
152.6609907383
 21
181.377228891
  0
LINE
  5
4AE
100
AcDbEntity
  8
0
100
AcDbLine
 62
7
  6
CONTINUOUS
 10
152.8109907383
 20
199.877228891
 11
152.8109907383
 21
195.377228891
  0
LINE
  5
4AF
100
AcDbEntity
  8
0
100
AcDbLine
 62
7
  6
CONTINUOUS
 10
152.8109907383
 20
137.377228891
 11
152.8109907383
 21
132.877228891
  0
LINE
  5
4B0
100
AcDbEntity
  8
0
100
AcDbLine
 62
7
  6
CONTINUOUS
 10
123.1609907383
 20
130.877228891
 11
124.1609907383
 21
131.877228891
  0
LINE
  5
4B1
100
AcDbEntity
  8
0
100
AcDbLine
 62
7
  6
CONTINUOUS
 10
122.8340144471
 20
141.926205478
 11
123.9994683694
 21
142.7157065221
  0
LINE
  5
4B2
100
AcDbEntity
  8
0
100
AcDbLine
 62
7
  6
CONTINUOUS
 10
121.4879670295
 20
139.828252304
 11
120.3225131072
 21
139.0387512599
  0
LINE
  5
4B3
100
AcDbEntity
  8
0
100
AcDbLine
 62
7
  6
CONTINUOUS
 10
169.7755575843
 20
173.937228891
 11
167.3009907383
 21
173.937228891
  0
LINE
  5
4B4
100
AcDbEntity
  8
0
100
AcDbLine
 62
7
  6
CONTINUOUS
 10
158.9755575843
 20
173.937228891
 11
156.5009907383
 21
173.937228891
  0
LINE
  5
4B5
100
AcDbEntity
  8
0
100
AcDbLine
 62
7
  6
CONTINUOUS
 10
148.1755575843
 20
173.937228891
 11
145.7009907383
 21
173.937228891
  0
LINE
  5
4B6
100
AcDbEntity
  8
0
100
AcDbLine
 62
7
  6
CONTINUOUS
 10
137.3755575843
 20
173.937228891
 11
134.9009907383
 21
173.937228891
  0
LINE
  5
4B7
100
AcDbEntity
  8
0
100
AcDbLine
 62
7
  6
CONTINUOUS
 10
131.5464238923
 20
173.937228891
 11
134.0209907383
 21
173.937228891
  0
LINE
  5
4B8
100
AcDbEntity
  8
0
100
AcDbLine
 62
7
  6
CONTINUOUS
 10
142.3464238923
 20
173.937228891
 11
144.8209907383
 21
173.937228891
  0
LINE
  5
4B9
100
AcDbEntity
  8
0
100
AcDbLine
 62
7
  6
CONTINUOUS
 10
153.1464238923
 20
173.937228891
 11
155.6209907383
 21
173.937228891
  0
LINE
  5
4BA
100
AcDbEntity
  8
0
100
AcDbLine
 62
7
  6
CONTINUOUS
 10
163.9464238923
 20
173.937228891
 11
166.4209907383
 21
173.937228891
  0
LINE
  5
4BB
100
AcDbEntity
  8
0
100
AcDbLine
 62
7
  6
CONTINUOUS
 10
131.5464238923
 20
174.817228891
 11
134.0209907383
 21
174.817228891
  0
LINE
  5
4BC
100
AcDbEntity
  8
0
100
AcDbLine
 62
7
  6
CONTINUOUS
 10
134.9009907383
 20
174.817228891
 11
137.3755575843
 21
174.817228891
  0
LINE
  5
4BD
100
AcDbEntity
  8
0
100
AcDbLine
 62
7
  6
CONTINUOUS
 10
142.3464238923
 20
174.817228891
 11
144.8209907383
 21
174.817228891
  0
LINE
  5
4BE
100
AcDbEntity
  8
0
100
AcDbLine
 62
7
  6
CONTINUOUS
 10
145.7009907383
 20
174.817228891
 11
148.1755575843
 21
174.817228891
  0
LINE
  5
4BF
100
AcDbEntity
  8
0
100
AcDbLine
 62
7
  6
CONTINUOUS
 10
153.1464238923
 20
174.817228891
 11
155.6209907383
 21
174.817228891
  0
LINE
  5
4C0
100
AcDbEntity
  8
0
100
AcDbLine
 62
7
  6
CONTINUOUS
 10
156.5009907383
 20
174.817228891
 11
158.9755575843
 21
174.817228891
  0
LINE
  5
4C1
100
AcDbEntity
  8
0
100
AcDbLine
 62
7
  6
CONTINUOUS
 10
163.9464238923
 20
174.817228891
 11
166.4209907383
 21
174.817228891
  0
LINE
  5
4C2
100
AcDbEntity
  8
0
100
AcDbLine
 62
7
  6
CONTINUOUS
 10
167.3009907383
 20
174.817228891
 11
169.7755575843
 21
174.817228891
  0
LINE
  5
4C3
100
AcDbEntity
  8
0
100
AcDbLine
 62
7
  6
CONTINUOUS
 10
131.5841018987
 20
175.777228891
 11
131.8093787015
 21
175.777228891
  0
LINE
  5
4C4
100
AcDbEntity
  8
0
100
AcDbLine
 62
7
  6
CONTINUOUS
 10
137.112602775
 20
175.777228891
 11
137.3374434927
 21
175.777228891
  0
LINE
  5
4C5
100
AcDbEntity
  8
0
100
AcDbLine
 62
7
  6
CONTINUOUS
 10
142.3841018987
 20
175.777228891
 11
142.6093787015
 21
175.777228891
  0
LINE
  5
4C6
100
AcDbEntity
  8
0
100
AcDbLine
 62
7
  6
CONTINUOUS
 10
147.912602775
 20
175.777228891
 11
148.1374434927
 21
175.777228891
  0
LINE
  5
4C7
100
AcDbEntity
  8
0
100
AcDbLine
 62
7
  6
CONTINUOUS
 10
153.1841085481
 20
175.777228891
 11
153.4093787015
 21
175.777228891
  0
LINE
  5
4C8
100
AcDbEntity
  8
0
100
AcDbLine
 62
7
  6
CONTINUOUS
 10
158.712602775
 20
175.777228891
 11
158.9374459044
 21
175.777228891
  0
LINE
  5
4C9
100
AcDbEntity
  8
0
100
AcDbLine
 62
7
  6
CONTINUOUS
 10
163.9841085481
 20
175.777228891
 11
164.2093787015
 21
175.777228891
  0
LINE
  5
4CA
100
AcDbEntity
  8
0
100
AcDbLine
 62
7
  6
CONTINUOUS
 10
169.512602775
 20
175.777228891
 11
169.7374459044
 21
175.777228891
  0
LINE
  5
4CB
100
AcDbEntity
  8
0
100
AcDbLine
 62
7
  6
CONTINUOUS
 10
122.8340144471
 20
190.828252304
 11
123.9994683694
 21
190.0387512599
  0
LINE
  5
4CC
100
AcDbEntity
  8
0
100
AcDbLine
 62
7
  6
CONTINUOUS
 10
121.4879670295
 20
192.926205478
 11
120.3225131072
 21
193.7157065221
  0
LINE
  5
4CD
100
AcDbEntity
  8
0
100
AcDbLine
 62
7
  6
CONTINUOUS
 10
124.1609907383
 20
200.877228891
 11
123.1609907383
 21
201.877228891
  0
LINE
  5
4CE
100
AcDbEntity
  8
0
100
AcDbLine
 62
7
  6
CONTINUOUS
 10
154.7185085758
 20
177.2760472606
 11
154.7185085758
 21
177.0525490243
  0
LINE
  5
4CF
100
AcDbEntity
  8
0
100
AcDbLine
 62
7
  6
CONTINUOUS
 10
154.7185085758
 20
171.7019087578
 11
154.7185085758
 21
171.4830579968
  0
LINE
  5
4D0
100
AcDbEntity
  8
0
100
AcDbLine
 62
7
  6
CONTINUOUS
 10
154.7185085758
 20
161.2718693792
 11
154.7185085758
 21
161.0525490243
  0
LINE
  5
4D1
100
AcDbEntity
  8
0
100
AcDbLine
 62
7
  6
CONTINUOUS
 10
154.7185085758
 20
155.7019087578
 11
154.7185085758
 21
155.4787064883
  0
LINE
  5
4D2
100
AcDbEntity
  8
0
100
AcDbLine
 62
7
  6
CONTINUOUS
 10
154.729785645
 20
190.2852086138
 11
154.729785645
 21
190.0583923306
  0
LINE
  5
4D3
100
AcDbEntity
  8
0
100
AcDbLine
 62
7
  6
CONTINUOUS
 10
154.729785645
 20
184.6960654514
 11
154.729785645
 21
184.4681624724
  0
LINE
  5
4D4
100
AcDbEntity
  8
0
100
AcDbLine
 62
7
  6
CONTINUOUS
 10
154.729785645
 20
148.2854269828
 11
154.729785645
 21
148.0583923306
  0
LINE
  5
4D5
100
AcDbEntity
  8
0
100
AcDbLine
 62
7
  6
CONTINUOUS
 10
154.729785645
 20
142.6960654514
 11
154.729785645
 21
142.4687262352
  0
LINE
  5
4D6
100
AcDbEntity
  8
0
100
AcDbLine
 62
7
  6
CONTINUOUS
 10
155.6209907383
 20
142.462662045
 11
155.6209907383
 21
144.937228891
  0
LINE
  5
4D7
100
AcDbEntity
  8
0
100
AcDbLine
 62
7
  6
CONTINUOUS
 10
155.6209907383
 20
145.817228891
 11
155.6209907383
 21
148.291795737
  0
LINE
  5
4D8
100
AcDbEntity
  8
0
100
AcDbLine
 62
7
  6
CONTINUOUS
 10
155.6209907383
 20
155.462662045
 11
155.6209907383
 21
157.937228891
  0
LINE
  5
4D9
100
AcDbEntity
  8
0
100
AcDbLine
 62
7
  6
CONTINUOUS
 10
155.6209907383
 20
158.817228891
 11
155.6209907383
 21
161.291795737
  0
LINE
  5
4DA
100
AcDbEntity
  8
0
100
AcDbLine
 62
7
  6
CONTINUOUS
 10
155.6209907383
 20
171.462662045
 11
155.6209907383
 21
173.937228891
  0
LINE
  5
4DB
100
AcDbEntity
  8
0
100
AcDbLine
 62
7
  6
CONTINUOUS
 10
155.6209907383
 20
174.817228891
 11
155.6209907383
 21
177.291795737
  0
LINE
  5
4DC
100
AcDbEntity
  8
0
100
AcDbLine
 62
7
  6
CONTINUOUS
 10
155.6209907383
 20
184.462662045
 11
155.6209907383
 21
186.937228891
  0
LINE
  5
4DD
100
AcDbEntity
  8
0
100
AcDbLine
 62
7
  6
CONTINUOUS
 10
155.6209907383
 20
187.817228891
 11
155.6209907383
 21
190.291795737
  0
LINE
  5
4DE
100
AcDbEntity
  8
0
100
AcDbLine
 62
7
  6
CONTINUOUS
 10
156.3185085758
 20
201.2602470807
 11
156.3185085758
 21
201.0525490243
  0
LINE
  5
4DF
100
AcDbEntity
  8
0
100
AcDbLine
 62
7
  6
CONTINUOUS
 10
156.3185085758
 20
195.7019087578
 11
156.3185085758
 21
195.4942107013
  0
LINE
  5
4E0
100
AcDbEntity
  8
0
100
AcDbLine
 62
7
  6
CONTINUOUS
 10
156.3185085758
 20
137.2602470807
 11
156.3185085758
 21
137.0525490243
  0
LINE
  5
4E1
100
AcDbEntity
  8
0
100
AcDbLine
 62
7
  6
CONTINUOUS
 10
156.3185085758
 20
131.7019087578
 11
156.3185085758
 21
131.4942107013
  0
LINE
  5
4E2
100
AcDbEntity
  8
0
100
AcDbLine
 62
7
  6
CONTINUOUS
 10
156.5009907383
 20
190.291795737
 11
156.5009907383
 21
187.817228891
  0
LINE
  5
4E3
100
AcDbEntity
  8
0
100
AcDbLine
 62
7
  6
CONTINUOUS
 10
156.5009907383
 20
177.291795737
 11
156.5009907383
 21
174.817228891
  0
LINE
  5
4E4
100
AcDbEntity
  8
0
100
AcDbLine
 62
7
  6
CONTINUOUS
 10
156.5009907383
 20
161.291795737
 11
156.5009907383
 21
158.817228891
  0
LINE
  5
4E5
100
AcDbEntity
  8
0
100
AcDbLine
 62
7
  6
CONTINUOUS
 10
156.5009907383
 20
148.291795737
 11
156.5009907383
 21
145.817228891
  0
LINE
  5
4E6
100
AcDbEntity
  8
0
100
AcDbLine
 62
7
  6
CONTINUOUS
 10
156.5009907383
 20
142.462662045
 11
156.5009907383
 21
144.937228891
  0
LINE
  5
4E7
100
AcDbEntity
  8
0
100
AcDbLine
 62
7
  6
CONTINUOUS
 10
156.5009907383
 20
155.462662045
 11
156.5009907383
 21
157.937228891
  0
LINE
  5
4E8
100
AcDbEntity
  8
0
100
AcDbLine
 62
7
  6
CONTINUOUS
 10
156.5009907383
 20
171.462662045
 11
156.5009907383
 21
173.937228891
  0
LINE
  5
4E9
100
AcDbEntity
  8
0
100
AcDbLine
 62
7
  6
CONTINUOUS
 10
156.5009907383
 20
184.462662045
 11
156.5009907383
 21
186.937228891
  0
LINE
  5
4EA
100
AcDbEntity
  8
0
100
AcDbLine
 62
7
  6
CONTINUOUS
 10
157.2209907383
 20
131.462662045
 11
157.2209907383
 21
133.937228891
  0
LINE
  5
4EB
100
AcDbEntity
  8
0
100
AcDbLine
 62
7
  6
CONTINUOUS
 10
157.2209907383
 20
134.817228891
 11
157.2209907383
 21
137.291795737
  0
LINE
  5
4EC
100
AcDbEntity
  8
0
100
AcDbLine
 62
7
  6
CONTINUOUS
 10
157.2209907383
 20
195.462662045
 11
157.2209907383
 21
197.937228891
  0
LINE
  5
4ED
100
AcDbEntity
  8
0
100
AcDbLine
 62
7
  6
CONTINUOUS
 10
157.2209907383
 20
198.817228891
 11
157.2209907383
 21
201.291795737
  0
LINE
  5
4EE
100
AcDbEntity
  8
0
100
AcDbLine
 62
7
  6
CONTINUOUS
 10
157.3921958315
 20
142.4689792959
 11
157.3921958315
 21
142.6960654514
  0
LINE
  5
4EF
100
AcDbEntity
  8
0
100
AcDbLine
 62
7
  6
CONTINUOUS
 10
157.3921958315
 20
148.0583923306
 11
157.3921958315
 21
148.2862048857
  0
LINE
  5
4F0
100
AcDbEntity
  8
0
100
AcDbLine
 62
7
  6
CONTINUOUS
 10
157.3921958315
 20
184.4691457093
 11
157.3921958315
 21
184.6960654514
  0
LINE
  5
4F1
100
AcDbEntity
  8
0
100
AcDbLine
 62
7
  6
CONTINUOUS
 10
157.3921958315
 20
190.0583923306
 11
157.3921958315
 21
190.2862747382
  0
LINE
  5
4F2
100
AcDbEntity
  8
0
100
AcDbLine
 62
7
  6
CONTINUOUS
 10
157.4034729008
 20
155.4801962151
 11
157.4034729008
 21
155.7019087578
  0
LINE
  5
4F3
100
AcDbEntity
  8
0
100
AcDbLine
 62
7
  6
CONTINUOUS
 10
157.4034729008
 20
161.0525490243
 11
157.4034729008
 21
161.2718010591
  0
LINE
  5
4F4
100
AcDbEntity
  8
0
100
AcDbLine
 62
7
  6
CONTINUOUS
 10
157.4034729008
 20
171.4806358931
 11
157.4034729008
 21
171.7019087578
  0
LINE
  5
4F5
100
AcDbEntity
  8
0
100
AcDbLine
 62
7
  6
CONTINUOUS
 10
157.4034729008
 20
177.0525490243
 11
157.4034729008
 21
177.2769086784
  0
LINE
  5
4F6
100
AcDbEntity
  8
0
100
AcDbLine
 62
7
  6
CONTINUOUS
 10
124.1609913123
 20
177.877228891
 11
120.1609895627
 21
177.877228891
  0
LINE
  5
4F7
100
AcDbEntity
  8
0
100
AcDbLine
 62
7
  6
CONTINUOUS
 10
129.8109907383
 20
178.377228891
 11
129.8609907383
 21
178.377228891
  0
LINE
  5
4F8
100
AcDbEntity
  8
0
100
AcDbLine
 62
7
  6
CONTINUOUS
 10
132.4609907383
 20
178.377228891
 11
136.4609907383
 21
178.377228891
  0
LINE
  5
4F9
100
AcDbEntity
  8
0
100
AcDbLine
 62
7
  6
CONTINUOUS
 10
143.2609907383
 20
178.377228891
 11
147.2609907383
 21
178.377228891
  0
LINE
  5
4FA
100
AcDbEntity
  8
0
100
AcDbLine
 62
7
  6
CONTINUOUS
 10
154.0609907383
 20
178.377228891
 11
158.0609907383
 21
178.377228891
  0
LINE
  5
4FB
100
AcDbEntity
  8
0
100
AcDbLine
 62
7
  6
CONTINUOUS
 10
164.8609907383
 20
178.377228891
 11
168.8609907383
 21
178.377228891
  0
LINE
  5
4FC
100
AcDbEntity
  8
0
100
AcDbLine
 62
7
  6
CONTINUOUS
 10
171.4609907383
 20
178.377228891
 11
171.5109907383
 21
178.377228891
  0
LINE
  5
4FD
100
AcDbEntity
  8
0
100
AcDbLine
 62
7
  6
CONTINUOUS
 10
122.7609907383
 20
179.377228891
 11
121.5609907383
 21
179.377228891
  0
LINE
  5
4FE
100
AcDbEntity
  8
0
100
AcDbLine
 62
7
  6
CONTINUOUS
 10
158.1009907383
 20
201.291795737
 11
158.1009907383
 21
198.817228891
  0
LINE
  5
4FF
100
AcDbEntity
  8
0
100
AcDbLine
 62
7
  6
CONTINUOUS
 10
158.1009907383
 20
137.291795737
 11
158.1009907383
 21
134.817228891
  0
LINE
  5
500
100
AcDbEntity
  8
0
100
AcDbLine
 62
7
  6
CONTINUOUS
 10
158.1009907383
 20
131.462662045
 11
158.1009907383
 21
133.937228891
  0
LINE
  5
501
100
AcDbEntity
  8
0
100
AcDbLine
 62
7
  6
CONTINUOUS
 10
158.1009907383
 20
195.462662045
 11
158.1009907383
 21
197.937228891
  0
LINE
  5
502
100
AcDbEntity
  8
0
100
AcDbLine
 62
7
  6
CONTINUOUS
 10
159.0034729008
 20
131.4942107013
 11
159.0034729008
 21
131.7019087578
  0
LINE
  5
503
100
AcDbEntity
  8
0
100
AcDbLine
 62
7
  6
CONTINUOUS
 10
159.0034729008
 20
137.0525490243
 11
159.0034729008
 21
137.2602470807
  0
LINE
  5
504
100
AcDbEntity
  8
0
100
AcDbLine
 62
7
  6
CONTINUOUS
 10
159.0034729008
 20
195.4942107013
 11
159.0034729008
 21
195.7019087578
  0
LINE
  5
505
100
AcDbEntity
  8
0
100
AcDbLine
 62
7
  6
CONTINUOUS
 10
159.0034729008
 20
201.0525490243
 11
159.0034729008
 21
201.2602470807
  0
LINE
  5
506
100
AcDbEntity
  8
02___PRT_ALL_AXES
100
AcDbLine
 62
7
  6
CONTINUOUS
 10
159.3109907383
 20
136.3865820208
 11
159.3109907383
 21
137.377228891
  0
LINE
  5
507
100
AcDbEntity
  8
02___PRT_ALL_AXES
100
AcDbLine
 62
7
  6
CONTINUOUS
 10
159.3109907383
 20
195.377228891
 11
159.3109907383
 21
196.3678757613
  0
LINE
  5
508
100
AcDbEntity
  8
0
100
AcDbLine
 62
7
  6
CONTINUOUS
 10
159.9609907383
 20
182.377228891
 11
159.9609907383
 21
181.377228891
  0
LINE
  5
509
100
AcDbEntity
  8
0
100
AcDbLine
 62
7
  6
CONTINUOUS
 10
159.9609907383
 20
151.377228891
 11
159.9609907383
 21
150.377228891
  0
LINE
  5
50A
100
AcDbEntity
  8
0
100
AcDbLine
 62
7
  6
CONTINUOUS
 10
160.0609907383
 20
176.377228891
 11
160.0609907383
 21
171.377228891
  0
LINE
  5
50B
100
AcDbEntity
  8
0
100
AcDbLine
 62
7
  6
CONTINUOUS
 10
160.0609907383
 20
161.377228891
 11
160.0609907383
 21
156.377228891
  0
LINE
  5
50C
100
AcDbEntity
  8
0
100
AcDbLine
 62
7
  6
CONTINUOUS
 10
160.2609907383
 20
199.877228891
 11
160.2609907383
 21
198.377228891
  0
LINE
  5
50D
100
AcDbEntity
  8
0
100
AcDbLine
 62
7
  6
CONTINUOUS
 10
160.2609907383
 20
132.877228891
 11
160.2609907383
 21
134.377228891
  0
LINE
  5
50E
100
AcDbEntity
  8
0
100
AcDbLine
 62
7
  6
CONTINUOUS
 10
160.7109907383
 20
147.577228891
 11
160.7109907383
 21
151.377228891
  0
LINE
  5
50F
100
AcDbEntity
  8
0
100
AcDbLine
 62
7
  6
CONTINUOUS
 10
160.7109907383
 20
181.377228891
 11
160.7109907383
 21
185.177228891
  0
LINE
  5
510
100
AcDbEntity
  8
0
100
AcDbLine
 62
7
  6
CONTINUOUS
 10
160.8609907383
 20
132.877228891
 11
160.8609907383
 21
137.377228891
  0
LINE
  5
511
100
AcDbEntity
  8
0
100
AcDbLine
 62
7
  6
CONTINUOUS
 10
160.8609907383
 20
195.377228891
 11
160.8609907383
 21
199.877228891
  0
LINE
  5
512
100
AcDbEntity
  8
0
100
AcDbLine
 62
7
  6
CONTINUOUS
 10
117.6609907383
 20
177.177228891
 11
122.1609907383
 21
177.677228891
  0
LINE
  5
513
100
AcDbEntity
  8
0
100
AcDbLine
 62
7
  6
CONTINUOUS
 10
117.6609907383
 20
177.277228891
 11
122.1609907383
 21
177.777228891
  0
LINE
  5
514
100
AcDbEntity
  8
0
100
AcDbLine
 62
7
  6
CONTINUOUS
 10
119.6092851498
 20
179.627228891
 11
119.7263189375
 21
179.627228891
  0
LINE
  5
515
100
AcDbEntity
  8
0
100
AcDbLine
 62
7
  6
CONTINUOUS
 10
124.595662539
 20
179.627228891
 11
124.7065280685
 21
179.627228891
  0
LINE
  5
516
100
AcDbEntity
  8
0
100
AcDbLine
 62
7
  6
CONTINUOUS
 10
129.8109907383
 20
180.377228891
 11
129.8609907383
 21
180.377228891
  0
LINE
  5
517
100
AcDbEntity
  8
0
100
AcDbLine
 62
7
  6
CONTINUOUS
 10
171.4609907383
 20
180.377228891
 11
171.5109907383
 21
180.377228891
  0
LINE
  5
518
100
AcDbEntity
  8
0
100
AcDbLine
 62
7
  6
CONTINUOUS
 10
119.2679510072
 20
180.777228891
 11
121.2331260424
 21
180.777228891
  0
LINE
  5
519
100
AcDbEntity
  8
0
100
AcDbLine
 62
7
  6
CONTINUOUS
 10
121.5609907383
 20
180.777228891
 11
122.7609907383
 21
180.777228891
  0
LINE
  5
51A
100
AcDbEntity
  8
0
100
AcDbLine
 62
7
  6
CONTINUOUS
 10
123.0888554342
 20
180.777228891
 11
125.0540304694
 21
180.777228891
  0
LINE
  5
51B
100
AcDbEntity
  8
0
100
AcDbLine
 62
7
  6
CONTINUOUS
 10
171.5109907383
 20
181.377228891
 11
129.8109907383
 21
181.377228891
  0
LINE
  5
51C
100
AcDbEntity
  8
0
100
AcDbLine
 62
7
  6
CONTINUOUS
 10
122.7609907383
 20
181.977228891
 11
121.5609907383
 21
181.977228891
  0
LINE
  5
51D
100
AcDbEntity
  8
0
100
AcDbLine
 62
7
  6
CONTINUOUS
 10
119.2679510072
 20
181.977228891
 11
121.2331260424
 21
181.977228891
  0
LINE
  5
51E
100
AcDbEntity
  8
0
100
AcDbLine
 62
7
  6
CONTINUOUS
 10
123.0888554342
 20
181.977228891
 11
125.0540304694
 21
181.977228891
  0
LINE
  5
51F
100
AcDbEntity
  8
0
100
AcDbLine
 62
7
  6
CONTINUOUS
 10
129.8109907383
 20
182.377228891
 11
130.5609907383
 21
182.377228891
  0
LINE
  5
520
100
AcDbEntity
  8
0
100
AcDbLine
 62
7
  6
CONTINUOUS
 10
138.3609907383
 20
182.377228891
 11
139.1109907383
 21
182.377228891
  0
LINE
  5
521
100
AcDbEntity
  8
0
100
AcDbLine
 62
7
  6
CONTINUOUS
 10
140.6109907383
 20
182.377228891
 11
141.3609907383
 21
182.377228891
  0
LINE
  5
522
100
AcDbEntity
  8
0
100
AcDbLine
 62
7
  6
CONTINUOUS
 10
149.1609907383
 20
182.377228891
 11
149.9109907383
 21
182.377228891
  0
LINE
  5
523
100
AcDbEntity
  8
0
100
AcDbLine
 62
7
  6
CONTINUOUS
 10
151.4109907383
 20
182.377228891
 11
152.1609907383
 21
182.377228891
  0
LINE
  5
524
100
AcDbEntity
  8
0
100
AcDbLine
 62
7
  6
CONTINUOUS
 10
159.9609907383
 20
182.377228891
 11
160.7109907383
 21
182.377228891
  0
LINE
  5
525
100
AcDbEntity
  8
0
100
AcDbLine
 62
7
  6
CONTINUOUS
 10
162.2109907383
 20
182.377228891
 11
162.9609907383
 21
182.377228891
  0
LINE
  5
526
100
AcDbEntity
  8
0
100
AcDbLine
 62
7
  6
CONTINUOUS
 10
170.7609907383
 20
182.377228891
 11
171.5109907383
 21
182.377228891
  0
LINE
  5
527
100
AcDbEntity
  8
0
100
AcDbLine
 62
7
  6
CONTINUOUS
 10
169.7349525738
 20
182.477228891
 11
169.512602775
 21
182.477228891
  0
LINE
  5
528
100
AcDbEntity
  8
0
100
AcDbLine
 62
7
  6
CONTINUOUS
 10
164.2093787015
 20
182.477228891
 11
163.9872064104
 21
182.477228891
  0
LINE
  5
529
100
AcDbEntity
  8
0
100
AcDbLine
 62
7
  6
CONTINUOUS
 10
161.7609907383
 20
194.877228891
 11
161.7609907383
 21
189.577228891
  0
LINE
  5
52A
100
AcDbEntity
  8
0
100
AcDbLine
 62
7
  6
CONTINUOUS
 10
161.7609907383
 20
143.177228891
 11
161.7609907383
 21
137.877228891
  0
LINE
  5
52B
100
AcDbEntity
  8
0
100
AcDbLine
 62
7
  6
CONTINUOUS
 10
162.0609907383
 20
132.877228891
 11
162.0609907383
 21
143.477228891
  0
LINE
  5
52C
100
AcDbEntity
  8
0
100
AcDbLine
 62
7
  6
CONTINUOUS
 10
162.0609907383
 20
189.277228891
 11
162.0609907383
 21
199.877228891
  0
LINE
  5
52D
100
AcDbEntity
  8
0
100
AcDbLine
 62
7
  6
CONTINUOUS
 10
162.1609907383
 20
199.877228891
 11
162.1609907383
 21
198.877228891
  0
LINE
  5
52E
100
AcDbEntity
  8
0
100
AcDbLine
 62
7
  6
CONTINUOUS
 10
162.1609907383
 20
197.577228891
 11
162.1609907383
 21
189.277228891
  0
LINE
  5
52F
100
AcDbEntity
  8
0
100
AcDbLine
 62
7
  6
CONTINUOUS
 10
162.1609907383
 20
143.477228891
 11
162.1609907383
 21
135.177228891
  0
LINE
  5
530
100
AcDbEntity
  8
0
100
AcDbLine
 62
7
  6
CONTINUOUS
 10
162.1609907383
 20
133.877228891
 11
162.1609907383
 21
132.877228891
  0
LINE
  5
531
100
AcDbEntity
  8
0
100
AcDbLine
 62
7
  6
CONTINUOUS
 10
162.2109907383
 20
185.177228891
 11
162.2109907383
 21
181.377228891
  0
LINE
  5
532
100
AcDbEntity
  8
0
100
AcDbLine
 62
7
  6
CONTINUOUS
 10
162.2109907383
 20
151.377228891
 11
162.2109907383
 21
147.577228891
  0
LINE
  5
533
100
AcDbEntity
  8
0
100
AcDbLine
 62
7
  6
CONTINUOUS
 10
162.8609907383
 20
156.377228891
 11
162.8609907383
 21
176.377228891
  0
LINE
  5
534
100
AcDbEntity
  8
0
100
AcDbLine
 62
7
  6
CONTINUOUS
 10
162.9609907383
 20
197.0717566001
 11
162.9609907383
 21
189.277228891
  0
LINE
  5
535
100
AcDbEntity
  8
0
100
AcDbLine
 62
7
  6
CONTINUOUS
 10
162.9609907383
 20
182.377228891
 11
162.9609907383
 21
181.377228891
  0
LINE
  5
536
100
AcDbEntity
  8
0
100
AcDbLine
 62
7
  6
CONTINUOUS
 10
162.9609907383
 20
151.377228891
 11
162.9609907383
 21
150.377228891
  0
LINE
  5
537
100
AcDbEntity
  8
0
100
AcDbLine
 62
7
  6
CONTINUOUS
 10
162.9609907383
 20
143.477228891
 11
162.9609907383
 21
135.6827011819
  0
LINE
  5
538
100
AcDbEntity
  8
0
100
AcDbLine
 62
7
  6
CONTINUOUS
 10
163.1609907383
 20
128.077228891
 11
163.1609907383
 21
133.877228891
  0
LINE
  5
539
100
AcDbEntity
  8
0
100
AcDbLine
 62
7
  6
CONTINUOUS
 10
163.1609907383
 20
198.877228891
 11
163.1609907383
 21
204.677228891
  0
LINE
  5
53A
100
AcDbEntity
  8
0
100
AcDbLine
 62
7
  6
CONTINUOUS
 10
164.1609907383
 20
197.677228891
 11
164.1609907383
 21
197.577228891
  0
LINE
  5
53B
100
AcDbEntity
  8
0
100
AcDbLine
 62
7
  6
CONTINUOUS
 10
164.1609907383
 20
135.177228891
 11
164.1609907383
 21
135.077228891
  0
LINE
  5
53C
100
AcDbEntity
  8
0
100
AcDbLine
 62
7
  6
CONTINUOUS
 10
124.7065280685
 20
183.127228891
 11
124.595662539
 21
183.127228891
  0
LINE
  5
53D
100
AcDbEntity
  8
0
100
AcDbLine
 62
7
  6
CONTINUOUS
 10
119.7263189375
 20
183.127228891
 11
119.6092851498
 21
183.127228891
  0
LINE
  5
53E
100
AcDbEntity
  8
0
100
AcDbLine
 62
7
  6
CONTINUOUS
 10
122.7609907383
 20
183.377228891
 11
121.5609907383
 21
183.377228891
  0
LINE
  5
53F
100
AcDbEntity
  8
0
100
AcDbLine
 62
7
  6
CONTINUOUS
 10
169.7755575843
 20
183.437228891
 11
167.3009907383
 21
183.437228891
  0
LINE
  5
540
100
AcDbEntity
  8
0
100
AcDbLine
 62
7
  6
CONTINUOUS
 10
163.9464238923
 20
183.437228891
 11
166.4209907383
 21
183.437228891
  0
LINE
  5
541
100
AcDbEntity
  8
0
100
AcDbLine
 62
7
  6
CONTINUOUS
 10
163.9464238923
 20
184.317228891
 11
166.4209907383
 21
184.317228891
  0
LINE
  5
542
100
AcDbEntity
  8
0
100
AcDbLine
 62
7
  6
CONTINUOUS
 10
167.3009907383
 20
184.317228891
 11
169.7755575843
 21
184.317228891
  0
LINE
  5
543
100
AcDbEntity
  8
0
100
AcDbLine
 62
7
  6
CONTINUOUS
 10
120.1609907383
 20
184.877228891
 11
124.160990741
 21
184.877228891
  0
LINE
  5
544
100
AcDbEntity
  8
0
100
AcDbLine
 62
7
  6
CONTINUOUS
 10
128.4609907383
 20
185.177228891
 11
129.8109907383
 21
185.177228891
  0
LINE
  5
545
100
AcDbEntity
  8
0
100
AcDbLine
 62
7
  6
CONTINUOUS
 10
139.1109907383
 20
185.177228891
 11
140.6109907383
 21
185.177228891
  0
LINE
  5
546
100
AcDbEntity
  8
0
100
AcDbLine
 62
7
  6
CONTINUOUS
 10
149.9109907383
 20
185.177228891
 11
151.4109907383
 21
185.177228891
  0
LINE
  5
547
100
AcDbEntity
  8
0
100
AcDbLine
 62
7
  6
CONTINUOUS
 10
160.7109907383
 20
185.177228891
 11
162.2109907383
 21
185.177228891
  0
LINE
  5
548
100
AcDbEntity
  8
0
100
AcDbLine
 62
7
  6
CONTINUOUS
 10
171.5109907383
 20
185.177228891
 11
172.8609907383
 21
185.177228891
  0
LINE
  5
549
100
AcDbEntity
  8
0
100
AcDbLine
 62
7
  6
CONTINUOUS
 10
163.9838695386
 20
185.277228891
 11
164.2093787015
 21
185.277228891
  0
LINE
  5
54A
100
AcDbEntity
  8
0
100
AcDbLine
 62
7
  6
CONTINUOUS
 10
169.512602775
 20
185.277228891
 11
169.7381376632
 21
185.277228891
  0
LINE
  5
54B
100
AcDbEntity
  8
0
100
AcDbLine
 62
7
  6
CONTINUOUS
 10
129.7609907383
 20
185.377228891
 11
129.6609907383
 21
185.377228891
  0
LINE
  5
54C
100
AcDbEntity
  8
0
100
AcDbLine
 62
7
  6
CONTINUOUS
 10
149.6609907383
 20
185.377228891
 11
151.6609907383
 21
185.377228891
  0
LINE
  5
54D
100
AcDbEntity
  8
0
100
AcDbLine
 62
7
  6
CONTINUOUS
 10
158.8854876842
 20
185.877228891
 11
158.6517914279
 21
185.877228891
  0
LINE
  5
54E
100
AcDbEntity
  8
0
100
AcDbLine
 62
7
  6
CONTINUOUS
 10
153.4701900487
 20
185.877228891
 11
153.2353615455
 21
185.877228891
  0
LINE
  5
54F
100
AcDbEntity
  8
0
100
AcDbLine
 62
7
  6
CONTINUOUS
 10
148.0854978196
 20
185.877228891
 11
147.8517914279
 21
185.877228891
  0
LINE
  5
550
100
AcDbEntity
  8
0
100
AcDbLine
 62
7
  6
CONTINUOUS
 10
142.6701900487
 20
185.877228891
 11
142.4355077416
 21
185.877228891
  0
LINE
  5
551
100
AcDbEntity
  8
0
100
AcDbLine
 62
7
  6
CONTINUOUS
 10
137.2830943499
 20
185.877228891
 11
137.0517914279
 21
185.877228891
  0
LINE
  5
552
100
AcDbEntity
  8
0
100
AcDbLine
 62
7
  6
CONTINUOUS
 10
131.8701900487
 20
185.877228891
 11
131.6384578268
 21
185.877228891
  0
LINE
  5
553
100
AcDbEntity
  8
0
100
AcDbLine
 62
7
  6
CONTINUOUS
 10
171.5609907383
 20
185.877228891
 11
171.6609907383
 21
185.877228891
  0
LINE
  5
554
100
AcDbEntity
  8
0
100
AcDbLine
 62
7
  6
CONTINUOUS
 10
164.3609907383
 20
167.377228891
 11
164.3609907383
 21
165.377228891
  0
LINE
  5
555
100
AcDbEntity
  8
0
100
AcDbLine
 62
7
  6
CONTINUOUS
 10
164.4609907383
 20
165.0788277677
 11
164.4609907383
 21
167.6756300143
  0
LINE
  5
556
100
AcDbEntity
  8
0
100
AcDbLine
 62
7
  6
CONTINUOUS
 10
164.8609907383
 20
167.077228891
 11
164.8609907383
 21
165.677228891
  0
LINE
  5
557
100
AcDbEntity
  8
0
100
AcDbLine
 62
7
  6
CONTINUOUS
 10
165.5185085758
 20
195.3807235767
 11
165.5185085758
 21
195.1525490243
  0
LINE
  5
558
100
AcDbEntity
  8
0
100
AcDbLine
 62
7
  6
CONTINUOUS
 10
165.5185085758
 20
189.8019087578
 11
165.5185085758
 21
189.5737514969
  0
LINE
  5
559
100
AcDbEntity
  8
0
100
AcDbLine
 62
7
  6
CONTINUOUS
 10
165.5185085758
 20
186.7803838834
 11
165.5185085758
 21
186.5525490243
  0
LINE
  5
55A
100
AcDbEntity
  8
0
100
AcDbLine
 62
7
  6
CONTINUOUS
 10
165.5185085758
 20
177.2760472606
 11
165.5185085758
 21
177.0525490243
  0
LINE
  5
55B
100
AcDbEntity
  8
0
100
AcDbLine
 62
7
  6
CONTINUOUS
 10
165.5185085758
 20
171.7019087578
 11
165.5185085758
 21
171.4830579968
  0
LINE
  5
55C
100
AcDbEntity
  8
0
100
AcDbLine
 62
7
  6
CONTINUOUS
 10
165.5185085758
 20
161.2718693792
 11
165.5185085758
 21
161.0525490243
  0
LINE
  5
55D
100
AcDbEntity
  8
0
100
AcDbLine
 62
7
  6
CONTINUOUS
 10
165.5185085758
 20
155.7019087578
 11
165.5185085758
 21
155.4787064883
  0
LINE
  5
55E
100
AcDbEntity
  8
0
100
AcDbLine
 62
7
  6
CONTINUOUS
 10
165.5185085758
 20
146.2019087578
 11
165.5185085758
 21
145.9733931388
  0
LINE
  5
55F
100
AcDbEntity
  8
0
100
AcDbLine
 62
7
  6
CONTINUOUS
 10
165.5185085758
 20
143.1807235708
 11
165.5185085758
 21
142.9525490243
  0
LINE
  5
560
100
AcDbEntity
  8
0
100
AcDbLine
 62
7
  6
CONTINUOUS
 10
165.5185085758
 20
137.6019087578
 11
165.5185085758
 21
137.3737515028
  0
LINE
  5
561
100
AcDbEntity
  8
0
100
AcDbLine
 62
7
  6
CONTINUOUS
 10
166.4209907383
 20
151.377228891
 11
166.4209907383
 21
149.317228891
  0
LINE
  5
562
100
AcDbEntity
  8
0
100
AcDbLine
 62
7
  6
CONTINUOUS
 10
166.4209907383
 20
137.362662045
 11
166.4209907383
 21
139.837228891
  0
LINE
  5
563
100
AcDbEntity
  8
0
100
AcDbLine
 62
7
  6
CONTINUOUS
 10
166.4209907383
 20
140.717228891
 11
166.4209907383
 21
143.191795737
  0
LINE
  5
564
100
AcDbEntity
  8
0
100
AcDbLine
 62
7
  6
CONTINUOUS
 10
166.4209907383
 20
145.962662045
 11
166.4209907383
 21
148.437228891
  0
LINE
  5
565
100
AcDbEntity
  8
0
100
AcDbLine
 62
7
  6
CONTINUOUS
 10
166.4209907383
 20
155.462662045
 11
166.4209907383
 21
157.937228891
  0
LINE
  5
566
100
AcDbEntity
  8
0
100
AcDbLine
 62
7
  6
CONTINUOUS
 10
166.4209907383
 20
158.817228891
 11
166.4209907383
 21
161.291795737
  0
LINE
  5
567
100
AcDbEntity
  8
0
100
AcDbLine
 62
7
  6
CONTINUOUS
 10
166.4209907383
 20
171.462662045
 11
166.4209907383
 21
173.937228891
  0
LINE
  5
568
100
AcDbEntity
  8
0
100
AcDbLine
 62
7
  6
CONTINUOUS
 10
166.4209907383
 20
174.817228891
 11
166.4209907383
 21
177.291795737
  0
LINE
  5
569
100
AcDbEntity
  8
0
100
AcDbLine
 62
7
  6
CONTINUOUS
 10
166.4209907383
 20
181.377228891
 11
166.4209907383
 21
183.437228891
  0
LINE
  5
56A
100
AcDbEntity
  8
0
100
AcDbLine
 62
7
  6
CONTINUOUS
 10
166.4209907383
 20
184.317228891
 11
166.4209907383
 21
186.791795737
  0
LINE
  5
56B
100
AcDbEntity
  8
0
100
AcDbLine
 62
7
  6
CONTINUOUS
 10
166.4209907383
 20
189.562662045
 11
166.4209907383
 21
192.037228891
  0
LINE
  5
56C
100
AcDbEntity
  8
0
100
AcDbLine
 62
7
  6
CONTINUOUS
 10
166.4209907383
 20
192.917228891
 11
166.4209907383
 21
195.391795737
  0
LINE
  5
56D
100
AcDbEntity
  8
0
100
AcDbLine
 62
7
  6
CONTINUOUS
 10
167.3009907383
 20
195.391795737
 11
167.3009907383
 21
192.917228891
  0
LINE
  5
56E
100
AcDbEntity
  8
0
100
AcDbLine
 62
7
  6
CONTINUOUS
 10
167.3009907383
 20
186.791795737
 11
167.3009907383
 21
184.317228891
  0
LINE
  5
56F
100
AcDbEntity
  8
0
100
AcDbLine
 62
7
  6
CONTINUOUS
 10
167.3009907383
 20
177.291795737
 11
167.3009907383
 21
174.817228891
  0
LINE
  5
570
100
AcDbEntity
  8
0
100
AcDbLine
 62
7
  6
CONTINUOUS
 10
167.3009907383
 20
161.291795737
 11
167.3009907383
 21
158.817228891
  0
LINE
  5
571
100
AcDbEntity
  8
0
100
AcDbLine
 62
7
  6
CONTINUOUS
 10
167.3009907383
 20
151.377228891
 11
167.3009907383
 21
149.317228891
  0
LINE
  5
572
100
AcDbEntity
  8
0
100
AcDbLine
 62
7
  6
CONTINUOUS
 10
167.3009907383
 20
143.191795737
 11
167.3009907383
 21
140.717228891
  0
LINE
  5
573
100
AcDbEntity
  8
0
100
AcDbLine
 62
7
  6
CONTINUOUS
 10
167.3009907383
 20
137.362662045
 11
167.3009907383
 21
139.837228891
  0
LINE
  5
574
100
AcDbEntity
  8
0
100
AcDbLine
 62
7
  6
CONTINUOUS
 10
167.3009907383
 20
145.962662045
 11
167.3009907383
 21
148.437228891
  0
LINE
  5
575
100
AcDbEntity
  8
0
100
AcDbLine
 62
7
  6
CONTINUOUS
 10
167.3009907383
 20
155.462662045
 11
167.3009907383
 21
157.937228891
  0
LINE
  5
576
100
AcDbEntity
  8
0
100
AcDbLine
 62
7
  6
CONTINUOUS
 10
167.3009907383
 20
171.462662045
 11
167.3009907383
 21
173.937228891
  0
LINE
  5
577
100
AcDbEntity
  8
0
100
AcDbLine
 62
7
  6
CONTINUOUS
 10
167.3009907383
 20
181.377228891
 11
167.3009907383
 21
183.437228891
  0
LINE
  5
578
100
AcDbEntity
  8
0
100
AcDbLine
 62
7
  6
CONTINUOUS
 10
167.3009907383
 20
189.562662045
 11
167.3009907383
 21
192.037228891
  0
LINE
  5
579
100
AcDbEntity
  8
0
100
AcDbLine
 62
7
  6
CONTINUOUS
 10
158.9755575843
 20
186.937228891
 11
156.5009907383
 21
186.937228891
  0
LINE
  5
57A
100
AcDbEntity
  8
0
100
AcDbLine
 62
7
  6
CONTINUOUS
 10
148.1755575843
 20
186.937228891
 11
145.7009907383
 21
186.937228891
  0
LINE
  5
57B
100
AcDbEntity
  8
0
100
AcDbLine
 62
7
  6
CONTINUOUS
 10
137.3755575843
 20
186.937228891
 11
134.9009907383
 21
186.937228891
  0
LINE
  5
57C
100
AcDbEntity
  8
0
100
AcDbLine
 62
7
  6
CONTINUOUS
 10
131.5464238923
 20
186.937228891
 11
134.0209907383
 21
186.937228891
  0
LINE
  5
57D
100
AcDbEntity
  8
0
100
AcDbLine
 62
7
  6
CONTINUOUS
 10
142.3464238923
 20
186.937228891
 11
144.8209907383
 21
186.937228891
  0
LINE
  5
57E
100
AcDbEntity
  8
0
100
AcDbLine
 62
7
  6
CONTINUOUS
 10
153.1464238923
 20
186.937228891
 11
155.6209907383
 21
186.937228891
  0
LINE
  5
57F
100
AcDbEntity
  8
0
100
AcDbLine
 62
7
  6
CONTINUOUS
 10
126.6609907383
 20
187.377228891
 11
117.6609907383
 21
187.377228891
  0
LINE
  5
580
100
AcDbEntity
  8
0
100
AcDbLine
 62
7
  6
CONTINUOUS
 10
131.5464238923
 20
187.817228891
 11
134.0209907383
 21
187.817228891
  0
LINE
  5
581
100
AcDbEntity
  8
0
100
AcDbLine
 62
7
  6
CONTINUOUS
 10
134.9009907383
 20
187.817228891
 11
137.3755575843
 21
187.817228891
  0
LINE
  5
582
100
AcDbEntity
  8
0
100
AcDbLine
 62
7
  6
CONTINUOUS
 10
142.3464238923
 20
187.817228891
 11
144.8209907383
 21
187.817228891
  0
LINE
  5
583
100
AcDbEntity
  8
0
100
AcDbLine
 62
7
  6
CONTINUOUS
 10
145.7009907383
 20
187.817228891
 11
148.1755575843
 21
187.817228891
  0
LINE
  5
584
100
AcDbEntity
  8
0
100
AcDbLine
 62
7
  6
CONTINUOUS
 10
153.1464238923
 20
187.817228891
 11
155.6209907383
 21
187.817228891
  0
LINE
  5
585
100
AcDbEntity
  8
0
100
AcDbLine
 62
7
  6
CONTINUOUS
 10
156.5009907383
 20
187.817228891
 11
158.9755575843
 21
187.817228891
  0
LINE
  5
586
100
AcDbEntity
  8
0
100
AcDbLine
 62
7
  6
CONTINUOUS
 10
171.5609907383
 20
187.877228891
 11
171.6609907383
 21
187.877228891
  0
LINE
  5
587
100
AcDbEntity
  8
0
100
AcDbLine
 62
7
  6
CONTINUOUS
 10
171.5609907383
 20
188.077228891
 11
171.6609907383
 21
188.077228891
  0
LINE
  5
588
100
AcDbEntity
  8
0
100
AcDbLine
 62
7
  6
CONTINUOUS
 10
124.1609913123
 20
188.377228891
 11
120.1609895627
 21
188.377228891
  0
LINE
  5
589
100
AcDbEntity
  8
0
100
AcDbLine
 62
7
  6
CONTINUOUS
 10
131.6357587774
 20
188.877228891
 11
131.8701900487
 21
188.877228891
  0
LINE
  5
58A
100
AcDbEntity
  8
0
100
AcDbLine
 62
7
  6
CONTINUOUS
 10
137.0517914279
 20
188.877228891
 11
137.2869199609
 21
188.877228891
  0
LINE
  5
58B
100
AcDbEntity
  8
0
100
AcDbLine
 62
7
  6
CONTINUOUS
 10
142.435786023
 20
188.877228891
 11
142.6701900487
 21
188.877228891
  0
LINE
  5
58C
100
AcDbEntity
  8
0
100
AcDbLine
 62
7
  6
CONTINUOUS
 10
147.8517914279
 20
188.877228891
 11
148.0866380282
 21
188.877228891
  0
LINE
  5
58D
100
AcDbEntity
  8
0
100
AcDbLine
 62
7
  6
CONTINUOUS
 10
153.2358561981
 20
188.877228891
 11
153.4701900487
 21
188.877228891
  0
LINE
  5
58E
100
AcDbEntity
  8
0
100
AcDbLine
 62
7
  6
CONTINUOUS
 10
158.6517914279
 20
188.877228891
 11
158.886692104
 21
188.877228891
  0
LINE
  5
58F
100
AcDbEntity
  8
DEFAULT_1
100
AcDbLine
 62
2
  6
CENTER
 10
168.1609907383
 20
198.877228891
 11
168.1609907383
 21
194.877128891
  0
LINE
  5
590
100
AcDbEntity
  8
DEFAULT_1
100
AcDbLine
 62
2
  6
CENTER
 10
168.1609907383
 20
192.377228891
 11
168.1609907383
 21
188.377128891
  0
LINE
  5
591
100
AcDbEntity
  8
DEFAULT_1
100
AcDbLine
 62
2
  6
CENTER
 10
168.1609907383
 20
140.377228891
 11
168.1609907383
 21
136.377128891
  0
LINE
  5
592
100
AcDbEntity
  8
DEFAULT_1
100
AcDbLine
 62
2
  6
CENTER
 10
168.1609907383
 20
133.877228891
 11
168.1609907383
 21
129.877128891
  0
LINE
  5
593
100
AcDbEntity
  8
DEFAULT_1
100
AcDbLine
 62
2
  6
CENTER
 10
168.1609907383
 20
133.877228891
 11
168.1609907383
 21
136.377128891
  0
LINE
  5
594
100
AcDbEntity
  8
DEFAULT_1
100
AcDbLine
 62
2
  6
CENTER
 10
168.1609907383
 20
140.377228891
 11
168.1609907383
 21
144.377328891
  0
LINE
  5
595
100
AcDbEntity
  8
DEFAULT_1
100
AcDbLine
 62
2
  6
CENTER
 10
168.1609907383
 20
192.377228891
 11
168.1609907383
 21
194.877128891
  0
LINE
  5
596
100
AcDbEntity
  8
DEFAULT_1
100
AcDbLine
 62
2
  6
CENTER
 10
168.1609907383
 20
198.877228891
 11
168.1609907383
 21
202.877328891
  0
LINE
  5
597
100
AcDbEntity
  8
0
100
AcDbLine
 62
7
  6
CONTINUOUS
 10
168.2034729008
 20
137.3737342053
 11
168.2034729008
 21
137.6019087578
  0
LINE
  5
598
100
AcDbEntity
  8
0
100
AcDbLine
 62
7
  6
CONTINUOUS
 10
168.2034729008
 20
142.9525490243
 11
168.2034729008
 21
143.1807062851
  0
LINE
  5
599
100
AcDbEntity
  8
0
100
AcDbLine
 62
7
  6
CONTINUOUS
 10
168.2034729008
 20
145.9743046273
 11
168.2034729008
 21
146.2019087578
  0
LINE
  5
59A
100
AcDbEntity
  8
0
100
AcDbLine
 62
7
  6
CONTINUOUS
 10
168.2034729008
 20
155.4801962151
 11
168.2034729008
 21
155.7019087578
  0
LINE
  5
59B
100
AcDbEntity
  8
0
100
AcDbLine
 62
7
  6
CONTINUOUS
 10
168.2034729008
 20
161.0525490243
 11
168.2034729008
 21
161.2718010591
  0
LINE
  5
59C
100
AcDbEntity
  8
0
100
AcDbLine
 62
7
  6
CONTINUOUS
 10
168.2034729008
 20
171.4806358931
 11
168.2034729008
 21
171.7019087578
  0
LINE
  5
59D
100
AcDbEntity
  8
0
100
AcDbLine
 62
7
  6
CONTINUOUS
 10
168.2034729008
 20
177.0525490243
 11
168.2034729008
 21
177.2769086784
  0
LINE
  5
59E
100
AcDbEntity
  8
0
100
AcDbLine
 62
7
  6
CONTINUOUS
 10
168.2034729008
 20
186.5525490243
 11
168.2034729008
 21
186.780600239
  0
LINE
  5
59F
100
AcDbEntity
  8
0
100
AcDbLine
 62
7
  6
CONTINUOUS
 10
168.2034729008
 20
189.5737342112
 11
168.2034729008
 21
189.8019087578
  0
LINE
  5
5A0
100
AcDbEntity
  8
0
100
AcDbLine
 62
7
  6
CONTINUOUS
 10
168.2034729008
 20
195.1525490243
 11
168.2034729008
 21
195.3807062792
  0
LINE
  5
5A1
100
AcDbEntity
  8
0
100
AcDbLine
 62
7
  6
CONTINUOUS
 10
168.6609907383
 20
135.077228891
 11
168.6609907383
 21
135.177228891
  0
LINE
  5
5A2
100
AcDbEntity
  8
0
100
AcDbLine
 62
7
  6
CONTINUOUS
 10
168.6609907383
 20
197.577228891
 11
168.6609907383
 21
197.677228891
  0
LINE
  5
5A3
100
AcDbEntity
  8
0
100
AcDbLine
 62
7
  6
CONTINUOUS
 10
168.8609907383
 20
165.677228891
 11
168.8609907383
 21
167.077228891
  0
LINE
  5
5A4
100
AcDbEntity
  8
0
100
AcDbLine
 62
7
  6
CONTINUOUS
 10
169.2609907383
 20
167.6756300143
 11
169.2609907383
 21
165.0788277677
  0
LINE
  5
5A5
100
AcDbEntity
  8
0
100
AcDbLine
 62
7
  6
CONTINUOUS
 10
169.3609907383
 20
165.377228891
 11
169.3609907383
 21
167.377228891
  0
LINE
  5
5A6
100
AcDbEntity
  8
0
100
AcDbLine
 62
7
  6
CONTINUOUS
 10
122.1609907383
 20
188.177228891
 11
117.6609907383
 21
187.677228891
  0
LINE
  5
5A7
100
AcDbEntity
  8
0
100
AcDbLine
 62
7
  6
CONTINUOUS
 10
117.6609907383
 20
187.777228891
 11
122.1609907383
 21
188.277228891
  0
LINE
  5
5A8
100
AcDbEntity
  8
0
100
AcDbLine
 62
7
  6
CONTINUOUS
 10
162.0609907383
 20
189.277228891
 11
171.6609907383
 21
189.277228891
  0
LINE
  5
5A9
100
AcDbEntity
  8
0
100
AcDbLine
 62
7
  6
CONTINUOUS
 10
129.6609907383
 20
189.377228891
 11
129.7609907383
 21
189.377228891
  0
LINE
  5
5AA
100
AcDbEntity
  8
0
100
AcDbLine
 62
7
  6
CONTINUOUS
 10
121.5609907383
 20
189.877228891
 11
122.7609907383
 21
189.877228891
  0
LINE
  5
5AB
100
AcDbEntity
  8
0
100
AcDbLine
 62
7
  6
CONTINUOUS
 10
119.6092851498
 20
190.127228891
 11
119.7263189375
 21
190.127228891
  0
LINE
  5
5AC
100
AcDbEntity
  8
0
100
AcDbLine
 62
7
  6
CONTINUOUS
 10
124.595662539
 20
190.127228891
 11
124.7065280685
 21
190.127228891
  0
LINE
  5
5AD
100
AcDbEntity
  8
0
100
AcDbLine
 62
7
  6
CONTINUOUS
 10
169.732765661
 20
191.077228891
 11
169.512602775
 21
191.077228891
  0
LINE
  5
5AE
100
AcDbEntity
  8
0
100
AcDbLine
 62
7
  6
CONTINUOUS
 10
164.2093787015
 20
191.077228891
 11
163.9892635925
 21
191.077228891
  0
LINE
  5
5AF
100
AcDbEntity
  8
0
100
AcDbLine
 62
7
  6
CONTINUOUS
 10
119.2679510072
 20
191.277228891
 11
121.2331260424
 21
191.277228891
  0
LINE
  5
5B0
100
AcDbEntity
  8
0
100
AcDbLine
 62
7
  6
CONTINUOUS
 10
121.5609907383
 20
191.277228891
 11
122.7609907383
 21
191.277228891
  0
LINE
  5
5B1
100
AcDbEntity
  8
0
100
AcDbLine
 62
7
  6
CONTINUOUS
 10
123.0888554342
 20
191.277228891
 11
125.0540304694
 21
191.277228891
  0
LINE
  5
5B2
100
AcDbEntity
  8
0
100
AcDbLine
 62
7
  6
CONTINUOUS
 10
162.0609907383
 20
191.877228891
 11
162.1609907383
 21
191.877228891
  0
LINE
  5
5B3
100
AcDbEntity
  8
0
100
AcDbLine
 62
7
  6
CONTINUOUS
 10
171.5609907383
 20
191.877228891
 11
171.6609907383
 21
191.877228891
  0
LINE
  5
5B4
100
AcDbEntity
  8
0
100
AcDbLine
 62
7
  6
CONTINUOUS
 10
169.7755575843
 20
192.037228891
 11
167.3009907383
 21
192.037228891
  0
LINE
  5
5B5
100
AcDbEntity
  8
0
100
AcDbLine
 62
7
  6
CONTINUOUS
 10
163.9464238923
 20
192.037228891
 11
166.4209907383
 21
192.037228891
  0
LINE
  5
5B6
100
AcDbEntity
  8
0
100
AcDbLine
 62
7
  6
CONTINUOUS
 10
170.7609907383
 20
197.0717566001
 11
170.7609907383
 21
189.277228891
  0
LINE
  5
5B7
100
AcDbEntity
  8
0
100
AcDbLine
 62
7
  6
CONTINUOUS
 10
170.7609907383
 20
182.377228891
 11
170.7609907383
 21
181.377228891
  0
LINE
  5
5B8
100
AcDbEntity
  8
0
100
AcDbLine
 62
7
  6
CONTINUOUS
 10
170.7609907383
 20
151.377228891
 11
170.7609907383
 21
150.377228891
  0
LINE
  5
5B9
100
AcDbEntity
  8
0
100
AcDbLine
 62
7
  6
CONTINUOUS
 10
170.7609907383
 20
143.477228891
 11
170.7609907383
 21
135.6827011819
  0
LINE
  5
5BA
100
AcDbEntity
  8
0
100
AcDbLine
 62
7
  6
CONTINUOUS
 10
170.8609907383
 20
176.377228891
 11
170.8609907383
 21
156.377228891
  0
LINE
  5
5BB
100
AcDbEntity
  8
0
100
AcDbLine
 62
7
  6
CONTINUOUS
 10
171.4609907383
 20
133.877228891
 11
171.4609907383
 21
135.177228891
  0
LINE
  5
5BC
100
AcDbEntity
  8
0
100
AcDbLine
 62
7
  6
CONTINUOUS
 10
171.4609907383
 20
151.377228891
 11
171.4609907383
 21
156.0208511165
  0
LINE
  5
5BD
100
AcDbEntity
  8
0
100
AcDbLine
 62
7
  6
CONTINUOUS
 10
171.4609907383
 20
156.0211925132
 11
171.4609907383
 21
181.377228891
  0
LINE
  5
5BE
100
AcDbEntity
  8
0
100
AcDbLine
 62
7
  6
CONTINUOUS
 10
171.4609907383
 20
197.577228891
 11
171.4609907383
 21
198.877228891
  0
LINE
  5
5BF
100
AcDbEntity
  8
0
100
AcDbLine
 62
7
  6
CONTINUOUS
 10
171.5109907383
 20
147.577228891
 11
171.5109907383
 21
185.177228891
  0
LINE
  5
5C0
100
AcDbEntity
  8
0
100
AcDbLine
 62
7
  6
CONTINUOUS
 10
171.5609907383
 20
135.177228891
 11
171.5609907383
 21
147.577228891
  0
LINE
  5
5C1
100
AcDbEntity
  8
0
100
AcDbLine
 62
7
  6
CONTINUOUS
 10
171.5609907383
 20
185.177228891
 11
171.5609907383
 21
197.577228891
  0
LINE
  5
5C2
100
AcDbEntity
  8
0
100
AcDbLine
 62
7
  6
CONTINUOUS
 10
171.6609907383
 20
129.377228891
 11
171.6609907383
 21
147.577228891
  0
LINE
  5
5C3
100
AcDbEntity
  8
0
100
AcDbLine
 62
7
  6
CONTINUOUS
 10
171.6609907383
 20
185.177228891
 11
171.6609907383
 21
203.377228891
  0
LINE
  5
5C4
100
AcDbEntity
  8
0
100
AcDbLine
 62
7
  6
CONTINUOUS
 10
173.1609907383
 20
129.877228891
 11
173.1609907383
 21
202.877228891
  0
LINE
  5
5C5
100
AcDbEntity
  8
DEFAULT_1
100
AcDbLine
 62
2
  6
CENTER
 10
168.1609907383
 20
192.377228891
 11
164.1608907383
 21
192.377228891
  0
LINE
  5
5C6
100
AcDbEntity
  8
02___PRT_ALL_AXES
100
AcDbLine
 62
2
  6
CENTER
 10
133.1609907383
 20
192.377228891
 11
129.1608907383
 21
192.377228891
  0
LINE
  5
5C7
100
AcDbEntity
  8
02___PRT_ALL_AXES
100
AcDbLine
 62
2
  6
CENTER
 10
133.1609907383
 20
192.377228891
 11
137.1610907383
 21
192.377228891
  0
LINE
  5
5C8
100
AcDbEntity
  8
DEFAULT_1
100
AcDbLine
 62
2
  6
CENTER
 10
168.1609907383
 20
192.377228891
 11
172.1610907383
 21
192.377228891
  0
LINE
  5
5C9
100
AcDbEntity
  8
0
100
AcDbLine
 62
7
  6
CONTINUOUS
 10
122.7609907383
 20
192.477228891
 11
121.5609907383
 21
192.477228891
  0
LINE
  5
5CA
100
AcDbEntity
  8
0
100
AcDbLine
 62
7
  6
CONTINUOUS
 10
119.2679510072
 20
192.477228891
 11
121.2331260424
 21
192.477228891
  0
LINE
  5
5CB
100
AcDbEntity
  8
0
100
AcDbLine
 62
7
  6
CONTINUOUS
 10
123.0888554342
 20
192.477228891
 11
125.0540304694
 21
192.477228891
  0
LINE
  5
5CC
100
AcDbEntity
  8
0
100
AcDbLine
 62
7
  6
CONTINUOUS
 10
163.9464238923
 20
192.917228891
 11
166.4209907383
 21
192.917228891
  0
LINE
  5
5CD
100
AcDbEntity
  8
0
100
AcDbLine
 62
7
  6
CONTINUOUS
 10
167.3009907383
 20
192.917228891
 11
169.7755575843
 21
192.917228891
  0
LINE
  5
5CE
100
AcDbEntity
  8
0
100
AcDbLine
 62
7
  6
CONTINUOUS
 10
116.1609907383
 20
193.377228891
 11
117.6609907383
 21
193.377228891
  0
LINE
  5
5CF
100
AcDbEntity
  8
0
100
AcDbLine
 62
7
  6
CONTINUOUS
 10
126.6609907383
 20
193.377228891
 11
127.6609907383
 21
193.377228891
  0
LINE
  5
5D0
100
AcDbEntity
  8
0
100
AcDbLine
 62
7
  6
CONTINUOUS
 10
124.7065280685
 20
193.627228891
 11
124.595662539
 21
193.627228891
  0
LINE
  5
5D1
100
AcDbEntity
  8
0
100
AcDbLine
 62
7
  6
CONTINUOUS
 10
119.7263189375
 20
193.627228891
 11
119.6092851498
 21
193.627228891
  0
LINE
  5
5D2
100
AcDbEntity
  8
0
100
AcDbLine
 62
7
  6
CONTINUOUS
 10
129.6609907383
 20
193.677228891
 11
129.7609907383
 21
193.677228891
  0
LINE
  5
5D3
100
AcDbEntity
  8
0
100
AcDbLine
 62
7
  6
CONTINUOUS
 10
121.5609907383
 20
193.877228891
 11
122.7609907383
 21
193.877228891
  0
LINE
  5
5D4
100
AcDbEntity
  8
0
100
AcDbLine
 62
7
  6
CONTINUOUS
 10
163.9892158133
 20
193.877228891
 11
164.2093787015
 21
193.877228891
  0
LINE
  5
5D5
100
AcDbEntity
  8
0
100
AcDbLine
 62
7
  6
CONTINUOUS
 10
169.512602775
 20
193.877228891
 11
169.7327178818
 21
193.877228891
  0
LINE
  5
5D6
100
AcDbEntity
  8
0
100
AcDbLine
 62
7
  6
CONTINUOUS
 10
129.6609907383
 20
194.877228891
 11
129.7609907383
 21
194.877228891
  0
LINE
  5
5D7
100
AcDbEntity
  8
0
100
AcDbLine
 62
7
  6
CONTINUOUS
 10
162.0609907383
 20
195.377228891
 11
129.7609907383
 21
195.377228891
  0
LINE
  5
5D8
100
AcDbEntity
  8
0
100
AcDbLine
 62
7
  6
CONTINUOUS
 10
120.1609903577
 20
195.377228891
 11
124.1609920273
 21
195.377228891
  0
LINE
  5
5D9
100
AcDbEntity
  8
0
100
AcDbLine
 62
7
  6
CONTINUOUS
 10
131.2109907383
 20
196.877228891
 11
137.7109907383
 21
196.877228891
  0
LINE
  5
5DA
100
AcDbEntity
  8
0
100
AcDbLine
 62
7
  6
CONTINUOUS
 10
162.0609907383
 20
196.877228891
 11
162.1609907383
 21
196.877228891
  0
LINE
  5
5DB
100
AcDbEntity
  8
0
100
AcDbLine
 62
7
  6
CONTINUOUS
 10
171.5609907383
 20
196.877228891
 11
171.6609907383
 21
196.877228891
  0
LINE
  5
5DC
100
AcDbEntity
  8
0
100
AcDbLine
 62
7
  6
CONTINUOUS
 10
155.0093787015
 20
196.977228891
 11
154.7944934167
 21
196.977228891
  0
LINE
  5
5DD
100
AcDbEntity
  8
0
100
AcDbLine
 62
7
  6
CONTINUOUS
 10
146.5274880598
 20
196.977228891
 11
146.312602775
 21
196.977228891
  0
LINE
  5
5DE
100
AcDbEntity
  8
0
100
AcDbLine
 62
7
  6
CONTINUOUS
 10
162.9609907383
 20
197.0717566001
 11
170.7609907383
 21
197.0717566001
  0
LINE
  5
5DF
100
AcDbEntity
  8
0
100
AcDbLine
 62
7
  6
CONTINUOUS
 10
162.1609907383
 20
197.577228891
 11
171.5609907383
 21
197.577228891
  0
LINE
  5
5E0
100
AcDbEntity
  8
0
100
AcDbLine
 62
7
  6
CONTINUOUS
 10
131.3609907383
 20
197.677228891
 11
137.7109907383
 21
197.677228891
  0
LINE
  5
5E1
100
AcDbEntity
  8
0
100
AcDbLine
 62
7
  6
CONTINUOUS
 10
163.3609907383
 20
197.677228891
 11
169.9609907383
 21
197.677228891
  0
LINE
  5
5E2
100
AcDbEntity
  8
0
100
AcDbLine
 62
7
  6
CONTINUOUS
 10
117.6609907383
 20
197.877228891
 11
127.6609907383
 21
197.877228891
  0
LINE
  5
5E3
100
AcDbEntity
  8
0
100
AcDbLine
 62
7
  6
CONTINUOUS
 10
160.2118281146
 20
197.937228891
 11
158.1009907383
 21
197.937228891
  0
LINE
  5
5E4
100
AcDbEntity
  8
0
100
AcDbLine
 62
7
  6
CONTINUOUS
 10
146.5755575843
 20
197.937228891
 11
144.1009907383
 21
197.937228891
  0
LINE
  5
5E5
100
AcDbEntity
  8
0
100
AcDbLine
 62
7
  6
CONTINUOUS
 10
141.1101533609
 20
197.937228891
 11
143.2209907383
 21
197.937228891
  0
LINE
  5
5E6
100
AcDbEntity
  8
0
100
AcDbLine
 62
7
  6
CONTINUOUS
 10
154.7464238923
 20
197.937228891
 11
157.2209907383
 21
197.937228891
  0
LINE
  5
5E7
100
AcDbEntity
  8
0
100
AcDbLine
 62
7
  6
CONTINUOUS
 10
141.0609907383
 20
198.817228891
 11
143.2209907383
 21
198.817228891
  0
LINE
  5
5E8
100
AcDbEntity
  8
0
100
AcDbLine
 62
7
  6
CONTINUOUS
 10
144.1009907383
 20
198.817228891
 11
146.5755575843
 21
198.817228891
  0
LINE
  5
5E9
100
AcDbEntity
  8
0
100
AcDbLine
 62
7
  6
CONTINUOUS
 10
154.7464238923
 20
198.817228891
 11
157.2209907383
 21
198.817228891
  0
LINE
  5
5EA
100
AcDbEntity
  8
0
100
AcDbLine
 62
7
  6
CONTINUOUS
 10
158.1009907383
 20
198.817228891
 11
160.2609907383
 21
198.817228891
  0
LINE
  5
5EB
100
AcDbEntity
  8
DEFAULT_1
100
AcDbLine
 62
2
  6
CENTER
 10
131.2109907383
 20
198.877228891
 11
129.1608907383
 21
198.877228891
  0
LINE
  5
5EC
100
AcDbEntity
  8
0
100
AcDbLine
 62
7
  6
CONTINUOUS
 10
131.2109907383
 20
198.877228891
 11
137.7109907383
 21
198.877228891
  0
LINE
  5
5ED
100
AcDbEntity
  8
DEFAULT_1
100
AcDbLine
 62
2
  6
CENTER
 10
171.6609907383
 20
198.877228891
 11
172.1610907383
 21
198.877228891
  0
LINE
  5
5EE
100
AcDbEntity
  8
0
100
AcDbLine
 62
7
  6
CONTINUOUS
 10
162.0609907383
 20
198.877228891
 11
171.6609907383
 21
198.877228891
  0
LINE
  5
5EF
100
AcDbEntity
  8
0
100
AcDbLine
 62
7
  6
CONTINUOUS
 10
146.312602775
 20
199.777228891
 11
146.5274880598
 21
199.777228891
  0
LINE
  5
5F0
100
AcDbEntity
  8
0
100
AcDbLine
 62
7
  6
CONTINUOUS
 10
154.7944934167
 20
199.777228891
 11
155.0093787015
 21
199.777228891
  0
LINE
  5
5F1
100
AcDbEntity
  8
0
100
AcDbLine
 62
7
  6
CONTINUOUS
 10
128.6609907383
 20
199.877228891
 11
129.6609907383
 21
199.877228891
  0
LINE
  5
5F2
100
AcDbEntity
  8
0
100
AcDbLine
 62
7
  6
CONTINUOUS
 10
137.7109907383
 20
199.877228891
 11
141.0609907383
 21
199.877228891
  0
LINE
  5
5F3
100
AcDbEntity
  8
0
100
AcDbLine
 62
7
  6
CONTINUOUS
 10
148.5109907383
 20
199.877228891
 11
152.8109907383
 21
199.877228891
  0
LINE
  5
5F4
100
AcDbEntity
  8
0
100
AcDbLine
 62
7
  6
CONTINUOUS
 10
160.2609907383
 20
199.877228891
 11
163.1609907383
 21
199.877228891
  0
LINE
  5
5F5
100
AcDbEntity
  8
0
100
AcDbLine
 62
7
  6
CONTINUOUS
 10
171.6609907383
 20
199.877228891
 11
172.6609907383
 21
199.877228891
  0
LINE
  5
5F6
100
AcDbEntity
  8
0
100
AcDbLine
 62
7
  6
CONTINUOUS
 10
129.6609907383
 20
201.4174943777
 11
129.4609907383
 21
201.4174943777
  0
LINE
  5
5F7
100
AcDbEntity
  8
0
100
AcDbLine
 62
7
  6
CONTINUOUS
 10
117.6609907383
 20
201.877228891
 11
123.1609907383
 21
201.877228891
  0
LINE
  5
5F8
100
AcDbEntity
  8
0
100
AcDbLine
 62
7
  6
CONTINUOUS
 10
116.6609907383
 20
201.977228891
 11
117.6609907383
 21
201.977228891
  0
LINE
  5
5F9
100
AcDbEntity
  8
0
100
AcDbLine
 62
7
  6
CONTINUOUS
 10
128.6609907383
 20
203.377228891
 11
131.2109907383
 21
203.377228891
  0
LINE
  5
5FA
100
AcDbEntity
  8
0
100
AcDbLine
 62
7
  6
CONTINUOUS
 10
171.6609907383
 20
203.377228891
 11
172.6609907383
 21
203.377228891
  0
LINE
  5
5FB
100
AcDbEntity
  8
0
100
AcDbLine
 62
7
  6
CONTINUOUS
 10
170.1609907383
 20
203.877228891
 11
163.1609907383
 21
203.877228891
  0
LINE
  5
5FC
100
AcDbEntity
  8
0
100
AcDbLine
 62
7
  6
CONTINUOUS
 10
131.1609907383
 20
203.877228891
 11
138.1609907383
 21
203.877228891
  0
LINE
  5
5FD
100
AcDbEntity
  8
0
100
AcDbLine
 62
7
  6
CONTINUOUS
 10
138.6609907383
 20
203.877228891
 11
162.6609907383
 21
203.877228891
  0
LINE
  5
5FE
100
AcDbEntity
  8
0
100
AcDbLine
 62
7
  6
CONTINUOUS
 10
151.5609907383
 20
204.677228891
 11
149.7609907383
 21
204.677228891
  0
LINE
  5
5FF
100
AcDbEntity
  8
0
100
AcDbLine
 62
7
  6
CONTINUOUS
 10
138.1609907383
 20
204.677228891
 11
149.0609907383
 21
204.677228891
  0
LINE
  5
600
100
AcDbEntity
  8
0
100
AcDbLine
 62
7
  6
CONTINUOUS
 10
152.2609907383
 20
204.677228891
 11
163.1609907383
 21
204.677228891
  0
LINE
  5
601
100
AcDbEntity
  8
0
100
AcDbLine
 62
7
  6
CONTINUOUS
 10
230.2506970118
 20
148.877228891
 11
230.1667848375
 21
150.077228891
  0
LINE
  5
602
100
AcDbEntity
  8
0
100
AcDbLine
 62
7
  6
CONTINUOUS
 10
227.3506970118
 20
129.377228891
 11
227.3506970118
 21
147.6745489818
  0
LINE
  5
603
100
AcDbEntity
  8
0
100
AcDbLine
 62
7
  6
CONTINUOUS
 10
227.3506970118
 20
187.377228891
 11
227.3506970118
 21
203.377228891
  0
LINE
  5
604
100
AcDbEntity
  8
0
100
AcDbLine
 62
7
  6
CONTINUOUS
 10
230.1506970118
 20
187.3602017243
 11
230.1506970118
 21
183.3321821073
  0
LINE
  5
605
100
AcDbEntity
  8
0
100
AcDbLine
 62
7
  6
CONTINUOUS
 10
231.1506970118
 20
180.577228891
 11
231.1506970118
 21
182.7379979833
  0
LINE
  5
606
100
AcDbEntity
  8
0
100
AcDbLine
 62
7
  6
CONTINUOUS
 10
231.2506970118
 20
160.377228891
 11
231.2506970118
 21
162.877228891
  0
LINE
  5
607
100
AcDbEntity
  8
0
100
AcDbLine
 62
7
  6
CONTINUOUS
 10
231.2506970118
 20
165.3272288911
 11
231.2506970118
 21
167.4272288909
  0
LINE
  5
608
100
AcDbEntity
  8
0
100
AcDbLine
 62
7
  6
CONTINUOUS
 10
231.2506970118
 20
169.877228891
 11
231.2506970118
 21
172.377228891
  0
LINE
  5
609
100
AcDbEntity
  8
0
100
AcDbLine
 62
7
  6
CONTINUOUS
 10
231.3506970118
 20
146.877228891
 11
231.3506970118
 21
187.377228891
  0
LINE
  5
60A
100
AcDbEntity
  8
0
100
AcDbLine
 62
7
  6
CONTINUOUS
 10
229.7531854562
 20
182.8336510196
 11
230.1506970118
 21
187.377228891
  0
LINE
  5
60B
100
AcDbEntity
  8
0
100
AcDbLine
 62
7
  6
CONTINUOUS
 10
238.6042504024
 20
201.8307822816
 11
234.8971436212
 21
198.1236755004
  0
LINE
  5
60C
100
AcDbEntity
  8
0
100
AcDbLine
 62
7
  6
CONTINUOUS
 10
234.8971436212
 20
134.6307822816
 11
238.6042504024
 21
130.9236755004
  0
LINE
  5
60D
100
AcDbEntity
  8
0
100
AcDbLine
 62
7
  6
CONTINUOUS
 10
233.8506970118
 20
170.377228891
 11
233.8506970118
 21
162.377228891
  0
LINE
  5
60E
100
AcDbEntity
  8
0
100
AcDbLine
 62
7
  6
CONTINUOUS
 10
234.4506970118
 20
162.477228891
 11
234.4506970118
 21
170.277228891
  0
LINE
  5
60F
100
AcDbEntity
  8
0
100
AcDbLine
 62
7
  6
CONTINUOUS
 10
234.7506970118
 20
197.7701221098
 11
234.7506970118
 21
134.9843356722
  0
LINE
  5
610
100
AcDbEntity
  8
0
100
AcDbLine
 62
7
  6
CONTINUOUS
 10
234.8506970118
 20
134.691225174
 11
234.8506970118
 21
129.377228891
  0
LINE
  5
611
100
AcDbEntity
  8
0
100
AcDbLine
 62
7
  6
CONTINUOUS
 10
234.8506970118
 20
198.0631451006
 11
234.8506970118
 21
203.377228891
  0
LINE
  5
612
100
AcDbEntity
  8
0
100
AcDbLine
 62
7
  6
CONTINUOUS
 10
236.2506970118
 20
169.377228891
 11
236.2506970118
 21
163.377228891
  0
LINE
  5
613
100
AcDbEntity
  8
0
100
AcDbLine
 62
7
  6
CONTINUOUS
 10
236.2506970118
 20
152.727228891
 11
236.2506970118
 21
155.927228891
  0
LINE
  5
614
100
AcDbEntity
  8
0
100
AcDbLine
 62
7
  6
CONTINUOUS
 10
236.2506970118
 20
176.827228891
 11
236.2506970118
 21
180.027228891
  0
LINE
  5
615
100
AcDbEntity
  8
0
100
AcDbLine
 62
7
  6
CONTINUOUS
 10
231.3506970118
 20
187.377228891
 11
231.8506970118
 21
187.877228891
  0
LINE
  5
616
100
AcDbEntity
  8
0
100
AcDbLine
 62
7
  6
CONTINUOUS
 10
231.3506970118
 20
146.877228891
 11
231.8506970118
 21
146.377228891
  0
LINE
  5
617
100
AcDbEntity
  8
0
100
AcDbLine
 62
7
  6
CONTINUOUS
 10
227.3506970118
 20
187.377228891
 11
228.6128228411
 21
182.7457671485
  0
LINE
  5
618
100
AcDbEntity
  8
0
100
AcDbLine
 62
7
  6
CONTINUOUS
 10
237.0813143226
 20
168.668697834
 11
237.0813143226
 21
163.768697834
  0
LINE
  5
619
100
AcDbEntity
  8
02___PRT_ALL_AXES
100
AcDbLine
 62
7
  6
CONTINUOUS
 10
237.6506970118
 20
153.627228891
 11
237.6506970118
 21
155.127228891
  0
LINE
  5
61A
100
AcDbEntity
  8
02___PRT_ALL_AXES
100
AcDbLine
 62
7
  6
CONTINUOUS
 10
237.6506970118
 20
177.627228891
 11
237.6506970118
 21
179.127228891
  0
LINE
  5
61B
100
AcDbEntity
  8
0
100
AcDbLine
 62
7
  6
CONTINUOUS
 10
238.3113143226
 20
163.768697834
 11
238.3113143226
 21
168.668697834
  0
LINE
  5
61C
100
AcDbEntity
  8
0
100
AcDbLine
 62
7
  6
CONTINUOUS
 10
238.6506970118
 20
152.427228891
 11
238.6506970118
 21
156.227228891
  0
LINE
  5
61D
100
AcDbEntity
  8
0
100
AcDbLine
 62
7
  6
CONTINUOUS
 10
238.6506970118
 20
176.527228891
 11
238.6506970118
 21
180.327228891
  0
LINE
  5
61E
100
AcDbEntity
  8
0
100
AcDbLine
 62
7
  6
CONTINUOUS
 10
240.1240819725
 20
167.1626016733
 11
240.1240819725
 21
166.8496059619
  0
LINE
  5
61F
100
AcDbEntity
  8
0
100
AcDbLine
 62
7
  6
CONTINUOUS
 10
240.364620409
 20
166.8496059619
 11
240.364620409
 21
165.6544174686
  0
LINE
  5
620
100
AcDbEntity
  8
0
100
AcDbLine
 62
7
  6
CONTINUOUS
 10
240.5385030816
 20
165.7168088943
 11
240.5385030816
 21
167.0654349889
  0
LINE
  5
621
100
AcDbEntity
  8
0
100
AcDbLine
 62
7
  6
CONTINUOUS
 10
241.1506970118
 20
152.4482978082
 11
241.1506970118
 21
156.2061585773
  0
LINE
  5
622
100
AcDbEntity
  8
0
100
AcDbLine
 62
7
  6
CONTINUOUS
 10
241.1506970118
 20
176.5482978082
 11
241.1506970118
 21
180.3061585773
  0
LINE
  5
623
100
AcDbEntity
  8
0
100
AcDbLine
 62
7
  6
CONTINUOUS
 10
241.3506970118
 20
180.027228891
 11
241.3506970118
 21
176.827228891
  0
LINE
  5
624
100
AcDbEntity
  8
0
100
AcDbLine
 62
7
  6
CONTINUOUS
 10
241.3506970118
 20
155.927228891
 11
241.3506970118
 21
152.727228891
  0
LINE
  5
625
100
AcDbEntity
  8
0
100
AcDbLine
 62
7
  6
CONTINUOUS
 10
243.1931749754
 20
166.5308185976
 11
243.1931749754
 21
165.6391498748
  0
LINE
  5
626
100
AcDbEntity
  8
0
100
AcDbLine
 62
7
  6
CONTINUOUS
 10
243.3506970118
 20
180.327228891
 11
243.3506970118
 21
176.527228891
  0
LINE
  5
627
100
AcDbEntity
  8
0
100
AcDbLine
 62
7
  6
CONTINUOUS
 10
243.3506970118
 20
156.227228891
 11
243.3506970118
 21
152.427228891
  0
LINE
  5
628
100
AcDbEntity
  8
0
100
AcDbLine
 62
7
  6
CONTINUOUS
 10
243.5206522836
 20
165.5019893716
 11
243.5206522836
 21
166.5308185976
  0
LINE
  5
629
100
AcDbEntity
  8
0
100
AcDbLine
 62
7
  6
CONTINUOUS
 10
243.5293471566
 20
165.1020498594
 11
243.5293471566
 21
165.0834900583
  0
LINE
  5
62A
100
AcDbEntity
  8
0
100
AcDbLine
 62
7
  6
CONTINUOUS
 10
243.5293471566
 20
164.9229740273
 11
243.5293471566
 21
164.5369176185
  0
LINE
  5
62B
100
AcDbEntity
  8
0
100
AcDbLine
 62
7
  6
CONTINUOUS
 10
243.6684552663
 20
164.6760257282
 11
243.6684552663
 21
164.9629417497
  0
LINE
  5
62C
100
AcDbEntity
  8
0
100
AcDbLine
 62
7
  6
CONTINUOUS
 10
243.9506970118
 20
152.427228891
 11
243.9506970118
 21
156.227228891
  0
LINE
  5
62D
100
AcDbEntity
  8
0
100
AcDbLine
 62
7
  6
CONTINUOUS
 10
243.9506970118
 20
176.527228891
 11
243.9506970118
 21
180.327228891
  0
LINE
  5
62E
100
AcDbEntity
  8
0
100
AcDbLine
 62
7
  6
CONTINUOUS
 10
243.9698627428
 20
164.6949615392
 11
243.9698627428
 21
164.6760257282
  0
LINE
  5
62F
100
AcDbEntity
  8
0
100
AcDbLine
 62
7
  6
CONTINUOUS
 10
244.1089708525
 20
164.5369176185
 11
244.1089708525
 21
164.56050436
  0
LINE
  5
630
100
AcDbEntity
  8
0
100
AcDbLine
 62
7
  6
CONTINUOUS
 10
244.1089708525
 20
164.7539705395
 11
244.1089708525
 21
164.8756000516
  0
LINE
  5
631
100
AcDbEntity
  8
0
100
AcDbLine
 62
7
  6
CONTINUOUS
 10
244.1089708525
 20
165.036115253
 11
244.1089708525
 21
165.1020498594
  0
LINE
  5
632
100
AcDbEntity
  8
0
100
AcDbLine
 62
7
  6
CONTINUOUS
 10
244.2506970118
 20
153.027228891
 11
244.2506970118
 21
155.627228891
  0
LINE
  5
633
100
AcDbEntity
  8
0
100
AcDbLine
 62
7
  6
CONTINUOUS
 10
244.2506970118
 20
177.127228891
 11
244.2506970118
 21
179.727228891
  0
LINE
  5
634
100
AcDbEntity
  8
0
100
AcDbLine
 62
7
  6
CONTINUOUS
 10
244.4022305823
 20
167.7943995361
 11
244.4022305823
 21
167.5727599939
  0
LINE
  5
635
100
AcDbEntity
  8
0
100
AcDbLine
 62
7
  6
CONTINUOUS
 10
244.4022305823
 20
167.3982321457
 11
244.4022305823
 21
165.0121460422
  0
LINE
  5
636
100
AcDbEntity
  8
0
100
AcDbLine
 62
7
  6
CONTINUOUS
 10
244.5761132549
 20
165.0251449227
 11
244.5761132549
 21
166.9713243256
  0
LINE
  5
637
100
AcDbEntity
  8
0
100
AcDbLine
 62
7
  6
CONTINUOUS
 10
244.5761132549
 20
167.2640467872
 11
244.5761132549
 21
167.4365894656
  0
LINE
  5
638
100
AcDbEntity
  8
0
100
AcDbLine
 62
7
  6
CONTINUOUS
 10
244.5761132549
 20
167.5891075879
 11
244.5761132549
 21
167.7943995361
  0
LINE
  5
639
100
AcDbEntity
  8
0
100
AcDbLine
 62
7
  6
CONTINUOUS
 10
244.7418481809
 20
166.5163320717
 11
244.7418481809
 21
165.7084778179
  0
LINE
  5
63A
100
AcDbEntity
  8
0
100
AcDbLine
 62
7
  6
CONTINUOUS
 10
244.8809612197
 20
165.8475859276
 11
244.8809612197
 21
166.377228891
  0
LINE
  5
63B
100
AcDbEntity
  8
0
100
AcDbLine
 62
7
  6
CONTINUOUS
 10
244.9726544752
 20
166.377228891
 11
244.9726544752
 21
165.8475859276
  0
LINE
  5
63C
100
AcDbEntity
  8
0
100
AcDbLine
 62
7
  6
CONTINUOUS
 10
245.0218782967
 20
166.9713243256
 11
245.0218782967
 21
167.2640467872
  0
LINE
  5
63D
100
AcDbEntity
  8
0
100
AcDbLine
 62
7
  6
CONTINUOUS
 10
245.1117253176
 20
165.7084778179
 11
245.1117253176
 21
166.5163320717
  0
LINE
  5
63E
100
AcDbEntity
  8
0
100
AcDbLine
 62
7
  6
CONTINUOUS
 10
246.2506970118
 20
163.377228891
 11
246.2506970118
 21
169.377228891
  0
LINE
  5
63F
100
AcDbEntity
  8
0
100
AcDbLine
 62
7
  6
CONTINUOUS
 10
249.2506970118
 20
179.727228891
 11
249.2506970118
 21
177.127228891
  0
LINE
  5
640
100
AcDbEntity
  8
0
100
AcDbLine
 62
7
  6
CONTINUOUS
 10
249.2506970118
 20
155.627228891
 11
249.2506970118
 21
153.027228891
  0
LINE
  5
641
100
AcDbEntity
  8
0
100
AcDbLine
 62
7
  6
CONTINUOUS
 10
249.5506970118
 20
180.327228891
 11
249.5506970118
 21
176.527228891
  0
LINE
  5
642
100
AcDbEntity
  8
0
100
AcDbLine
 62
7
  6
CONTINUOUS
 10
249.5506970118
 20
156.227228891
 11
249.5506970118
 21
152.427228891
  0
LINE
  5
643
100
AcDbEntity
  8
0
100
AcDbLine
 62
7
  6
CONTINUOUS
 10
244.3385649774
 20
176.9150968567
 11
243.9506970118
 21
176.527228891
  0
LINE
  5
644
100
AcDbEntity
  8
0
100
AcDbLine
 62
7
  6
CONTINUOUS
 10
244.3385649774
 20
155.8393609254
 11
243.9506970118
 21
156.227228891
  0
LINE
  5
645
100
AcDbEntity
  8
0
100
AcDbLine
 62
7
  6
CONTINUOUS
 10
239.5413143226
 20
163.6927682451
 11
239.6360312529
 21
163.5908795239
  0
LINE
  5
646
100
AcDbEntity
  8
0
100
AcDbLine
 62
7
  6
CONTINUOUS
 10
252.3506970118
 20
202.877228891
 11
252.3506970118
 21
201.977228891
  0
LINE
  5
647
100
AcDbEntity
  8
0
100
AcDbLine
 62
7
  6
CONTINUOUS
 10
252.3506970118
 20
130.777228891
 11
252.3506970118
 21
129.877228891
  0
LINE
  5
648
100
AcDbEntity
  8
0
100
AcDbLine
 62
7
  6
CONTINUOUS
 10
255.3506970118
 20
128.877228891
 11
255.3506970118
 21
128.577228891
  0
LINE
  5
649
100
AcDbEntity
  8
0
100
AcDbLine
 62
7
  6
CONTINUOUS
 10
255.3506970118
 20
203.877228891
 11
255.3506970118
 21
204.177228891
  0
LINE
  5
64A
100
AcDbEntity
  8
0
100
AcDbLine
 62
7
  6
CONTINUOUS
 10
227.3506970118
 20
147.6745489818
 11
229.216916445
 21
149.8986226959
  0
LINE
  5
64B
100
AcDbEntity
  8
0
100
AcDbLine
 62
7
  6
CONTINUOUS
 10
239.6322893094
 20
169.0809893563
 11
239.5356007445
 21
168.9809687425
  0
LINE
  5
64C
100
AcDbEntity
  8
0
100
AcDbLine
 62
7
  6
CONTINUOUS
 10
249.1628290461
 20
179.9393609254
 11
249.5506970118
 21
180.327228891
  0
LINE
  5
64D
100
AcDbEntity
  8
0
100
AcDbLine
 62
7
  6
CONTINUOUS
 10
264.4506970118
 20
128.077228891
 11
258.8506970118
 21
128.077228891
  0
LINE
  5
64E
100
AcDbEntity
  8
0
100
AcDbLine
 62
7
  6
CONTINUOUS
 10
266.3506970118
 20
128.077228891
 11
270.3506970118
 21
128.077228891
  0
LINE
  5
64F
100
AcDbEntity
  8
0
100
AcDbLine
 62
7
  6
CONTINUOUS
 10
258.1506970118
 20
128.577228891
 11
255.3506970118
 21
128.577228891
  0
LINE
  5
650
100
AcDbEntity
  8
0
100
AcDbLine
 62
7
  6
CONTINUOUS
 10
270.9435902306
 20
128.877228891
 11
264.3923168605
 21
128.877228891
  0
LINE
  5
651
100
AcDbEntity
  8
0
100
AcDbLine
 62
7
  6
CONTINUOUS
 10
234.3506970118
 20
128.877228891
 11
227.8506970118
 21
128.877228891
  0
LINE
  5
652
100
AcDbEntity
  8
0
100
AcDbLine
 62
7
  6
CONTINUOUS
 10
253.3506970118
 20
128.877228891
 11
258.9090771631
 21
128.877228891
  0
LINE
  5
653
100
AcDbEntity
  8
0
100
AcDbLine
 62
7
  6
CONTINUOUS
 10
285.522269887
 20
129.377228891
 11
257.3506970118
 21
129.377228891
  0
LINE
  5
654
100
AcDbEntity
  8
0
100
AcDbLine
 62
7
  6
CONTINUOUS
 10
238.957803793
 20
130.777228891
 11
271.0435902306
 21
130.777228891
  0
LINE
  5
655
100
AcDbEntity
  8
0
100
AcDbLine
 62
7
  6
CONTINUOUS
 10
240.2335397243
 20
132.377228891
 11
241.8720173553
 21
132.377228891
  0
LINE
  5
656
100
AcDbEntity
  8
0
100
AcDbLine
 62
7
  6
CONTINUOUS
 10
247.3046075361
 20
132.377228891
 11
248.9430851672
 21
132.377228891
  0
LINE
  5
657
100
AcDbEntity
  8
0
100
AcDbLine
 62
7
  6
CONTINUOUS
 10
254.375675348
 20
132.377228891
 11
256.0141529791
 21
132.377228891
  0
LINE
  5
658
100
AcDbEntity
  8
0
100
AcDbLine
 62
7
  6
CONTINUOUS
 10
261.4467431599
 20
132.377228891
 11
263.0852207909
 21
132.377228891
  0
LINE
  5
659
100
AcDbEntity
  8
0
100
AcDbLine
 62
7
  6
CONTINUOUS
 10
304.522269887
 20
132.877228891
 11
290.6791241365
 21
132.877228891
  0
LINE
  5
65A
100
AcDbEntity
  8
0
100
AcDbLine
 62
7
  6
CONTINUOUS
 10
249.1628290461
 20
152.8150968567
 11
249.5506970118
 21
152.427228891
  0
LINE
  5
65B
100
AcDbEntity
  8
0
100
AcDbLine
 62
7
  6
CONTINUOUS
 10
256.3506970118
 20
202.377228891
 11
256.3506970118
 21
201.977228891
  0
LINE
  5
65C
100
AcDbEntity
  8
0
100
AcDbLine
 62
7
  6
CONTINUOUS
 10
256.3506970118
 20
130.377228891
 11
256.3506970118
 21
130.777228891
  0
LINE
  5
65D
100
AcDbEntity
  8
0
100
AcDbLine
 62
7
  6
CONTINUOUS
 10
258.1506970118
 20
128.877228891
 11
258.1506970118
 21
128.577228891
  0
LINE
  5
65E
100
AcDbEntity
  8
0
100
AcDbLine
 62
7
  6
CONTINUOUS
 10
258.1506970118
 20
203.877228891
 11
258.1506970118
 21
204.177228891
  0
LINE
  5
65F
100
AcDbEntity
  8
0
100
AcDbLine
 62
7
  6
CONTINUOUS
 10
258.8506970118
 20
204.677228891
 11
258.8506970118
 21
203.877228891
  0
LINE
  5
660
100
AcDbEntity
  8
0
100
AcDbLine
 62
7
  6
CONTINUOUS
 10
258.8506970118
 20
128.077228891
 11
258.8506970118
 21
128.877228891
  0
LINE
  5
661
100
AcDbEntity
  8
0
100
AcDbLine
 62
7
  6
CONTINUOUS
 10
260.1506970118
 20
153.677228891
 11
260.1506970118
 21
155.577228891
  0
LINE
  5
662
100
AcDbEntity
  8
0
100
AcDbLine
 62
7
  6
CONTINUOUS
 10
260.1506970118
 20
177.177228891
 11
260.1506970118
 21
179.077228891
  0
LINE
  5
663
100
AcDbEntity
  8
0
100
AcDbLine
 62
7
  6
CONTINUOUS
 10
260.7506970118
 20
153.527228891
 11
260.7506970118
 21
153.377228891
  0
LINE
  5
664
100
AcDbEntity
  8
0
100
AcDbLine
 62
7
  6
CONTINUOUS
 10
260.7506970118
 20
179.227228891
 11
260.7506970118
 21
179.377228891
  0
LINE
  5
665
100
AcDbEntity
  8
0
100
AcDbLine
 62
7
  6
CONTINUOUS
 10
245.4379654302
 20
169.1735375055
 11
243.6456040168
 21
167.5075886205
  0
LINE
  5
666
100
AcDbEntity
  8
0
100
AcDbLine
 62
7
  6
CONTINUOUS
 10
243.4386554851
 20
167.3152358545
 11
242.4295207716
 21
166.3772738797
  0
LINE
  5
667
100
AcDbEntity
  8
0
100
AcDbLine
 62
7
  6
CONTINUOUS
 10
242.3274816284
 20
166.2824314022
 11
241.2389702718
 21
165.2706910985
  0
LINE
  5
668
100
AcDbEntity
  8
0
100
AcDbLine
 62
7
  6
CONTINUOUS
 10
240.6791990927
 20
164.7503997305
 11
239.5413143226
 21
163.6927682451
  0
LINE
  5
669
100
AcDbEntity
  8
0
100
AcDbLine
 62
7
  6
CONTINUOUS
 10
239.6360312529
 20
163.5908795239
 11
241.2680450039
 21
165.1077954454
  0
LINE
  5
66A
100
AcDbEntity
  8
0
100
AcDbLine
 62
7
  6
CONTINUOUS
 10
241.4267850032
 20
165.2553403004
 11
242.4276462005
 21
166.1856157252
  0
LINE
  5
66B
100
AcDbEntity
  8
0
100
AcDbLine
 62
7
  6
CONTINUOUS
 10
242.5296850365
 20
166.2804582686
 11
243.6638458325
 21
167.334632333
  0
LINE
  5
66C
100
AcDbEntity
  8
0
100
AcDbLine
 62
7
  6
CONTINUOUS
 10
243.8707936337
 20
167.5269851329
 11
245.6422801583
 21
169.1735375055
  0
LINE
  5
66D
100
AcDbEntity
  8
0
100
AcDbLine
 62
7
  6
CONTINUOUS
 10
234.8506970118
 20
133.877228891
 11
235.6506970118
 21
133.877228891
  0
LINE
  5
66E
100
AcDbEntity
  8
0
100
AcDbLine
 62
7
  6
CONTINUOUS
 10
271.3006970118
 20
134.127228891
 11
268.3006970118
 21
134.127228891
  0
LINE
  5
66F
100
AcDbEntity
  8
0
100
AcDbLine
 62
7
  6
CONTINUOUS
 10
271.4178976269
 20
134.277228891
 11
271.5543442948
 21
134.277228891
  0
LINE
  5
670
100
AcDbEntity
  8
0
100
AcDbLine
 62
7
  6
CONTINUOUS
 10
278.7718081512
 20
134.277228891
 11
279.9860217136
 21
134.277228891
  0
LINE
  5
671
100
AcDbEntity
  8
0
100
AcDbLine
 62
7
  6
CONTINUOUS
 10
286.1257186756
 20
134.277228891
 11
287.339932238
 21
134.277228891
  0
LINE
  5
672
100
AcDbEntity
  8
0
100
AcDbLine
 62
7
  6
CONTINUOUS
 10
293.4796291999
 20
134.277228891
 11
294.6938427623
 21
134.277228891
  0
LINE
  5
673
100
AcDbEntity
  8
0
100
AcDbLine
 62
7
  6
CONTINUOUS
 10
300.8335397243
 20
134.277228891
 11
302.0477532866
 21
134.277228891
  0
LINE
  5
674
100
AcDbEntity
  8
0
100
AcDbLine
 62
7
  6
CONTINUOUS
 10
268.0006970118
 20
134.877228891
 11
271.6006970118
 21
134.877228891
  0
LINE
  5
675
100
AcDbEntity
  8
0
100
AcDbLine
 62
7
  6
CONTINUOUS
 10
265.6023780785
 20
135.377228891
 11
263.9639004474
 21
135.377228891
  0
LINE
  5
676
100
AcDbEntity
  8
0
100
AcDbLine
 62
7
  6
CONTINUOUS
 10
258.5313102666
 20
135.377228891
 11
256.8928326355
 21
135.377228891
  0
LINE
  5
677
100
AcDbEntity
  8
0
100
AcDbLine
 62
7
  6
CONTINUOUS
 10
251.4602424547
 20
135.377228891
 11
249.8217648237
 21
135.377228891
  0
LINE
  5
678
100
AcDbEntity
  8
0
100
AcDbLine
 62
7
  6
CONTINUOUS
 10
244.3891746429
 20
135.377228891
 11
242.7506970118
 21
135.377228891
  0
LINE
  5
679
100
AcDbEntity
  8
0
100
AcDbLine
 62
7
  6
CONTINUOUS
 10
268.4506970118
 20
135.627228891
 11
271.1506970118
 21
135.627228891
  0
LINE
  5
67A
100
AcDbEntity
  8
0
100
AcDbLine
 62
7
  6
CONTINUOUS
 10
268.4506970118
 20
136.077228891
 11
271.1506970118
 21
136.077228891
  0
LINE
  5
67B
100
AcDbEntity
  8
0
100
AcDbLine
 62
7
  6
CONTINUOUS
 10
268.3006970118
 20
136.377228891
 11
271.3006970118
 21
136.377228891
  0
LINE
  5
67C
100
AcDbEntity
  8
0
100
AcDbLine
 62
7
  6
CONTINUOUS
 10
304.1649105742
 20
136.877228891
 11
302.9506970118
 21
136.877228891
  0
LINE
  5
67D
100
AcDbEntity
  8
0
100
AcDbLine
 62
7
  6
CONTINUOUS
 10
296.8110000498
 20
136.877228891
 11
295.5967864874
 21
136.877228891
  0
LINE
  5
67E
100
AcDbEntity
  8
0
100
AcDbLine
 62
7
  6
CONTINUOUS
 10
289.4570895255
 20
136.877228891
 11
288.2428759631
 21
136.877228891
  0
LINE
  5
67F
100
AcDbEntity
  8
0
100
AcDbLine
 62
7
  6
CONTINUOUS
 10
282.1031790011
 20
136.877228891
 11
280.8889654388
 21
136.877228891
  0
LINE
  5
680
100
AcDbEntity
  8
0
100
AcDbLine
 62
7
  6
CONTINUOUS
 10
239.5356007445
 20
168.9809687425
 11
241.2715096783
 21
167.3030980625
  0
LINE
  5
681
100
AcDbEntity
  8
0
100
AcDbLine
 62
7
  6
CONTINUOUS
 10
241.4372991135
 20
167.1428516193
 11
242.3274816284
 21
166.2824314022
  0
LINE
  5
682
100
AcDbEntity
  8
0
100
AcDbLine
 62
7
  6
CONTINUOUS
 10
242.4276462005
 20
166.1856157252
 11
243.5486930661
 21
165.1020498594
  0
LINE
  5
683
100
AcDbEntity
  8
0
100
AcDbLine
 62
7
  6
CONTINUOUS
 10
243.6926129839
 20
164.9629417497
 11
243.9698627428
 21
164.6949615392
  0
LINE
  5
684
100
AcDbEntity
  8
0
100
AcDbLine
 62
7
  6
CONTINUOUS
 10
244.1089708525
 20
164.56050436
 11
245.44329868
 21
163.2707883526
  0
LINE
  5
685
100
AcDbEntity
  8
0
100
AcDbLine
 62
7
  6
CONTINUOUS
 10
245.6434532761
 20
163.2707883526
 11
244.1089708525
 21
164.7539705395
  0
LINE
  5
686
100
AcDbEntity
  8
0
100
AcDbLine
 62
7
  6
CONTINUOUS
 10
243.7488521812
 20
165.1020498594
 11
243.3350795797
 21
165.5019893716
  0
LINE
  5
687
100
AcDbEntity
  8
0
100
AcDbLine
 62
7
  6
CONTINUOUS
 10
243.1931749754
 20
165.6391498748
 11
242.5296850365
 21
166.2804582686
  0
LINE
  5
688
100
AcDbEntity
  8
0
100
AcDbLine
 62
7
  6
CONTINUOUS
 10
242.4295207716
 20
166.3772738797
 11
241.621085526
 21
167.1586818235
  0
LINE
  5
689
100
AcDbEntity
  8
0
100
AcDbLine
 62
7
  6
CONTINUOUS
 10
241.4552963788
 20
167.3189283706
 11
239.6322893094
 21
169.0809893563
  0
LINE
  5
68A
100
AcDbEntity
  8
0
100
AcDbLine
 62
7
  6
CONTINUOUS
 10
231.1506970118
 20
180.577228891
 11
231.3506970118
 21
180.377228891
  0
LINE
  5
68B
100
AcDbEntity
  8
0
100
AcDbLine
 62
7
  6
CONTINUOUS
 10
264.4506970118
 20
204.677228891
 11
264.4506970118
 21
203.877228891
  0
LINE
  5
68C
100
AcDbEntity
  8
0
100
AcDbLine
 62
7
  6
CONTINUOUS
 10
264.4506970118
 20
128.077228891
 11
264.4506970118
 21
128.877228891
  0
LINE
  5
68D
100
AcDbEntity
  8
0
100
AcDbLine
 62
7
  6
CONTINUOUS
 10
274.7506970118
 20
139.377228891
 11
298.5435902306
 21
139.377228891
  0
LINE
  5
68E
100
AcDbEntity
  8
0
100
AcDbLine
 62
7
  6
CONTINUOUS
 10
277.8506970118
 20
140.377228891
 11
282.4506970118
 21
140.377228891
  0
LINE
  5
68F
100
AcDbEntity
  8
0
100
AcDbLine
 62
7
  6
CONTINUOUS
 10
266.3506970118
 20
204.677228891
 11
266.3506970118
 21
203.877228891
  0
LINE
  5
690
100
AcDbEntity
  8
0
100
AcDbLine
 62
7
  6
CONTINUOUS
 10
266.3506970118
 20
128.877228891
 11
266.3506970118
 21
128.077228891
  0
LINE
  5
691
100
AcDbEntity
  8
0
100
AcDbLine
 62
7
  6
CONTINUOUS
 10
268.0006970118
 20
134.427228891
 11
268.0006970118
 21
136.077228891
  0
LINE
  5
692
100
AcDbEntity
  8
0
100
AcDbLine
 62
7
  6
CONTINUOUS
 10
268.0006970118
 20
196.677228891
 11
268.0006970118
 21
198.327228891
  0
LINE
  5
693
100
AcDbEntity
  8
0
100
AcDbLine
 62
7
  6
CONTINUOUS
 10
268.3506970118
 20
203.877228891
 11
268.3506970118
 21
201.977228891
  0
LINE
  5
694
100
AcDbEntity
  8
0
100
AcDbLine
 62
7
  6
CONTINUOUS
 10
268.3506970118
 20
198.627228891
 11
268.3506970118
 21
197.877228891
  0
LINE
  5
695
100
AcDbEntity
  8
0
100
AcDbLine
 62
7
  6
CONTINUOUS
 10
268.3506970118
 20
134.877228891
 11
268.3506970118
 21
134.127228891
  0
LINE
  5
696
100
AcDbEntity
  8
0
100
AcDbLine
 62
7
  6
CONTINUOUS
 10
268.3506970118
 20
130.777228891
 11
268.3506970118
 21
128.877228891
  0
LINE
  5
697
100
AcDbEntity
  8
0
100
AcDbLine
 62
7
  6
CONTINUOUS
 10
268.4506970118
 20
197.127228891
 11
268.4506970118
 21
196.377228891
  0
LINE
  5
698
100
AcDbEntity
  8
0
100
AcDbLine
 62
7
  6
CONTINUOUS
 10
268.4506970118
 20
136.377228891
 11
268.4506970118
 21
135.627228891
  0
LINE
  5
699
100
AcDbEntity
  8
0
100
AcDbLine
 62
7
  6
CONTINUOUS
 10
268.6006970118
 20
136.077228891
 11
268.6006970118
 21
136.377228891
  0
LINE
  5
69A
100
AcDbEntity
  8
0
100
AcDbLine
 62
7
  6
CONTINUOUS
 10
268.6006970118
 20
196.377228891
 11
268.6006970118
 21
196.677228891
  0
LINE
  5
69B
100
AcDbEntity
  8
0
100
AcDbLine
 62
7
  6
CONTINUOUS
 10
270.3506970118
 20
204.677228891
 11
270.3506970118
 21
203.877228891
  0
LINE
  5
69C
100
AcDbEntity
  8
0
100
AcDbLine
 62
7
  6
CONTINUOUS
 10
270.3506970118
 20
128.877228891
 11
270.3506970118
 21
128.077228891
  0
LINE
  5
69D
100
AcDbEntity
  8
0
100
AcDbLine
 62
7
  6
CONTINUOUS
 10
244.3385649774
 20
152.8150968567
 11
243.9506970118
 21
152.427228891
  0
LINE
  5
69E
100
AcDbEntity
  8
0
100
AcDbLine
 62
7
  6
CONTINUOUS
 10
249.5506970118
 20
156.227228891
 11
249.1628290461
 21
155.8393609254
  0
LINE
  5
69F
100
AcDbEntity
  8
0
100
AcDbLine
 62
7
  6
CONTINUOUS
 10
298.8006970118
 20
144.627228891
 11
295.8006970118
 21
144.627228891
  0
LINE
  5
6A0
100
AcDbEntity
  8
0
100
AcDbLine
 62
7
  6
CONTINUOUS
 10
277.8506970118
 20
144.627228891
 11
282.4506970118
 21
144.627228891
  0
LINE
  5
6A1
100
AcDbEntity
  8
0
100
AcDbLine
 62
7
  6
CONTINUOUS
 10
275.3506970118
 20
145.127228891
 11
282.9506970118
 21
145.127228891
  0
LINE
  5
6A2
100
AcDbEntity
  8
0
100
AcDbLine
 62
7
  6
CONTINUOUS
 10
299.1006970118
 20
145.377228891
 11
295.5006970118
 21
145.377228891
  0
LINE
  5
6A3
100
AcDbEntity
  8
0
100
AcDbLine
 62
7
  6
CONTINUOUS
 10
295.9506970118
 20
146.127228891
 11
298.6506970118
 21
146.127228891
  0
LINE
  5
6A4
100
AcDbEntity
  8
0
100
AcDbLine
 62
7
  6
CONTINUOUS
 10
295.9506970118
 20
146.577228891
 11
298.6506970118
 21
146.577228891
  0
LINE
  5
6A5
100
AcDbEntity
  8
0
100
AcDbLine
 62
7
  6
CONTINUOUS
 10
231.3506970118
 20
146.877228891
 11
227.8506970118
 21
146.877228891
  0
LINE
  5
6A6
100
AcDbEntity
  8
0
100
AcDbLine
 62
7
  6
CONTINUOUS
 10
295.8006970118
 20
146.877228891
 11
298.8006970118
 21
146.877228891
  0
LINE
  5
6A7
100
AcDbEntity
  8
0
100
AcDbLine
 62
7
  6
CONTINUOUS
 10
243.9506970118
 20
180.327228891
 11
244.3385649774
 21
179.9393609254
  0
LINE
  5
6A8
100
AcDbEntity
  8
0
100
AcDbLine
 62
7
  6
CONTINUOUS
 10
249.1628290461
 20
176.9150968567
 11
249.5506970118
 21
176.527228891
  0
LINE
  5
6A9
100
AcDbEntity
  8
0
100
AcDbLine
 62
7
  6
CONTINUOUS
 10
271.0006970118
 20
196.677228891
 11
271.0006970118
 21
196.377228891
  0
LINE
  5
6AA
100
AcDbEntity
  8
0
100
AcDbLine
 62
7
  6
CONTINUOUS
 10
271.0006970118
 20
136.377228891
 11
271.0006970118
 21
136.077228891
  0
LINE
  5
6AB
100
AcDbEntity
  8
0
100
AcDbLine
 62
7
  6
CONTINUOUS
 10
271.1506970118
 20
135.627228891
 11
271.1506970118
 21
136.377228891
  0
LINE
  5
6AC
100
AcDbEntity
  8
0
100
AcDbLine
 62
7
  6
CONTINUOUS
 10
271.1506970118
 20
196.377228891
 11
271.1506970118
 21
197.127228891
  0
LINE
  5
6AD
100
AcDbEntity
  8
0
100
AcDbLine
 62
7
  6
CONTINUOUS
 10
271.6006970118
 20
198.327228891
 11
271.6006970118
 21
196.677228891
  0
LINE
  5
6AE
100
AcDbEntity
  8
0
100
AcDbLine
 62
7
  6
CONTINUOUS
 10
271.6006970118
 20
136.077228891
 11
271.6006970118
 21
134.427228891
  0
LINE
  5
6AF
100
AcDbEntity
  8
0
100
AcDbLine
 62
7
  6
CONTINUOUS
 10
272.7506970118
 20
153.527228891
 11
272.7506970118
 21
153.377228891
  0
LINE
  5
6B0
100
AcDbEntity
  8
0
100
AcDbLine
 62
7
  6
CONTINUOUS
 10
272.7506970118
 20
179.227228891
 11
272.7506970118
 21
179.377228891
  0
LINE
  5
6B1
100
AcDbEntity
  8
0
100
AcDbLine
 62
7
  6
CONTINUOUS
 10
273.3506970118
 20
179.077228891
 11
273.3506970118
 21
177.177228891
  0
LINE
  5
6B2
100
AcDbEntity
  8
0
100
AcDbLine
 62
7
  6
CONTINUOUS
 10
273.3506970118
 20
155.577228891
 11
273.3506970118
 21
153.677228891
  0
LINE
  5
6B3
100
AcDbEntity
  8
0
100
AcDbLine
 62
7
  6
CONTINUOUS
 10
275.2506970118
 20
134.9843356722
 11
275.2506970118
 21
139.377228891
  0
LINE
  5
6B4
100
AcDbEntity
  8
0
100
AcDbLine
 62
7
  6
CONTINUOUS
 10
275.2506970118
 20
164.377228891
 11
275.2506970118
 21
168.377228891
  0
LINE
  5
6B5
100
AcDbEntity
  8
0
100
AcDbLine
 62
7
  6
CONTINUOUS
 10
275.2506970118
 20
193.377228891
 11
275.2506970118
 21
197.7701221098
  0
LINE
  5
6B6
100
AcDbEntity
  8
0
100
AcDbLine
 62
7
  6
CONTINUOUS
 10
275.3506970118
 20
139.377228891
 11
275.3506970118
 21
145.127228891
  0
LINE
  5
6B7
100
AcDbEntity
  8
0
100
AcDbLine
 62
7
  6
CONTINUOUS
 10
275.3506970118
 20
187.627228891
 11
275.3506970118
 21
193.377228891
  0
LINE
  5
6B8
100
AcDbEntity
  8
0
100
AcDbLine
 62
7
  6
CONTINUOUS
 10
320.857803793
 20
147.577228891
 11
347.6435902306
 21
147.577228891
  0
LINE
  5
6B9
100
AcDbEntity
  8
0
100
AcDbLine
 62
7
  6
CONTINUOUS
 10
230.2506970118
 20
148.877228891
 11
231.3506970118
 21
148.877228891
  0
LINE
  5
6BA
100
AcDbEntity
  8
0
100
AcDbLine
 62
7
  6
CONTINUOUS
 10
322.3335397243
 20
148.977228891
 11
323.5477532866
 21
148.977228891
  0
LINE
  5
6BB
100
AcDbEntity
  8
0
100
AcDbLine
 62
7
  6
CONTINUOUS
 10
329.6874502486
 20
148.977228891
 11
330.901663811
 21
148.977228891
  0
LINE
  5
6BC
100
AcDbEntity
  8
0
100
AcDbLine
 62
7
  6
CONTINUOUS
 10
337.0413607729
 20
148.977228891
 11
338.2555743353
 21
148.977228891
  0
LINE
  5
6BD
100
AcDbEntity
  8
0
100
AcDbLine
 62
7
  6
CONTINUOUS
 10
344.3952712973
 20
148.977228891
 11
345.6094848597
 21
148.977228891
  0
LINE
  5
6BE
100
AcDbEntity
  8
0
100
AcDbLine
 62
7
  6
CONTINUOUS
 10
230.1667848375
 20
150.077228891
 11
229.5999386665
 21
150.077228891
  0
LINE
  5
6BF
100
AcDbEntity
  8
0
100
AcDbLine
 62
7
  6
CONTINUOUS
 10
347.7266421472
 20
151.577228891
 11
346.5124285848
 21
151.577228891
  0
LINE
  5
6C0
100
AcDbEntity
  8
0
100
AcDbLine
 62
7
  6
CONTINUOUS
 10
340.3727316228
 20
151.577228891
 11
339.1585180605
 21
151.577228891
  0
LINE
  5
6C1
100
AcDbEntity
  8
0
100
AcDbLine
 62
7
  6
CONTINUOUS
 10
333.0188210985
 20
151.577228891
 11
331.8046075361
 21
151.577228891
  0
LINE
  5
6C2
100
AcDbEntity
  8
0
100
AcDbLine
 62
7
  6
CONTINUOUS
 10
325.6649105742
 20
151.577228891
 11
324.4506970118
 21
151.577228891
  0
LINE
  5
6C3
100
AcDbEntity
  8
0
100
AcDbLine
 62
7
  6
CONTINUOUS
 10
309.8506970118
 20
151.877228891
 11
316.3506970118
 21
151.877228891
  0
LINE
  5
6C4
100
AcDbEntity
  8
0
100
AcDbLine
 62
7
  6
CONTINUOUS
 10
231.3506970118
 20
152.377228891
 11
234.7506970118
 21
152.377228891
  0
LINE
  5
6C5
100
AcDbEntity
  8
0
100
AcDbLine
 62
7
  6
CONTINUOUS
 10
277.3506970118
 20
139.377228891
 11
277.3506970118
 21
145.127228891
  0
LINE
  5
6C6
100
AcDbEntity
  8
0
100
AcDbLine
 62
7
  6
CONTINUOUS
 10
277.3506970118
 20
187.627228891
 11
277.3506970118
 21
193.377228891
  0
LINE
  5
6C7
100
AcDbEntity
  8
0
100
AcDbLine
 62
7
  6
CONTINUOUS
 10
277.8506970118
 20
139.377228891
 11
277.8506970118
 21
144.627228891
  0
LINE
  5
6C8
100
AcDbEntity
  8
0
100
AcDbLine
 62
7
  6
CONTINUOUS
 10
277.8506970118
 20
188.127228891
 11
277.8506970118
 21
193.377228891
  0
LINE
  5
6C9
100
AcDbEntity
  8
0
100
AcDbLine
 62
7
  6
CONTINUOUS
 10
242.7506970118
 20
135.377228891
 11
240.092118368
 21
132.7186502473
  0
LINE
  5
6CA
100
AcDbEntity
  8
0
100
AcDbLine
 62
7
  6
CONTINUOUS
 10
241.8720173553
 20
132.377228891
 11
244.5305959991
 21
135.0358075348
  0
LINE
  5
6CB
100
AcDbEntity
  8
0
100
AcDbLine
 62
7
  6
CONTINUOUS
 10
249.5506970118
 20
152.427228891
 11
243.9506970118
 21
152.427228891
  0
LINE
  5
6CC
100
AcDbEntity
  8
0
100
AcDbLine
 62
7
  6
CONTINUOUS
 10
243.3506970118
 20
152.427228891
 11
236.5506970118
 21
152.427228891
  0
LINE
  5
6CD
100
AcDbEntity
  8
0
100
AcDbLine
 62
7
  6
CONTINUOUS
 10
248.9506970118
 20
152.727228891
 11
244.5506970118
 21
152.727228891
  0
LINE
  5
6CE
100
AcDbEntity
  8
0
100
AcDbLine
 62
7
  6
CONTINUOUS
 10
273.0506970118
 20
153.377228891
 11
260.4506970118
 21
153.377228891
  0
LINE
  5
6CF
100
AcDbEntity
  8
0
100
AcDbLine
 62
7
  6
CONTINUOUS
 10
273.3043442948
 20
153.527228891
 11
260.1970497342
 21
153.527228891
  0
LINE
  5
6D0
100
AcDbEntity
  8
02___PRT_ALL_AXES
100
AcDbLine
 62
7
  6
CONTINUOUS
 10
238.6506970118
 20
153.627228891
 11
237.6506970118
 21
153.627228891
  0
LINE
  5
6D1
100
AcDbEntity
  8
0
100
AcDbLine
 62
7
  6
CONTINUOUS
 10
241.1506970118
 20
153.877228891
 11
238.6506970118
 21
153.877228891
  0
LINE
  5
6D2
100
AcDbEntity
  8
0
100
AcDbLine
 62
7
  6
CONTINUOUS
 10
238.6506970118
 20
154.877228891
 11
241.1506970118
 21
154.877228891
  0
LINE
  5
6D3
100
AcDbEntity
  8
0
100
AcDbLine
 62
7
  6
CONTINUOUS
 10
273.3506970118
 20
155.127228891
 11
260.1506970118
 21
155.127228891
  0
LINE
  5
6D4
100
AcDbEntity
  8
02___PRT_ALL_AXES
100
AcDbLine
 62
7
  6
CONTINUOUS
 10
238.6506970118
 20
155.127228891
 11
237.6506970118
 21
155.127228891
  0
LINE
  5
6D5
100
AcDbEntity
  8
0
100
AcDbLine
 62
7
  6
CONTINUOUS
 10
260.4506970118
 20
155.877228891
 11
273.0506970118
 21
155.877228891
  0
LINE
  5
6D6
100
AcDbEntity
  8
0
100
AcDbLine
 62
7
  6
CONTINUOUS
 10
244.5506970118
 20
155.927228891
 11
248.9506970118
 21
155.927228891
  0
LINE
  5
6D7
100
AcDbEntity
  8
0
100
AcDbLine
 62
7
  6
CONTINUOUS
 10
312.3506970118
 20
156.077228891
 11
314.8506970118
 21
156.077228891
  0
LINE
  5
6D8
100
AcDbEntity
  8
0
100
AcDbLine
 62
7
  6
CONTINUOUS
 10
236.5506970118
 20
156.227228891
 11
243.3506970118
 21
156.227228891
  0
LINE
  5
6D9
100
AcDbEntity
  8
0
100
AcDbLine
 62
7
  6
CONTINUOUS
 10
243.9506970118
 20
156.227228891
 11
249.5506970118
 21
156.227228891
  0
LINE
  5
6DA
100
AcDbEntity
  8
0
100
AcDbLine
 62
7
  6
CONTINUOUS
 10
234.7506970118
 20
156.377228891
 11
231.3506970118
 21
156.377228891
  0
LINE
  5
6DB
100
AcDbEntity
  8
0
100
AcDbLine
 62
7
  6
CONTINUOUS
 10
312.3506970118
 20
156.377228891
 11
314.3506970118
 21
156.377228891
  0
LINE
  5
6DC
100
AcDbEntity
  8
0
100
AcDbLine
 62
7
  6
CONTINUOUS
 10
240.092118368
 20
200.0358075348
 11
242.7506970118
 21
197.377228891
  0
LINE
  5
6DD
100
AcDbEntity
  8
0
100
AcDbLine
 62
7
  6
CONTINUOUS
 10
244.5305959991
 20
197.7186502473
 11
241.8720173553
 21
200.377228891
  0
LINE
  5
6DE
100
AcDbEntity
  8
0
100
AcDbLine
 62
7
  6
CONTINUOUS
 10
282.4506970118
 20
193.377228891
 11
282.4506970118
 21
188.127228891
  0
LINE
  5
6DF
100
AcDbEntity
  8
0
100
AcDbLine
 62
7
  6
CONTINUOUS
 10
282.4506970118
 20
144.627228891
 11
282.4506970118
 21
139.377228891
  0
LINE
  5
6E0
100
AcDbEntity
  8
0
100
AcDbLine
 62
7
  6
CONTINUOUS
 10
282.9506970118
 20
139.377228891
 11
282.9506970118
 21
145.127228891
  0
LINE
  5
6E1
100
AcDbEntity
  8
0
100
AcDbLine
 62
7
  6
CONTINUOUS
 10
282.9506970118
 20
187.627228891
 11
282.9506970118
 21
193.377228891
  0
LINE
  5
6E2
100
AcDbEntity
  8
0
100
AcDbLine
 62
7
  6
CONTINUOUS
 10
249.8217648237
 20
135.377228891
 11
247.1631861799
 21
132.7186502473
  0
LINE
  5
6E3
100
AcDbEntity
  8
0
100
AcDbLine
 62
7
  6
CONTINUOUS
 10
248.9430851672
 20
132.377228891
 11
251.601663811
 21
135.0358075348
  0
LINE
  5
6E4
100
AcDbEntity
  8
0
100
AcDbLine
 62
7
  6
CONTINUOUS
 10
312.3506970118
 20
159.377228891
 11
314.3506970118
 21
159.377228891
  0
LINE
  5
6E5
100
AcDbEntity
  8
0
100
AcDbLine
 62
7
  6
CONTINUOUS
 10
314.8506970118
 20
159.577228891
 11
312.3506970118
 21
159.577228891
  0
LINE
  5
6E6
100
AcDbEntity
  8
0
100
AcDbLine
 62
7
  6
CONTINUOUS
 10
231.3506970118
 20
160.377228891
 11
231.2506970118
 21
160.377228891
  0
LINE
  5
6E7
100
AcDbEntity
  8
0
100
AcDbLine
 62
7
  6
CONTINUOUS
 10
231.3506970118
 20
161.2282927386
 11
231.2506970118
 21
161.2282927386
  0
LINE
  5
6E8
100
AcDbEntity
  8
0
100
AcDbLine
 62
7
  6
CONTINUOUS
 10
231.3506970118
 20
161.4410586706
 11
231.2506970118
 21
161.4410586706
  0
LINE
  5
6E9
100
AcDbEntity
  8
0
100
AcDbLine
 62
7
  6
CONTINUOUS
 10
231.3506970118
 20
161.5261650435
 11
231.2506970118
 21
161.5261650435
  0
LINE
  5
6EA
100
AcDbEntity
  8
0
100
AcDbLine
 62
7
  6
CONTINUOUS
 10
231.3506970118
 20
161.6112714163
 11
231.2506970118
 21
161.6112714163
  0
LINE
  5
6EB
100
AcDbEntity
  8
0
100
AcDbLine
 62
7
  6
CONTINUOUS
 10
231.3506970118
 20
161.6963777891
 11
231.2506970118
 21
161.6963777891
  0
LINE
  5
6EC
100
AcDbEntity
  8
0
100
AcDbLine
 62
7
  6
CONTINUOUS
 10
231.3506970118
 20
161.7389309756
 11
231.2506970118
 21
161.7389309756
  0
LINE
  5
6ED
100
AcDbEntity
  8
0
100
AcDbLine
 62
7
  6
CONTINUOUS
 10
241.2680450039
 20
165.1077954454
 11
243.5293471566
 21
164.9229740273
  0
LINE
  5
6EE
100
AcDbEntity
  8
0
100
AcDbLine
 62
7
  6
CONTINUOUS
 10
244.1089708525
 20
164.8756000516
 11
244.3853173823
 21
164.853013615
  0
LINE
  5
6EF
100
AcDbEntity
  8
0
100
AcDbLine
 62
7
  6
CONTINUOUS
 10
244.4022305823
 20
165.0121460422
 11
244.1089708525
 21
165.036115253
  0
LINE
  5
6F0
100
AcDbEntity
  8
0
100
AcDbLine
 62
7
  6
CONTINUOUS
 10
243.5293471566
 20
165.0834900583
 11
241.4267850032
 21
165.2553403004
  0
LINE
  5
6F1
100
AcDbEntity
  8
0
100
AcDbLine
 62
7
  6
CONTINUOUS
 10
241.2389702718
 20
165.2706910985
 11
241.0994805507
 21
165.2820921133
  0
LINE
  5
6F2
100
AcDbEntity
  8
0
100
AcDbLine
 62
7
  6
CONTINUOUS
 10
247.1631861799
 20
200.0358075348
 11
249.8217648237
 21
197.377228891
  0
LINE
  5
6F3
100
AcDbEntity
  8
0
100
AcDbLine
 62
7
  6
CONTINUOUS
 10
251.601663811
 20
197.7186502473
 11
248.9430851672
 21
200.377228891
  0
LINE
  5
6F4
100
AcDbEntity
  8
0
100
AcDbLine
 62
7
  6
CONTINUOUS
 10
285.5506970118
 20
165.027228891
 11
285.5506970118
 21
167.727228891
  0
LINE
  5
6F5
100
AcDbEntity
  8
0
100
AcDbLine
 62
7
  6
CONTINUOUS
 10
286.3506970118
 20
165.927228891
 11
286.3506970118
 21
166.827228891
  0
LINE
  5
6F6
100
AcDbEntity
  8
0
100
AcDbLine
 62
7
  6
CONTINUOUS
 10
287.7506970118
 20
166.827228891
 11
287.7506970118
 21
165.927228891
  0
LINE
  5
6F7
100
AcDbEntity
  8
0
100
AcDbLine
 62
7
  6
CONTINUOUS
 10
288.7506970118
 20
167.727228891
 11
288.7506970118
 21
165.027228891
  0
LINE
  5
6F8
100
AcDbEntity
  8
0
100
AcDbLine
 62
7
  6
CONTINUOUS
 10
256.8928326355
 20
135.377228891
 11
254.2342539918
 21
132.7186502473
  0
LINE
  5
6F9
100
AcDbEntity
  8
0
100
AcDbLine
 62
7
  6
CONTINUOUS
 10
256.0141529791
 20
132.377228891
 11
258.6727316228
 21
135.0358075348
  0
LINE
  5
6FA
100
AcDbEntity
  8
0
100
AcDbLine
 62
7
  6
CONTINUOUS
 10
231.3506970118
 20
162.377228891
 11
231.2506970118
 21
162.377228891
  0
LINE
  5
6FB
100
AcDbEntity
  8
0
100
AcDbLine
 62
7
  6
CONTINUOUS
 10
237.2506970118
 20
162.377228891
 11
245.2506970118
 21
162.377228891
  0
LINE
  5
6FC
100
AcDbEntity
  8
0
100
AcDbLine
 62
7
  6
CONTINUOUS
 10
231.3506970118
 20
162.5048885099
 11
231.2506970118
 21
162.5048885099
  0
LINE
  5
6FD
100
AcDbEntity
  8
0
100
AcDbLine
 62
7
  6
CONTINUOUS
 10
231.3506970118
 20
162.717654442
 11
231.2506970118
 21
162.717654442
  0
LINE
  5
6FE
100
AcDbEntity
  8
0
100
AcDbLine
 62
7
  6
CONTINUOUS
 10
231.3506970118
 20
162.824037408
 11
231.2506970118
 21
162.824037408
  0
LINE
  5
6FF
100
AcDbEntity
  8
0
100
AcDbLine
 62
7
  6
CONTINUOUS
 10
231.3506970118
 20
162.877228891
 11
231.2506970118
 21
162.877228891
  0
LINE
  5
700
100
AcDbEntity
  8
0
100
AcDbLine
 62
7
  6
CONTINUOUS
 10
245.44329868
 20
163.2707883526
 11
245.6434532761
 21
163.2707883526
  0
LINE
  5
701
100
AcDbEntity
  8
0
100
AcDbLine
 62
7
  6
CONTINUOUS
 10
237.0813143226
 20
163.768697834
 11
238.3113143226
 21
163.768697834
  0
LINE
  5
702
100
AcDbEntity
  8
0
100
AcDbLine
 62
7
  6
CONTINUOUS
 10
292.7506970118
 20
163.877228891
 11
275.7506970118
 21
163.877228891
  0
LINE
  5
703
100
AcDbEntity
  8
0
100
AcDbLine
 62
7
  6
CONTINUOUS
 10
288.2506970118
 20
164.527228891
 11
286.0506970118
 21
164.527228891
  0
LINE
  5
704
100
AcDbEntity
  8
0
100
AcDbLine
 62
7
  6
CONTINUOUS
 10
243.5293471566
 20
164.5369176185
 11
244.1089708525
 21
164.5369176185
  0
LINE
  5
705
100
AcDbEntity
  8
0
100
AcDbLine
 62
7
  6
CONTINUOUS
 10
243.9698627428
 20
164.6760257282
 11
243.6684552663
 21
164.6760257282
  0
LINE
  5
706
100
AcDbEntity
  8
0
100
AcDbLine
 62
7
  6
CONTINUOUS
 10
243.6684552663
 20
164.9629417497
 11
243.6926129839
 21
164.9629417497
  0
LINE
  5
707
100
AcDbEntity
  8
0
100
AcDbLine
 62
7
  6
CONTINUOUS
 10
244.1089708525
 20
165.1020498594
 11
243.7488521812
 21
165.1020498594
  0
LINE
  5
708
100
AcDbEntity
  8
0
100
AcDbLine
 62
7
  6
CONTINUOUS
 10
243.5486930661
 20
165.1020498594
 11
243.5293471566
 21
165.1020498594
  0
LINE
  5
709
100
AcDbEntity
  8
0
100
AcDbLine
 62
7
  6
CONTINUOUS
 10
287.2506970118
 20
165.427228891
 11
286.8506970118
 21
165.427228891
  0
LINE
  5
70A
100
AcDbEntity
  8
0
100
AcDbLine
 62
7
  6
CONTINUOUS
 10
243.3350795797
 20
165.5019893716
 11
243.5206522836
 21
165.5019893716
  0
LINE
  5
70B
100
AcDbEntity
  8
0
100
AcDbLine
 62
7
  6
CONTINUOUS
 10
244.7418481809
 20
165.7084778179
 11
244.8861496626
 21
165.7084778179
  0
LINE
  5
70C
100
AcDbEntity
  8
0
100
AcDbLine
 62
7
  6
CONTINUOUS
 10
245.0345877606
 20
165.7084778179
 11
245.1117253176
 21
165.7084778179
  0
LINE
  5
70D
100
AcDbEntity
  8
0
100
AcDbLine
 62
7
  6
CONTINUOUS
 10
244.9726544752
 20
165.8475859276
 11
244.8809612197
 21
165.8475859276
  0
LINE
  5
70E
100
AcDbEntity
  8
0
100
AcDbLine
 62
7
  6
CONTINUOUS
 10
244.8809612197
 20
166.377228891
 11
244.9726544752
 21
166.377228891
  0
LINE
  5
70F
100
AcDbEntity
  8
0
100
AcDbLine
 62
7
  6
CONTINUOUS
 10
245.1117253176
 20
166.5163320717
 11
245.0492032279
 21
166.5163320717
  0
LINE
  5
710
100
AcDbEntity
  8
0
100
AcDbLine
 62
7
  6
CONTINUOUS
 10
244.9013029838
 20
166.5163320717
 11
244.7418481809
 21
166.5163320717
  0
LINE
  5
711
100
AcDbEntity
  8
0
100
AcDbLine
 62
7
  6
CONTINUOUS
 10
243.5206522836
 20
166.5308185976
 11
243.1931749754
 21
166.5308185976
  0
LINE
  5
712
100
AcDbEntity
  8
0
100
AcDbLine
 62
7
  6
CONTINUOUS
 10
240.1240819725
 20
166.8496059619
 11
240.364620409
 21
166.8496059619
  0
LINE
  5
713
100
AcDbEntity
  8
0
100
AcDbLine
 62
7
  6
CONTINUOUS
 10
244.5761132549
 20
166.9713243256
 11
244.8477060849
 21
166.9713243256
  0
LINE
  5
714
100
AcDbEntity
  8
0
100
AcDbLine
 62
7
  6
CONTINUOUS
 10
244.9986227129
 20
166.9713243256
 11
245.0218782967
 21
166.9713243256
  0
LINE
  5
715
100
AcDbEntity
  8
0
100
AcDbLine
 62
7
  6
CONTINUOUS
 10
254.2342539918
 20
200.0358075348
 11
256.8928326355
 21
197.377228891
  0
LINE
  5
716
100
AcDbEntity
  8
0
100
AcDbLine
 62
7
  6
CONTINUOUS
 10
258.6727316228
 20
197.7186502473
 11
256.0141529791
 21
200.377228891
  0
LINE
  5
717
100
AcDbEntity
  8
0
100
AcDbLine
 62
7
  6
CONTINUOUS
 10
293.2506970118
 20
168.377228891
 11
293.2506970118
 21
164.377228891
  0
LINE
  5
718
100
AcDbEntity
  8
0
100
AcDbLine
 62
7
  6
CONTINUOUS
 10
263.9639004474
 20
135.377228891
 11
261.3053218036
 21
132.7186502473
  0
LINE
  5
719
100
AcDbEntity
  8
0
100
AcDbLine
 62
7
  6
CONTINUOUS
 10
263.0852207909
 20
132.377228891
 11
265.7437994347
 21
135.0358075348
  0
LINE
  5
71A
100
AcDbEntity
  8
0
100
AcDbLine
 62
7
  6
CONTINUOUS
 10
240.5385030816
 20
167.0654349889
 11
241.4372991135
 21
167.1428516193
  0
LINE
  5
71B
100
AcDbEntity
  8
0
100
AcDbLine
 62
7
  6
CONTINUOUS
 10
241.621085526
 20
167.1586818235
 11
243.4386554851
 21
167.3152358545
  0
LINE
  5
71C
100
AcDbEntity
  8
0
100
AcDbLine
 62
7
  6
CONTINUOUS
 10
243.6638458325
 20
167.334632333
 11
244.4022305823
 21
167.3982321457
  0
LINE
  5
71D
100
AcDbEntity
  8
0
100
AcDbLine
 62
7
  6
CONTINUOUS
 10
244.4022305823
 20
167.5727599939
 11
243.8707936337
 21
167.5269851329
  0
LINE
  5
71E
100
AcDbEntity
  8
0
100
AcDbLine
 62
7
  6
CONTINUOUS
 10
243.6456040168
 20
167.5075886205
 11
241.4552963788
 21
167.3189283706
  0
LINE
  5
71F
100
AcDbEntity
  8
0
100
AcDbLine
 62
7
  6
CONTINUOUS
 10
241.2715096783
 20
167.3030980625
 11
240.4443778778
 21
167.2318537818
  0
LINE
  5
720
100
AcDbEntity
  8
0
100
AcDbLine
 62
7
  6
CONTINUOUS
 10
240.3664286434
 20
167.1626016733
 11
240.1240819725
 21
167.1626016733
  0
LINE
  5
721
100
AcDbEntity
  8
0
100
AcDbLine
 62
7
  6
CONTINUOUS
 10
245.0218782967
 20
167.2640467872
 11
244.9039697942
 21
167.2640467872
  0
LINE
  5
722
100
AcDbEntity
  8
0
100
AcDbLine
 62
7
  6
CONTINUOUS
 10
244.7403166287
 20
167.2640467872
 11
244.5761132549
 21
167.2640467872
  0
LINE
  5
723
100
AcDbEntity
  8
0
100
AcDbLine
 62
7
  6
CONTINUOUS
 10
286.8506970118
 20
167.327228891
 11
287.2506970118
 21
167.327228891
  0
LINE
  5
724
100
AcDbEntity
  8
0
100
AcDbLine
 62
7
  6
CONTINUOUS
 10
244.5761132549
 20
167.7943995361
 11
244.4022305823
 21
167.7943995361
  0
LINE
  5
725
100
AcDbEntity
  8
0
100
AcDbLine
 62
7
  6
CONTINUOUS
 10
286.0506970118
 20
168.227228891
 11
288.2506970118
 21
168.227228891
  0
LINE
  5
726
100
AcDbEntity
  8
0
100
AcDbLine
 62
7
  6
CONTINUOUS
 10
238.3113143226
 20
168.668697834
 11
237.0813143226
 21
168.668697834
  0
LINE
  5
727
100
AcDbEntity
  8
0
100
AcDbLine
 62
7
  6
CONTINUOUS
 10
275.7506970118
 20
168.877228891
 11
292.7506970118
 21
168.877228891
  0
LINE
  5
728
100
AcDbEntity
  8
0
100
AcDbLine
 62
7
  6
CONTINUOUS
 10
245.6422801583
 20
169.1735375055
 11
245.4379654302
 21
169.1735375055
  0
LINE
  5
729
100
AcDbEntity
  8
0
100
AcDbLine
 62
7
  6
CONTINUOUS
 10
231.3506970118
 20
169.877228891
 11
231.2506970118
 21
169.877228891
  0
LINE
  5
72A
100
AcDbEntity
  8
0
100
AcDbLine
 62
7
  6
CONTINUOUS
 10
245.2506970118
 20
170.377228891
 11
237.2506970118
 21
170.377228891
  0
LINE
  5
72B
100
AcDbEntity
  8
0
100
AcDbLine
 62
7
  6
CONTINUOUS
 10
231.3506970118
 20
170.8985054842
 11
231.2506970118
 21
170.8985054842
  0
LINE
  5
72C
100
AcDbEntity
  8
0
100
AcDbLine
 62
7
  6
CONTINUOUS
 10
231.3506970118
 20
171.1112714163
 11
231.2506970118
 21
171.1112714163
  0
LINE
  5
72D
100
AcDbEntity
  8
0
100
AcDbLine
 62
7
  6
CONTINUOUS
 10
231.3506970118
 20
171.1963777891
 11
231.2506970118
 21
171.1963777891
  0
LINE
  5
72E
100
AcDbEntity
  8
0
100
AcDbLine
 62
7
  6
CONTINUOUS
 10
231.3506970118
 20
171.2389309756
 11
231.2506970118
 21
171.2389309756
  0
LINE
  5
72F
100
AcDbEntity
  8
0
100
AcDbLine
 62
7
  6
CONTINUOUS
 10
231.3506970118
 20
171.6644629589
 11
231.2506970118
 21
171.6644629589
  0
LINE
  5
730
100
AcDbEntity
  8
0
100
AcDbLine
 62
7
  6
CONTINUOUS
 10
231.3506970118
 20
171.877228891
 11
231.2506970118
 21
171.877228891
  0
LINE
  5
731
100
AcDbEntity
  8
0
100
AcDbLine
 62
7
  6
CONTINUOUS
 10
261.3053218036
 20
200.0358075348
 11
263.9639004474
 21
197.377228891
  0
LINE
  5
732
100
AcDbEntity
  8
0
100
AcDbLine
 62
7
  6
CONTINUOUS
 10
265.7437994347
 20
197.7186502473
 11
263.0852207909
 21
200.377228891
  0
LINE
  5
733
100
AcDbEntity
  8
0
100
AcDbLine
 62
7
  6
CONTINUOUS
 10
295.5006970118
 20
144.927228891
 11
295.5006970118
 21
146.577228891
  0
LINE
  5
734
100
AcDbEntity
  8
0
100
AcDbLine
 62
7
  6
CONTINUOUS
 10
295.5006970118
 20
186.177228891
 11
295.5006970118
 21
187.827228891
  0
LINE
  5
735
100
AcDbEntity
  8
0
100
AcDbLine
 62
7
  6
CONTINUOUS
 10
295.9506970118
 20
186.627228891
 11
295.9506970118
 21
185.877228891
  0
LINE
  5
736
100
AcDbEntity
  8
0
100
AcDbLine
 62
7
  6
CONTINUOUS
 10
295.9506970118
 20
146.877228891
 11
295.9506970118
 21
146.127228891
  0
LINE
  5
737
100
AcDbEntity
  8
0
100
AcDbLine
 62
7
  6
CONTINUOUS
 10
296.1006970118
 20
146.577228891
 11
296.1006970118
 21
146.877228891
  0
LINE
  5
738
100
AcDbEntity
  8
0
100
AcDbLine
 62
7
  6
CONTINUOUS
 10
296.1006970118
 20
185.877228891
 11
296.1006970118
 21
186.177228891
  0
LINE
  5
739
100
AcDbEntity
  8
0
100
AcDbLine
 62
7
  6
CONTINUOUS
 10
298.5006970118
 20
186.177228891
 11
298.5006970118
 21
185.877228891
  0
LINE
  5
73A
100
AcDbEntity
  8
0
100
AcDbLine
 62
7
  6
CONTINUOUS
 10
298.5006970118
 20
146.877228891
 11
298.5006970118
 21
146.577228891
  0
LINE
  5
73B
100
AcDbEntity
  8
0
100
AcDbLine
 62
7
  6
CONTINUOUS
 10
298.6506970118
 20
146.127228891
 11
298.6506970118
 21
146.877228891
  0
LINE
  5
73C
100
AcDbEntity
  8
0
100
AcDbLine
 62
7
  6
CONTINUOUS
 10
298.6506970118
 20
185.877228891
 11
298.6506970118
 21
186.627228891
  0
LINE
  5
73D
100
AcDbEntity
  8
0
100
AcDbLine
 62
7
  6
CONTINUOUS
 10
299.1006970118
 20
187.827228891
 11
299.1006970118
 21
186.177228891
  0
LINE
  5
73E
100
AcDbEntity
  8
0
100
AcDbLine
 62
7
  6
CONTINUOUS
 10
299.1006970118
 20
146.577228891
 11
299.1006970118
 21
144.927228891
  0
LINE
  5
73F
100
AcDbEntity
  8
0
100
AcDbLine
 62
7
  6
CONTINUOUS
 10
320.5042504024
 20
185.0307822816
 11
316.3506970118
 21
180.877228891
  0
LINE
  5
740
100
AcDbEntity
  8
0
100
AcDbLine
 62
7
  6
CONTINUOUS
 10
271.5350549144
 20
134.877228891
 11
271.2764762707
 21
134.6186502473
  0
LINE
  5
741
100
AcDbEntity
  8
0
100
AcDbLine
 62
7
  6
CONTINUOUS
 10
231.3506970118
 20
172.377228891
 11
231.2506970118
 21
172.377228891
  0
LINE
  5
742
100
AcDbEntity
  8
0
100
AcDbLine
 62
7
  6
CONTINUOUS
 10
312.3506970118
 20
173.177228891
 11
314.8506970118
 21
173.177228891
  0
LINE
  5
743
100
AcDbEntity
  8
0
100
AcDbLine
 62
7
  6
CONTINUOUS
 10
312.3506970118
 20
173.377228891
 11
314.3506970118
 21
173.377228891
  0
LINE
  5
744
100
AcDbEntity
  8
0
100
AcDbLine
 62
7
  6
CONTINUOUS
 10
234.7506970118
 20
176.377228891
 11
231.3506970118
 21
176.377228891
  0
LINE
  5
745
100
AcDbEntity
  8
0
100
AcDbLine
 62
7
  6
CONTINUOUS
 10
312.3506970118
 20
176.377228891
 11
314.3506970118
 21
176.377228891
  0
LINE
  5
746
100
AcDbEntity
  8
0
100
AcDbLine
 62
7
  6
CONTINUOUS
 10
249.5506970118
 20
176.527228891
 11
243.9506970118
 21
176.527228891
  0
LINE
  5
747
100
AcDbEntity
  8
0
100
AcDbLine
 62
7
  6
CONTINUOUS
 10
243.3506970118
 20
176.527228891
 11
236.5506970118
 21
176.527228891
  0
LINE
  5
748
100
AcDbEntity
  8
0
100
AcDbLine
 62
7
  6
CONTINUOUS
 10
314.8506970118
 20
176.677228891
 11
312.3506970118
 21
176.677228891
  0
LINE
  5
749
100
AcDbEntity
  8
0
100
AcDbLine
 62
7
  6
CONTINUOUS
 10
316.3506970118
 20
151.877228891
 11
320.5042504024
 21
147.7236755004
  0
LINE
  5
74A
100
AcDbEntity
  8
0
100
AcDbLine
 62
7
  6
CONTINUOUS
 10
271.2764762707
 20
198.1358075348
 11
271.5350549144
 21
197.877228891
  0
LINE
  5
74B
100
AcDbEntity
  8
0
100
AcDbLine
 62
7
  6
CONTINUOUS
 10
302.7506970118
 20
143.5843356722
 11
302.7506970118
 21
189.1701221098
  0
LINE
  5
74C
100
AcDbEntity
  8
0
100
AcDbLine
 62
7
  6
CONTINUOUS
 10
271.3971436212
 20
130.9236755004
 11
275.1042504024
 21
134.6307822816
  0
LINE
  5
74D
100
AcDbEntity
  8
0
100
AcDbLine
 62
7
  6
CONTINUOUS
 10
271.2971436212
 20
129.0236755004
 11
271.6506970118
 21
129.377228891
  0
LINE
  5
74E
100
AcDbEntity
  8
0
100
AcDbLine
 62
7
  6
CONTINUOUS
 10
280.8889654388
 20
136.877228891
 11
278.630386795
 21
134.6186502473
  0
LINE
  5
74F
100
AcDbEntity
  8
0
100
AcDbLine
 62
7
  6
CONTINUOUS
 10
248.9506970118
 20
176.827228891
 11
244.5506970118
 21
176.827228891
  0
LINE
  5
750
100
AcDbEntity
  8
0
100
AcDbLine
 62
7
  6
CONTINUOUS
 10
273.0506970118
 20
176.877228891
 11
260.4506970118
 21
176.877228891
  0
LINE
  5
751
100
AcDbEntity
  8
02___PRT_ALL_AXES
100
AcDbLine
 62
7
  6
CONTINUOUS
 10
238.6506970118
 20
177.627228891
 11
237.6506970118
 21
177.627228891
  0
LINE
  5
752
100
AcDbEntity
  8
0
100
AcDbLine
 62
7
  6
CONTINUOUS
 10
260.1506970118
 20
177.627228891
 11
273.3506970118
 21
177.627228891
  0
LINE
  5
753
100
AcDbEntity
  8
0
100
AcDbLine
 62
7
  6
CONTINUOUS
 10
241.1506970118
 20
177.877228891
 11
238.6506970118
 21
177.877228891
  0
LINE
  5
754
100
AcDbEntity
  8
0
100
AcDbLine
 62
7
  6
CONTINUOUS
 10
238.6506970118
 20
178.877228891
 11
241.1506970118
 21
178.877228891
  0
LINE
  5
755
100
AcDbEntity
  8
02___PRT_ALL_AXES
100
AcDbLine
 62
7
  6
CONTINUOUS
 10
238.6506970118
 20
179.127228891
 11
237.6506970118
 21
179.127228891
  0
LINE
  5
756
100
AcDbEntity
  8
0
100
AcDbLine
 62
7
  6
CONTINUOUS
 10
260.1970497288
 20
179.227228891
 11
273.3043442894
 21
179.227228891
  0
LINE
  5
757
100
AcDbEntity
  8
0
100
AcDbLine
 62
7
  6
CONTINUOUS
 10
260.4506970118
 20
179.377228891
 11
273.0506970118
 21
179.377228891
  0
LINE
  5
758
100
AcDbEntity
  8
0
100
AcDbLine
 62
7
  6
CONTINUOUS
 10
244.5506970118
 20
180.027228891
 11
248.9506970118
 21
180.027228891
  0
LINE
  5
759
100
AcDbEntity
  8
0
100
AcDbLine
 62
7
  6
CONTINUOUS
 10
236.5506970118
 20
180.327228891
 11
243.3506970118
 21
180.327228891
  0
LINE
  5
75A
100
AcDbEntity
  8
0
100
AcDbLine
 62
7
  6
CONTINUOUS
 10
243.9506970118
 20
180.327228891
 11
249.5506970118
 21
180.327228891
  0
LINE
  5
75B
100
AcDbEntity
  8
0
100
AcDbLine
 62
7
  6
CONTINUOUS
 10
234.7506970118
 20
180.377228891
 11
231.3506970118
 21
180.377228891
  0
LINE
  5
75C
100
AcDbEntity
  8
0
100
AcDbLine
 62
7
  6
CONTINUOUS
 10
309.8506970118
 20
180.877228891
 11
316.3506970118
 21
180.877228891
  0
LINE
  5
75D
100
AcDbEntity
  8
0
100
AcDbLine
 62
7
  6
CONTINUOUS
 10
324.4506970118
 20
181.177228891
 11
325.6649105742
 21
181.177228891
  0
LINE
  5
75E
100
AcDbEntity
  8
0
100
AcDbLine
 62
7
  6
CONTINUOUS
 10
331.8046075361
 20
181.177228891
 11
333.0188210985
 21
181.177228891
  0
LINE
  5
75F
100
AcDbEntity
  8
0
100
AcDbLine
 62
7
  6
CONTINUOUS
 10
339.1585180605
 20
181.177228891
 11
340.3727316228
 21
181.177228891
  0
LINE
  5
760
100
AcDbEntity
  8
0
100
AcDbLine
 62
7
  6
CONTINUOUS
 10
346.5124285848
 20
181.177228891
 11
347.7266421472
 21
181.177228891
  0
LINE
  5
761
100
AcDbEntity
  8
0
100
AcDbLine
 62
7
  6
CONTINUOUS
 10
275.1042504024
 20
198.1236755004
 11
271.3971436212
 21
201.8307822816
  0
LINE
  5
762
100
AcDbEntity
  8
0
100
AcDbLine
 62
7
  6
CONTINUOUS
 10
271.6506970118
 20
203.377228891
 11
271.2971436212
 21
203.7307822816
  0
LINE
  5
763
100
AcDbEntity
  8
0
100
AcDbLine
 62
7
  6
CONTINUOUS
 10
278.630386795
 20
198.1358075348
 11
280.8889654388
 21
195.877228891
  0
LINE
  5
764
100
AcDbEntity
  8
0
100
AcDbLine
 62
7
  6
CONTINUOUS
 10
310.3506970118
 20
181.877228891
 11
311.2506970118
 21
185.377228891
  0
LINE
  5
765
100
AcDbEntity
  8
0
100
AcDbLine
 62
7
  6
CONTINUOUS
 10
279.9860217136
 20
134.277228891
 11
282.2446003574
 21
136.5358075348
  0
LINE
  5
766
100
AcDbEntity
  8
0
100
AcDbLine
 62
7
  6
CONTINUOUS
 10
288.2428759631
 20
136.877228891
 11
285.9842973193
 21
134.6186502473
  0
LINE
  5
767
100
AcDbEntity
  8
0
100
AcDbLine
 62
7
  6
CONTINUOUS
 10
229.095231185
 20
182.377228891
 11
229.2550881071
 21
182.377228891
  0
LINE
  5
768
100
AcDbEntity
  8
0
100
AcDbLine
 62
7
  6
CONTINUOUS
 10
345.6094848597
 20
183.777228891
 11
344.3952712973
 21
183.777228891
  0
LINE
  5
769
100
AcDbEntity
  8
0
100
AcDbLine
 62
7
  6
CONTINUOUS
 10
338.2555743353
 20
183.777228891
 11
337.0413607729
 21
183.777228891
  0
LINE
  5
76A
100
AcDbEntity
  8
0
100
AcDbLine
 62
7
  6
CONTINUOUS
 10
330.901663811
 20
183.777228891
 11
329.6874502486
 21
183.777228891
  0
LINE
  5
76B
100
AcDbEntity
  8
0
100
AcDbLine
 62
7
  6
CONTINUOUS
 10
323.5477532866
 20
183.777228891
 11
322.3335397243
 21
183.777228891
  0
LINE
  5
76C
100
AcDbEntity
  8
0
100
AcDbLine
 62
7
  6
CONTINUOUS
 10
347.6435902306
 20
185.177228891
 11
320.857803793
 21
185.177228891
  0
LINE
  5
76D
100
AcDbEntity
  8
0
100
AcDbLine
 62
7
  6
CONTINUOUS
 10
311.2506970118
 20
185.377228891
 11
311.9506970118
 21
185.377228891
  0
LINE
  5
76E
100
AcDbEntity
  8
0
100
AcDbLine
 62
7
  6
CONTINUOUS
 10
298.8006970118
 20
185.877228891
 11
295.8006970118
 21
185.877228891
  0
LINE
  5
76F
100
AcDbEntity
  8
0
100
AcDbLine
 62
7
  6
CONTINUOUS
 10
298.6506970118
 20
186.177228891
 11
295.9506970118
 21
186.177228891
  0
LINE
  5
770
100
AcDbEntity
  8
0
100
AcDbLine
 62
7
  6
CONTINUOUS
 10
282.2446003574
 20
196.2186502473
 11
279.9860217136
 21
198.477228891
  0
LINE
  5
771
100
AcDbEntity
  8
0
100
AcDbLine
 62
7
  6
CONTINUOUS
 10
285.9842973193
 20
198.1358075348
 11
288.2428759631
 21
195.877228891
  0
LINE
  5
772
100
AcDbEntity
  8
0
100
AcDbLine
 62
7
  6
CONTINUOUS
 10
309.8506970118
 20
194.877228891
 11
309.8506970118
 21
137.877228891
  0
LINE
  5
773
100
AcDbEntity
  8
0
100
AcDbLine
 62
7
  6
CONTINUOUS
 10
310.3506970118
 20
180.877228891
 11
310.3506970118
 21
181.877228891
  0
LINE
  5
774
100
AcDbEntity
  8
0
100
AcDbLine
 62
7
  6
CONTINUOUS
 10
311.9506970118
 20
180.877228891
 11
311.9506970118
 21
185.377228891
  0
LINE
  5
775
100
AcDbEntity
  8
0
100
AcDbLine
 62
7
  6
CONTINUOUS
 10
312.3506970118
 20
176.677228891
 11
312.3506970118
 21
173.177228891
  0
LINE
  5
776
100
AcDbEntity
  8
0
100
AcDbLine
 62
7
  6
CONTINUOUS
 10
312.3506970118
 20
159.577228891
 11
312.3506970118
 21
156.077228891
  0
LINE
  5
777
100
AcDbEntity
  8
0
100
AcDbLine
 62
7
  6
CONTINUOUS
 10
312.7506970118
 20
156.377228891
 11
312.7506970118
 21
159.377228891
  0
LINE
  5
778
100
AcDbEntity
  8
0
100
AcDbLine
 62
7
  6
CONTINUOUS
 10
312.7506970118
 20
173.377228891
 11
312.7506970118
 21
176.377228891
  0
LINE
  5
779
100
AcDbEntity
  8
0
100
AcDbLine
 62
7
  6
CONTINUOUS
 10
314.3506970118
 20
156.377228891
 11
314.3506970118
 21
159.377228891
  0
LINE
  5
77A
100
AcDbEntity
  8
0
100
AcDbLine
 62
7
  6
CONTINUOUS
 10
314.3506970118
 20
173.377228891
 11
314.3506970118
 21
176.377228891
  0
LINE
  5
77B
100
AcDbEntity
  8
0
100
AcDbLine
 62
7
  6
CONTINUOUS
 10
287.339932238
 20
134.277228891
 11
289.5985108817
 21
136.5358075348
  0
LINE
  5
77C
100
AcDbEntity
  8
0
100
AcDbLine
 62
7
  6
CONTINUOUS
 10
289.2649105742
 20
132.2914424534
 11
286.9364834494
 21
129.9630153286
  0
LINE
  5
77D
100
AcDbEntity
  8
0
100
AcDbLine
 62
7
  6
CONTINUOUS
 10
298.6506970118
 20
186.627228891
 11
295.9506970118
 21
186.627228891
  0
LINE
  5
77E
100
AcDbEntity
  8
0
100
AcDbLine
 62
7
  6
CONTINUOUS
 10
299.1006970118
 20
187.377228891
 11
295.5006970118
 21
187.377228891
  0
LINE
  5
77F
100
AcDbEntity
  8
0
100
AcDbLine
 62
7
  6
CONTINUOUS
 10
231.3506970118
 20
187.377228891
 11
227.8506970118
 21
187.377228891
  0
LINE
  5
780
100
AcDbEntity
  8
0
100
AcDbLine
 62
7
  6
CONTINUOUS
 10
282.9506970118
 20
187.627228891
 11
275.3506970118
 21
187.627228891
  0
LINE
  5
781
100
AcDbEntity
  8
0
100
AcDbLine
 62
7
  6
CONTINUOUS
 10
282.4506970118
 20
188.127228891
 11
277.8506970118
 21
188.127228891
  0
LINE
  5
782
100
AcDbEntity
  8
0
100
AcDbLine
 62
7
  6
CONTINUOUS
 10
295.8006970118
 20
188.127228891
 11
298.8006970118
 21
188.127228891
  0
LINE
  5
783
100
AcDbEntity
  8
0
100
AcDbLine
 62
7
  6
CONTINUOUS
 10
289.5985108817
 20
196.2186502473
 11
287.339932238
 21
198.477228891
  0
LINE
  5
784
100
AcDbEntity
  8
0
100
AcDbLine
 62
7
  6
CONTINUOUS
 10
286.9364834494
 20
202.7914424534
 11
289.2649105742
 21
200.4630153286
  0
LINE
  5
785
100
AcDbEntity
  8
0
100
AcDbLine
 62
7
  6
CONTINUOUS
 10
314.8506970118
 20
156.077228891
 11
314.8506970118
 21
159.577228891
  0
LINE
  5
786
100
AcDbEntity
  8
0
100
AcDbLine
 62
7
  6
CONTINUOUS
 10
314.8506970118
 20
173.177228891
 11
314.8506970118
 21
176.677228891
  0
LINE
  5
787
100
AcDbEntity
  8
0
100
AcDbLine
 62
7
  6
CONTINUOUS
 10
295.5967864874
 20
136.877228891
 11
293.3382078437
 21
134.6186502473
  0
LINE
  5
788
100
AcDbEntity
  8
0
100
AcDbLine
 62
7
  6
CONTINUOUS
 10
298.8971436212
 20
139.5236755004
 11
302.6042504024
 21
143.2307822816
  0
LINE
  5
789
100
AcDbEntity
  8
0
100
AcDbLine
 62
7
  6
CONTINUOUS
 10
294.6938427623
 20
134.277228891
 11
296.9524214061
 21
136.5358075348
  0
LINE
  5
78A
100
AcDbEntity
  8
0
100
AcDbLine
 62
7
  6
CONTINUOUS
 10
282.4506970118
 20
192.377228891
 11
277.8506970118
 21
192.377228891
  0
LINE
  5
78B
100
AcDbEntity
  8
0
100
AcDbLine
 62
7
  6
CONTINUOUS
 10
274.7506970118
 20
193.377228891
 11
298.5435902306
 21
193.377228891
  0
LINE
  5
78C
100
AcDbEntity
  8
0
100
AcDbLine
 62
7
  6
CONTINUOUS
 10
280.8889654388
 20
195.877228891
 11
282.1031790011
 21
195.877228891
  0
LINE
  5
78D
100
AcDbEntity
  8
0
100
AcDbLine
 62
7
  6
CONTINUOUS
 10
288.2428759631
 20
195.877228891
 11
289.4570895255
 21
195.877228891
  0
LINE
  5
78E
100
AcDbEntity
  8
0
100
AcDbLine
 62
7
  6
CONTINUOUS
 10
295.5967864874
 20
195.877228891
 11
296.8110000498
 21
195.877228891
  0
LINE
  5
78F
100
AcDbEntity
  8
0
100
AcDbLine
 62
7
  6
CONTINUOUS
 10
302.9506970118
 20
195.877228891
 11
304.1649105742
 21
195.877228891
  0
LINE
  5
790
100
AcDbEntity
  8
0
100
AcDbLine
 62
7
  6
CONTINUOUS
 10
293.3382078437
 20
198.1358075348
 11
295.5967864874
 21
195.877228891
  0
LINE
  5
791
100
AcDbEntity
  8
0
100
AcDbLine
 62
7
  6
CONTINUOUS
 10
302.6042504024
 20
189.5236755004
 11
298.8971436212
 21
193.2307822816
  0
LINE
  5
792
100
AcDbEntity
  8
0
100
AcDbLine
 62
7
  6
CONTINUOUS
 10
296.9524214061
 20
196.2186502473
 11
294.6938427623
 21
198.477228891
  0
LINE
  5
793
100
AcDbEntity
  8
0
100
AcDbLine
 62
7
  6
CONTINUOUS
 10
316.3506970118
 20
151.877228891
 11
316.4749610805
 21
152.177228891
  0
LINE
  5
794
100
AcDbEntity
  8
0
100
AcDbLine
 62
7
  6
CONTINUOUS
 10
302.9506970118
 20
136.877228891
 11
300.692118368
 21
134.6186502473
  0
LINE
  5
795
100
AcDbEntity
  8
0
100
AcDbLine
 62
7
  6
CONTINUOUS
 10
302.0477532866
 20
134.277228891
 11
304.3063319304
 21
136.5358075348
  0
LINE
  5
796
100
AcDbEntity
  8
0
100
AcDbLine
 62
7
  6
CONTINUOUS
 10
271.3006970118
 20
196.377228891
 11
268.3006970118
 21
196.377228891
  0
LINE
  5
797
100
AcDbEntity
  8
0
100
AcDbLine
 62
7
  6
CONTINUOUS
 10
271.1506970118
 20
196.677228891
 11
268.4506970118
 21
196.677228891
  0
LINE
  5
798
100
AcDbEntity
  8
0
100
AcDbLine
 62
7
  6
CONTINUOUS
 10
271.1506970118
 20
197.127228891
 11
268.4506970118
 21
197.127228891
  0
LINE
  5
799
100
AcDbEntity
  8
0
100
AcDbLine
 62
7
  6
CONTINUOUS
 10
242.7506970118
 20
197.377228891
 11
244.3891746429
 21
197.377228891
  0
LINE
  5
79A
100
AcDbEntity
  8
0
100
AcDbLine
 62
7
  6
CONTINUOUS
 10
249.8217648237
 20
197.377228891
 11
251.4602424547
 21
197.377228891
  0
LINE
  5
79B
100
AcDbEntity
  8
0
100
AcDbLine
 62
7
  6
CONTINUOUS
 10
256.8928326355
 20
197.377228891
 11
258.5313102666
 21
197.377228891
  0
LINE
  5
79C
100
AcDbEntity
  8
0
100
AcDbLine
 62
7
  6
CONTINUOUS
 10
263.9639004474
 20
197.377228891
 11
265.6023780785
 21
197.377228891
  0
LINE
  5
79D
100
AcDbEntity
  8
0
100
AcDbLine
 62
7
  6
CONTINUOUS
 10
271.6006970118
 20
197.877228891
 11
268.0006970118
 21
197.877228891
  0
LINE
  5
79E
100
AcDbEntity
  8
0
100
AcDbLine
 62
7
  6
CONTINUOUS
 10
302.0477532866
 20
198.477228891
 11
300.8335397243
 21
198.477228891
  0
LINE
  5
79F
100
AcDbEntity
  8
0
100
AcDbLine
 62
7
  6
CONTINUOUS
 10
294.6938427623
 20
198.477228891
 11
293.4796291999
 21
198.477228891
  0
LINE
  5
7A0
100
AcDbEntity
  8
0
100
AcDbLine
 62
7
  6
CONTINUOUS
 10
287.339932238
 20
198.477228891
 11
286.1257186756
 21
198.477228891
  0
LINE
  5
7A1
100
AcDbEntity
  8
0
100
AcDbLine
 62
7
  6
CONTINUOUS
 10
279.9860217136
 20
198.477228891
 11
278.7718081512
 21
198.477228891
  0
LINE
  5
7A2
100
AcDbEntity
  8
0
100
AcDbLine
 62
7
  6
CONTINUOUS
 10
271.5543442894
 20
198.477228891
 11
271.4178976269
 21
198.477228891
  0
LINE
  5
7A3
100
AcDbEntity
  8
0
100
AcDbLine
 62
7
  6
CONTINUOUS
 10
268.3006970118
 20
198.627228891
 11
271.3006970118
 21
198.627228891
  0
LINE
  5
7A4
100
AcDbEntity
  8
0
100
AcDbLine
 62
7
  6
CONTINUOUS
 10
235.6506970118
 20
198.877228891
 11
234.8506970118
 21
198.877228891
  0
LINE
  5
7A5
100
AcDbEntity
  8
0
100
AcDbLine
 62
7
  6
CONTINUOUS
 10
290.6791241365
 20
199.877228891
 11
304.522269887
 21
199.877228891
  0
LINE
  5
7A6
100
AcDbEntity
  8
0
100
AcDbLine
 62
7
  6
CONTINUOUS
 10
263.0852207909
 20
200.377228891
 11
261.4467431599
 21
200.377228891
  0
LINE
  5
7A7
100
AcDbEntity
  8
0
100
AcDbLine
 62
7
  6
CONTINUOUS
 10
256.0141529791
 20
200.377228891
 11
254.375675348
 21
200.377228891
  0
LINE
  5
7A8
100
AcDbEntity
  8
0
100
AcDbLine
 62
7
  6
CONTINUOUS
 10
248.9430851672
 20
200.377228891
 11
247.3046075361
 21
200.377228891
  0
LINE
  5
7A9
100
AcDbEntity
  8
0
100
AcDbLine
 62
7
  6
CONTINUOUS
 10
241.8720173553
 20
200.377228891
 11
240.2335397243
 21
200.377228891
  0
LINE
  5
7AA
100
AcDbEntity
  8
0
100
AcDbLine
 62
7
  6
CONTINUOUS
 10
300.692118368
 20
198.1358075348
 11
302.9506970118
 21
195.877228891
  0
LINE
  5
7AB
100
AcDbEntity
  8
0
100
AcDbLine
 62
7
  6
CONTINUOUS
 10
304.3063319304
 20
196.2186502473
 11
302.0477532866
 21
198.477228891
  0
LINE
  5
7AC
100
AcDbEntity
  8
0
100
AcDbLine
 62
7
  6
CONTINUOUS
 10
316.3506970118
 20
180.877228891
 11
316.4749610805
 21
180.577228891
  0
LINE
  5
7AD
100
AcDbEntity
  8
0
100
AcDbLine
 62
7
  6
CONTINUOUS
 10
309.2649105742
 20
136.7914424534
 11
305.9364834494
 21
133.4630153286
  0
LINE
  5
7AE
100
AcDbEntity
  8
0
100
AcDbLine
 62
7
  6
CONTINUOUS
 10
324.4506970118
 20
151.577228891
 11
322.192118368
 21
149.3186502473
  0
LINE
  5
7AF
100
AcDbEntity
  8
0
100
AcDbLine
 62
7
  6
CONTINUOUS
 10
323.5477532866
 20
148.977228891
 11
325.8063319304
 21
151.2358075348
  0
LINE
  5
7B0
100
AcDbEntity
  8
0
100
AcDbLine
 62
7
  6
CONTINUOUS
 10
271.0435902306
 20
201.977228891
 11
238.957803793
 21
201.977228891
  0
LINE
  5
7B1
100
AcDbEntity
  8
0
100
AcDbLine
 62
7
  6
CONTINUOUS
 10
257.3506970118
 20
203.377228891
 11
285.522269887
 21
203.377228891
  0
LINE
  5
7B2
100
AcDbEntity
  8
0
100
AcDbLine
 62
7
  6
CONTINUOUS
 10
258.9090771631
 20
203.877228891
 11
253.3506970118
 21
203.877228891
  0
LINE
  5
7B3
100
AcDbEntity
  8
0
100
AcDbLine
 62
7
  6
CONTINUOUS
 10
234.3506970118
 20
203.877228891
 11
227.8506970118
 21
203.877228891
  0
LINE
  5
7B4
100
AcDbEntity
  8
0
100
AcDbLine
 62
7
  6
CONTINUOUS
 10
264.3923168605
 20
203.877228891
 11
270.9435902306
 21
203.877228891
  0
LINE
  5
7B5
100
AcDbEntity
  8
0
100
AcDbLine
 62
7
  6
CONTINUOUS
 10
255.3506970118
 20
204.177228891
 11
258.1506970118
 21
204.177228891
  0
LINE
  5
7B6
100
AcDbEntity
  8
0
100
AcDbLine
 62
7
  6
CONTINUOUS
 10
258.8506970118
 20
204.677228891
 11
264.4506970118
 21
204.677228891
  0
LINE
  5
7B7
100
AcDbEntity
  8
0
100
AcDbLine
 62
7
  6
CONTINUOUS
 10
266.3506970118
 20
204.677228891
 11
270.3506970118
 21
204.677228891
  0
LINE
  5
7B8
100
AcDbEntity
  8
0
100
AcDbLine
 62
7
  6
CONTINUOUS
 10
305.9364834494
 20
199.2914424534
 11
309.2649105742
 21
195.9630153286
  0
LINE
  5
7B9
100
AcDbEntity
  8
0
100
AcDbLine
 62
7
  6
CONTINUOUS
 10
322.192118368
 20
183.4358075348
 11
324.4506970118
 21
181.177228891
  0
LINE
  5
7BA
100
AcDbEntity
  8
0
100
AcDbLine
 62
7
  6
CONTINUOUS
 10
325.8063319304
 20
181.5186502473
 11
323.5477532866
 21
183.777228891
  0
LINE
  5
7BB
100
AcDbEntity
  8
0
100
AcDbLine
 62
7
  6
CONTINUOUS
 10
331.8046075361
 20
151.577228891
 11
329.5460288924
 21
149.3186502473
  0
LINE
  5
7BC
100
AcDbEntity
  8
0
100
AcDbLine
 62
7
  6
CONTINUOUS
 10
330.901663811
 20
148.977228891
 11
333.1602424547
 21
151.2358075348
  0
LINE
  5
7BD
100
AcDbEntity
  8
0
100
AcDbLine
 62
7
  6
CONTINUOUS
 10
329.5460288924
 20
183.4358075348
 11
331.8046075361
 21
181.177228891
  0
LINE
  5
7BE
100
AcDbEntity
  8
0
100
AcDbLine
 62
7
  6
CONTINUOUS
 10
333.1602424547
 20
181.5186502473
 11
330.901663811
 21
183.777228891
  0
LINE
  5
7BF
100
AcDbEntity
  8
0
100
AcDbLine
 62
7
  6
CONTINUOUS
 10
339.1585180605
 20
151.577228891
 11
336.8999394167
 21
149.3186502473
  0
LINE
  5
7C0
100
AcDbEntity
  8
0
100
AcDbLine
 62
7
  6
CONTINUOUS
 10
338.2555743353
 20
148.977228891
 11
340.5141529791
 21
151.2358075348
  0
LINE
  5
7C1
100
AcDbEntity
  8
0
100
AcDbLine
 62
7
  6
CONTINUOUS
 10
336.8999394167
 20
183.4358075348
 11
339.1585180605
 21
181.177228891
  0
LINE
  5
7C2
100
AcDbEntity
  8
0
100
AcDbLine
 62
7
  6
CONTINUOUS
 10
340.5141529791
 20
181.5186502473
 11
338.2555743353
 21
183.777228891
  0
LINE
  5
7C3
100
AcDbEntity
  8
0
100
AcDbLine
 62
7
  6
CONTINUOUS
 10
346.5124285848
 20
151.577228891
 11
344.253849941
 21
149.3186502473
  0
LINE
  5
7C4
100
AcDbEntity
  8
0
100
AcDbLine
 62
7
  6
CONTINUOUS
 10
345.6094848597
 20
148.977228891
 11
347.8680635034
 21
151.2358075348
  0
LINE
  5
7C5
100
AcDbEntity
  8
0
100
AcDbLine
 62
7
  6
CONTINUOUS
 10
344.253849941
 20
183.4358075348
 11
346.5124285848
 21
181.177228891
  0
LINE
  5
7C6
100
AcDbEntity
  8
0
100
AcDbLine
 62
7
  6
CONTINUOUS
 10
347.8680635034
 20
181.5186502473
 11
345.6094848597
 21
183.777228891
  0
LINE
  5
7C7
100
AcDbEntity
  8
0
100
AcDbLine
 62
7
  6
CONTINUOUS
 10
347.9971436212
 20
147.7236755004
 11
351.7042504024
 21
151.4307822816
  0
LINE
  5
7C8
100
AcDbEntity
  8
0
100
AcDbLine
 62
7
  6
CONTINUOUS
 10
351.7042504024
 20
181.3236755004
 11
347.9971436212
 21
185.0307822816
  0
LINE
  5
7C9
100
AcDbEntity
  8
0
100
AcDbLine
 62
7
  6
CONTINUOUS
 10
351.8506970118
 20
151.7843356722
 11
351.8506970118
 21
180.9701221098
  0
ARC
  5
7CA
100
AcDbEntity
  8
0
100
AcDbCircle
 62
7
  6
CONTINUOUS
 10
116.6609907383
 20
131.277228891
 40
0.5
100
AcDbArc
 50
180.0
 51
270.0
  0
CIRCLE
  5
7CB
100
AcDbEntity
  8
0
100
AcDbCircle
 62
7
  6
CONTINUOUS
 10
122.1609907383
 20
140.877228891
 40
3.1
  0
CIRCLE
  5
7CC
100
AcDbEntity
  8
03_AXES
100
AcDbCircle
 62
7
  6
CONTINUOUS
 10
122.1609907383
 20
140.877228891
 40
3.0
  0
ARC
  5
7CD
100
AcDbEntity
  8
0
100
AcDbCircle
 62
7
  6
CONTINUOUS
 10
122.1609907383
 20
140.877228891
 40
2.9546029997
100
AcDbArc
 50
168.2832843726
 51
191.7167156274
  0
ARC
  5
7CE
100
AcDbEntity
  8
0
100
AcDbCircle
 62
7
  6
CONTINUOUS
 10
122.1609907383
 20
140.877228891
 40
2.9546029997
100
AcDbArc
 50
348.2832843726
 51
11.7167156274
  0
ARC
  5
7CF
100
AcDbEntity
  8
0
100
AcDbCircle
 62
7
  6
CONTINUOUS
 10
122.1609907383
 20
140.877228891
 40
2.9092059993
100
AcDbArc
 50
191.9022048784
 51
348.0977951216
  0
ARC
  5
7D0
100
AcDbEntity
  8
0
100
AcDbCircle
 62
7
  6
CONTINUOUS
 10
122.1609907383
 20
140.877228891
 40
2.9092059993
100
AcDbArc
 50
11.9022048784
 51
168.0977951216
  0
ARC
  5
7D1
100
AcDbEntity
  8
0
100
AcDbCircle
 62
7
  6
CONTINUOUS
 10
120.1609907383
 20
142.877228891
 40
1.5
100
AcDbArc
 50
90.0000449047
 51
179.9999854645
  0
ARC
  5
7D2
100
AcDbEntity
  8
0
100
AcDbCircle
 62
7
  6
CONTINUOUS
 10
120.1609907383
 20
138.877228891
 40
1.5
100
AcDbArc
 50
180.0000449047
 51
269.9999854645
  0
ARC
  5
7D3
100
AcDbEntity
  8
0
100
AcDbCircle
 62
7
  6
CONTINUOUS
 10
116.6609907383
 20
139.877228891
 40
0.5
100
AcDbArc
 50
180.0
 51
270.0
  0
ARC
  5
7D4
100
AcDbEntity
  8
0
100
AcDbCircle
 62
7
  6
CONTINUOUS
 10
127.6609907383
 20
135.377228891
 40
0.5
100
AcDbArc
 50
270.0
 51
360.0
  0
ARC
  5
7D5
100
AcDbEntity
  8
0
100
AcDbCircle
 62
7
  6
CONTINUOUS
 10
128.6609907383
 20
133.377228891
 40
0.5
100
AcDbArc
 50
180.0
 51
270.0
  0
ARC
  5
7D6
100
AcDbEntity
  8
0
100
AcDbCircle
 62
7
  6
CONTINUOUS
 10
128.6609907383
 20
129.877228891
 40
0.5
100
AcDbArc
 50
180.0
 51
270.0
  0
ARC
  5
7D7
100
AcDbEntity
  8
0
100
AcDbCircle
 62
7
  6
CONTINUOUS
 10
124.1609907383
 20
138.877228891
 40
1.5
100
AcDbArc
 50
270.0000505871
 51
359.9999787342
  0
ARC
  5
7D8
100
AcDbEntity
  8
0
100
AcDbCircle
 62
7
  6
CONTINUOUS
 10
124.1609907383
 20
142.877228891
 40
1.5
100
AcDbArc
 50
0.0000505871
 51
89.9999787342
  0
ARC
  5
7D9
100
AcDbEntity
  8
0
100
AcDbCircle
 62
7
  6
CONTINUOUS
 10
127.6609907383
 20
139.877228891
 40
0.5
100
AcDbArc
 50
270.0
 51
360.0
  0
CIRCLE
  5
7DA
100
AcDbEntity
  8
0
100
AcDbCircle
 62
7
  6
CONTINUOUS
 10
122.1609907383
 20
151.377228891
 40
3.1
  0
CIRCLE
  5
7DB
100
AcDbEntity
  8
03_AXES
100
AcDbCircle
 62
7
  6
CONTINUOUS
 10
122.1609907383
 20
151.377228891
 40
3.0
  0
ARC
  5
7DC
100
AcDbEntity
  8
0
100
AcDbCircle
 62
7
  6
CONTINUOUS
 10
122.1609907383
 20
151.377228891
 40
2.9546029997
100
AcDbArc
 50
348.2832843726
 51
11.7167156274
  0
ARC
  5
7DD
100
AcDbEntity
  8
0
100
AcDbCircle
 62
7
  6
CONTINUOUS
 10
122.1609907383
 20
151.377228891
 40
2.9546029997
100
AcDbArc
 50
168.2832843726
 51
191.7167156274
  0
ARC
  5
7DE
100
AcDbEntity
  8
0
100
AcDbCircle
 62
7
  6
CONTINUOUS
 10
122.1609907383
 20
151.377228891
 40
2.9092059993
100
AcDbArc
 50
11.9022048784
 51
168.0977951216
  0
ARC
  5
7DF
100
AcDbEntity
  8
0
100
AcDbCircle
 62
7
  6
CONTINUOUS
 10
122.1609907383
 20
151.377228891
 40
2.9092059993
100
AcDbArc
 50
191.9022048784
 51
348.0977951216
  0
ARC
  5
7E0
100
AcDbEntity
  8
0
100
AcDbCircle
 62
7
  6
CONTINUOUS
 10
120.1609907383
 20
149.377228891
 40
1.500000002
100
AcDbArc
 50
179.9999997598
 51
270.0000000346
  0
ARC
  5
7E1
100
AcDbEntity
  8
0
100
AcDbCircle
 62
7
  6
CONTINUOUS
 10
124.1609907383
 20
149.377228891
 40
1.500000002
100
AcDbArc
 50
269.9999997749
 51
359.9999998975
  0
ARC
  5
7E2
100
AcDbEntity
  8
0
100
AcDbCircle
 62
7
  6
CONTINUOUS
 10
120.1609907383
 20
153.377228891
 40
1.5
100
AcDbArc
 50
90.0000449047
 51
180.0
  0
ARC
  5
7E3
100
AcDbEntity
  8
0
100
AcDbCircle
 62
7
  6
CONTINUOUS
 10
124.1609907383
 20
153.377228891
 40
1.5
100
AcDbArc
 50
0.0
 51
89.9999787342
  0
ARC
  5
7E4
100
AcDbEntity
  8
0
100
AcDbCircle
 62
7
  6
CONTINUOUS
 10
128.4609907383
 20
147.877228891
 40
0.3
100
AcDbArc
 50
180.0
 51
270.0
  0
ARC
  5
7E5
100
AcDbEntity
  8
0
100
AcDbCircle
 62
7
  6
CONTINUOUS
 10
143.6609907383
 20
134.377228891
 40
3.2
100
AcDbArc
 50
110.1781990249
 51
121.2266101095
  0
ARC
  5
7E6
100
AcDbEntity
  8
0
100
AcDbCircle
 62
7
  6
CONTINUOUS
 10
143.6609907383
 20
134.377228891
 40
3.2
100
AcDbArc
 50
207.9707717102
 51
69.8218009751
  0
ARC
  5
7E7
100
AcDbEntity
  8
03_AXES
100
AcDbCircle
 62
7
  6
CONTINUOUS
 10
143.6609907383
 20
134.377228891
 40
3.0
100
AcDbArc
 50
209.9781669832
 51
123.4369505475
  0
ARC
  5
7E8
100
AcDbEntity
  8
0
100
AcDbCircle
 62
7
  6
CONTINUOUS
 10
131.1609907383
 20
131.877228891
 40
3.0
100
AcDbArc
 50
236.9865803861
 51
270.0
  0
ARC
  5
7E9
100
AcDbEntity
  8
0
100
AcDbCircle
 62
7
  6
CONTINUOUS
 10
143.6609907383
 20
134.377228891
 40
2.9475922207
100
AcDbArc
 50
351.4151218542
 51
8.5848781458
  0
ARC
  5
7EA
100
AcDbEntity
  8
0
100
AcDbCircle
 62
7
  6
CONTINUOUS
 10
143.6609907383
 20
134.377228891
 40
2.9475922207
100
AcDbArc
 50
261.4151218542
 51
278.5848781458
  0
ARC
  5
7EB
100
AcDbEntity
  8
0
100
AcDbCircle
 62
7
  6
CONTINUOUS
 10
143.6609907383
 20
134.377228891
 40
2.9475922207
100
AcDbArc
 50
81.4151218542
 51
98.5848781458
  0
ARC
  5
7EC
100
AcDbEntity
  8
0
100
AcDbCircle
 62
7
  6
CONTINUOUS
 10
143.6609907383
 20
134.377228891
 40
2.6
100
AcDbArc
 50
129.3914640973
 51
180.0
  0
ARC
  5
7ED
100
AcDbEntity
  8
0
100
AcDbCircle
 62
7
  6
CONTINUOUS
 10
133.1609907383
 20
133.877228891
 40
2.25
100
AcDbArc
 50
209.904790071
 51
360.0
  0
ARC
  5
7EE
100
AcDbEntity
  8
0
100
AcDbCircle
 62
7
  6
CONTINUOUS
 10
138.6609907383
 20
129.377228891
 40
0.5
100
AcDbArc
 50
180.0
 51
270.0
  0
CIRCLE
  5
7EF
100
AcDbEntity
  8
0
100
AcDbCircle
 62
7
  6
CONTINUOUS
 10
134.4609907383
 20
145.377228891
 40
3.2
  0
CIRCLE
  5
7F0
100
AcDbEntity
  8
03_AXES
100
AcDbCircle
 62
7
  6
CONTINUOUS
 10
134.4609907383
 20
145.377228891
 40
3.0
  0
ARC
  5
7F1
100
AcDbEntity
  8
0
100
AcDbCircle
 62
7
  6
CONTINUOUS
 10
134.4609907383
 20
145.377228891
 40
2.9475922207
100
AcDbArc
 50
351.4151218542
 51
8.5848781458
  0
ARC
  5
7F2
100
AcDbEntity
  8
0
100
AcDbCircle
 62
7
  6
CONTINUOUS
 10
134.4609907383
 20
145.377228891
 40
2.9475922207
100
AcDbArc
 50
171.4151218542
 51
188.5848781458
  0
ARC
  5
7F3
100
AcDbEntity
  8
0
100
AcDbCircle
 62
7
  6
CONTINUOUS
 10
134.4609907383
 20
145.377228891
 40
2.9475922207
100
AcDbArc
 50
81.4151218542
 51
98.5848781458
  0
ARC
  5
7F4
100
AcDbEntity
  8
0
100
AcDbCircle
 62
7
  6
CONTINUOUS
 10
134.4609907383
 20
145.377228891
 40
2.9475922207
100
AcDbArc
 50
261.4151218542
 51
278.5848781458
  0
CIRCLE
  5
7F5
100
AcDbEntity
  8
0
100
AcDbCircle
 62
7
  6
CONTINUOUS
 10
134.4609907383
 20
158.377228891
 40
3.2
  0
CIRCLE
  5
7F6
100
AcDbEntity
  8
03_AXES
100
AcDbCircle
 62
7
  6
CONTINUOUS
 10
134.4609907383
 20
158.377228891
 40
3.0
  0
ARC
  5
7F7
100
AcDbEntity
  8
0
100
AcDbCircle
 62
7
  6
CONTINUOUS
 10
134.4609907383
 20
158.377228891
 40
2.9475922207
100
AcDbArc
 50
171.4151218542
 51
188.5848781458
  0
ARC
  5
7F8
100
AcDbEntity
  8
0
100
AcDbCircle
 62
7
  6
CONTINUOUS
 10
134.4609907383
 20
158.377228891
 40
2.9475922207
100
AcDbArc
 50
351.4151218542
 51
8.5848781458
  0
ARC
  5
7F9
100
AcDbEntity
  8
0
100
AcDbCircle
 62
7
  6
CONTINUOUS
 10
134.4609907383
 20
158.377228891
 40
2.9475922207
100
AcDbArc
 50
261.4151218542
 51
278.5848781458
  0
ARC
  5
7FA
100
AcDbEntity
  8
0
100
AcDbCircle
 62
7
  6
CONTINUOUS
 10
134.4609907383
 20
158.377228891
 40
2.9475922207
100
AcDbArc
 50
81.4151218542
 51
98.5848781458
  0
ARC
  5
7FB
100
AcDbEntity
  8
0
100
AcDbCircle
 62
7
  6
CONTINUOUS
 10
136.4609907383
 20
156.377228891
 40
2.0000442619
100
AcDbArc
 50
269.9999985895
 51
0.0000005314
  0
ARC
  5
7FC
100
AcDbEntity
  8
0
100
AcDbCircle
 62
7
  6
CONTINUOUS
 10
132.4609907383
 20
156.377228891
 40
2.0000442619
100
AcDbArc
 50
179.9999985895
 51
270.0000005314
  0
ARC
  5
7FD
100
AcDbEntity
  8
0
100
AcDbCircle
 62
7
  6
CONTINUOUS
 10
131.4609907383
 20
161.377228891
 40
1.0
100
AcDbArc
 50
90.0000601675
 51
180.0000000007
  0
ARC
  5
7FE
100
AcDbEntity
  8
0
100
AcDbCircle
 62
7
  6
CONTINUOUS
 10
143.2609907383
 20
156.377228891
 40
2.0000442619
100
AcDbArc
 50
179.9999994686
 51
270.0000014105
  0
ARC
  5
7FF
100
AcDbEntity
  8
0
100
AcDbCircle
 62
7
  6
CONTINUOUS
 10
142.2609907383
 20
161.377228891
 40
1.0000204432
100
AcDbArc
 50
90.0000016743
 51
179.9999994779
  0
ARC
  5
800
100
AcDbEntity
  8
0
100
AcDbCircle
 62
7
  6
CONTINUOUS
 10
137.4609907383
 20
161.377228891
 40
1.0
100
AcDbArc
 50
0.0
 51
89.999978857
  0
CIRCLE
  5
801
100
AcDbEntity
  8
0
100
AcDbCircle
 62
7
  6
CONTINUOUS
 10
122.1609907383
 20
181.377228891
 40
3.1
  0
CIRCLE
  5
802
100
AcDbEntity
  8
03_AXES
100
AcDbCircle
 62
7
  6
CONTINUOUS
 10
122.1609907383
 20
181.377228891
 40
3.0
  0
ARC
  5
803
100
AcDbEntity
  8
0
100
AcDbCircle
 62
7
  6
CONTINUOUS
 10
122.1609907383
 20
181.377228891
 40
2.9546029997
100
AcDbArc
 50
168.2832843726
 51
191.7167156274
  0
ARC
  5
804
100
AcDbEntity
  8
0
100
AcDbCircle
 62
7
  6
CONTINUOUS
 10
122.1609907383
 20
181.377228891
 40
2.9546029997
100
AcDbArc
 50
348.2832843726
 51
11.7167156274
  0
ARC
  5
805
100
AcDbEntity
  8
0
100
AcDbCircle
 62
7
  6
CONTINUOUS
 10
122.1609907383
 20
181.377228891
 40
2.9092059993
100
AcDbArc
 50
191.9022048784
 51
348.0977951216
  0
ARC
  5
806
100
AcDbEntity
  8
0
100
AcDbCircle
 62
7
  6
CONTINUOUS
 10
122.1609907383
 20
181.377228891
 40
2.9092059993
100
AcDbArc
 50
11.9022048784
 51
168.0977951216
  0
ARC
  5
807
100
AcDbEntity
  8
0
100
AcDbCircle
 62
7
  6
CONTINUOUS
 10
120.1609907383
 20
183.377228891
 40
1.500000002
100
AcDbArc
 50
89.9999998198
 51
180.0000001999
  0
ARC
  5
808
100
AcDbEntity
  8
0
100
AcDbCircle
 62
7
  6
CONTINUOUS
 10
124.1609907383
 20
183.377228891
 40
1.500000002
100
AcDbArc
 50
359.9999997749
 51
89.9999998975
  0
ARC
  5
809
100
AcDbEntity
  8
0
100
AcDbCircle
 62
7
  6
CONTINUOUS
 10
120.1609907383
 20
179.377228891
 40
1.5
100
AcDbArc
 50
180.0
 51
269.9999550953
  0
ARC
  5
80A
100
AcDbEntity
  8
0
100
AcDbCircle
 62
7
  6
CONTINUOUS
 10
124.1609907383
 20
179.377228891
 40
1.5
100
AcDbArc
 50
270.0000219262
 51
360.0
  0
ARC
  5
80B
100
AcDbEntity
  8
0
100
AcDbCircle
 62
7
  6
CONTINUOUS
 10
128.4609907383
 20
184.877228891
 40
0.3
100
AcDbArc
 50
90.0
 51
180.0
  0
CIRCLE
  5
80C
100
AcDbEntity
  8
0
100
AcDbCircle
 62
7
  6
CONTINUOUS
 10
122.1609907383
 20
191.877228891
 40
3.1
  0
CIRCLE
  5
80D
100
AcDbEntity
  8
03_AXES
100
AcDbCircle
 62
7
  6
CONTINUOUS
 10
122.1609907383
 20
191.877228891
 40
3.0
  0
ARC
  5
80E
100
AcDbEntity
  8
0
100
AcDbCircle
 62
7
  6
CONTINUOUS
 10
122.1609907383
 20
191.877228891
 40
2.9546029997
100
AcDbArc
 50
348.2832843726
 51
11.7167156274
  0
ARC
  5
80F
100
AcDbEntity
  8
0
100
AcDbCircle
 62
7
  6
CONTINUOUS
 10
122.1609907383
 20
191.877228891
 40
2.9546029997
100
AcDbArc
 50
168.2832843726
 51
191.7167156274
  0
ARC
  5
810
100
AcDbEntity
  8
0
100
AcDbCircle
 62
7
  6
CONTINUOUS
 10
122.1609907383
 20
191.877228891
 40
2.9092059993
100
AcDbArc
 50
11.9022048784
 51
168.0977951216
  0
ARC
  5
811
100
AcDbEntity
  8
0
100
AcDbCircle
 62
7
  6
CONTINUOUS
 10
122.1609907383
 20
191.877228891
 40
2.9092059993
100
AcDbArc
 50
191.9022048784
 51
348.0977951216
  0
ARC
  5
812
100
AcDbEntity
  8
0
100
AcDbCircle
 62
7
  6
CONTINUOUS
 10
120.1609907383
 20
193.877228891
 40
1.5
100
AcDbArc
 50
90.0000145355
 51
179.9999550953
  0
ARC
  5
813
100
AcDbEntity
  8
0
100
AcDbCircle
 62
7
  6
CONTINUOUS
 10
120.1609907383
 20
189.877228891
 40
1.5
100
AcDbArc
 50
180.0000145355
 51
269.9999550953
  0
ARC
  5
814
100
AcDbEntity
  8
0
100
AcDbCircle
 62
7
  6
CONTINUOUS
 10
116.6609907383
 20
192.877228891
 40
0.5
100
AcDbArc
 50
90.0
 51
180.0
  0
ARC
  5
815
100
AcDbEntity
  8
0
100
AcDbCircle
 62
7
  6
CONTINUOUS
 10
116.6609907383
 20
201.477228891
 40
0.5
100
AcDbArc
 50
90.0
 51
180.0
  0
ARC
  5
816
100
AcDbEntity
  8
0
100
AcDbCircle
 62
7
  6
CONTINUOUS
 10
124.1609907383
 20
189.877228891
 40
1.5
100
AcDbArc
 50
270.0000219262
 51
359.9999507648
  0
ARC
  5
817
100
AcDbEntity
  8
0
100
AcDbCircle
 62
7
  6
CONTINUOUS
 10
124.1609907383
 20
193.877228891
 40
1.5
100
AcDbArc
 50
0.0000219262
 51
89.9999507648
  0
ARC
  5
818
100
AcDbEntity
  8
0
100
AcDbCircle
 62
7
  6
CONTINUOUS
 10
127.6609907383
 20
192.877228891
 40
0.5
100
AcDbArc
 50
0.0
 51
90.0
  0
ARC
  5
819
100
AcDbEntity
  8
0
100
AcDbCircle
 62
7
  6
CONTINUOUS
 10
127.6609907383
 20
197.377228891
 40
0.5
100
AcDbArc
 50
0.0
 51
90.0
  0
ARC
  5
81A
100
AcDbEntity
  8
0
100
AcDbCircle
 62
7
  6
CONTINUOUS
 10
128.6609907383
 20
202.877228891
 40
0.5
100
AcDbArc
 50
90.0
 51
180.0
  0
ARC
  5
81B
100
AcDbEntity
  8
0
100
AcDbCircle
 62
7
  6
CONTINUOUS
 10
128.6609907383
 20
199.377228891
 40
0.5
100
AcDbArc
 50
90.0
 51
180.0
  0
CIRCLE
  5
81C
100
AcDbEntity
  8
0
100
AcDbCircle
 62
7
  6
CONTINUOUS
 10
134.4609907383
 20
174.377228891
 40
3.2
  0
CIRCLE
  5
81D
100
AcDbEntity
  8
03_AXES
100
AcDbCircle
 62
7
  6
CONTINUOUS
 10
134.4609907383
 20
174.377228891
 40
3.0
  0
ARC
  5
81E
100
AcDbEntity
  8
0
100
AcDbCircle
 62
7
  6
CONTINUOUS
 10
134.4609907383
 20
174.377228891
 40
2.9475922207
100
AcDbArc
 50
171.4151218542
 51
188.5848781458
  0
ARC
  5
81F
100
AcDbEntity
  8
0
100
AcDbCircle
 62
7
  6
CONTINUOUS
 10
134.4609907383
 20
174.377228891
 40
2.9475922207
100
AcDbArc
 50
351.4151218542
 51
8.5848781458
  0
ARC
  5
820
100
AcDbEntity
  8
0
100
AcDbCircle
 62
7
  6
CONTINUOUS
 10
134.4609907383
 20
174.377228891
 40
2.9475922207
100
AcDbArc
 50
261.4151218542
 51
278.5848781458
  0
ARC
  5
821
100
AcDbEntity
  8
0
100
AcDbCircle
 62
7
  6
CONTINUOUS
 10
134.4609907383
 20
174.377228891
 40
2.9475922207
100
AcDbArc
 50
81.4151218542
 51
98.5848781458
  0
ARC
  5
822
100
AcDbEntity
  8
0
100
AcDbCircle
 62
7
  6
CONTINUOUS
 10
143.2609907383
 20
176.377228891
 40
2.0000442619
100
AcDbArc
 50
89.9999985895
 51
180.0000005314
  0
ARC
  5
823
100
AcDbEntity
  8
0
100
AcDbCircle
 62
7
  6
CONTINUOUS
 10
136.4609907383
 20
176.377228891
 40
2.0000442619
100
AcDbArc
 50
359.9999985895
 51
90.0000005314
  0
ARC
  5
824
100
AcDbEntity
  8
0
100
AcDbCircle
 62
7
  6
CONTINUOUS
 10
132.4609907383
 20
176.377228891
 40
2.0000442619
100
AcDbArc
 50
89.9999985895
 51
180.0000005314
  0
ARC
  5
825
100
AcDbEntity
  8
0
100
AcDbCircle
 62
7
  6
CONTINUOUS
 10
142.2609907383
 20
171.377228891
 40
1.0000204432
100
AcDbArc
 50
180.0000005221
 51
269.9999983257
  0
ARC
  5
826
100
AcDbEntity
  8
0
100
AcDbCircle
 62
7
  6
CONTINUOUS
 10
131.4609907383
 20
171.377228891
 40
1.0
100
AcDbArc
 50
179.9999999993
 51
269.9999401203
  0
ARC
  5
827
100
AcDbEntity
  8
0
100
AcDbCircle
 62
7
  6
CONTINUOUS
 10
137.4609907383
 20
171.377228891
 40
1.0
100
AcDbArc
 50
270.0000212308
 51
360.0
  0
CIRCLE
  5
828
100
AcDbEntity
  8
0
100
AcDbCircle
 62
7
  6
CONTINUOUS
 10
134.4609907383
 20
187.377228891
 40
3.2
  0
CIRCLE
  5
829
100
AcDbEntity
  8
03_AXES
100
AcDbCircle
 62
7
  6
CONTINUOUS
 10
134.4609907383
 20
187.377228891
 40
3.0
  0
ARC
  5
82A
100
AcDbEntity
  8
0
100
AcDbCircle
 62
7
  6
CONTINUOUS
 10
134.4609907383
 20
187.377228891
 40
2.9475922207
100
AcDbArc
 50
351.4151218542
 51
8.5848781458
  0
ARC
  5
82B
100
AcDbEntity
  8
0
100
AcDbCircle
 62
7
  6
CONTINUOUS
 10
134.4609907383
 20
187.377228891
 40
2.9475922207
100
AcDbArc
 50
171.4151218542
 51
188.5848781458
  0
ARC
  5
82C
100
AcDbEntity
  8
0
100
AcDbCircle
 62
7
  6
CONTINUOUS
 10
134.4609907383
 20
187.377228891
 40
2.9475922207
100
AcDbArc
 50
81.4151218542
 51
98.5848781458
  0
ARC
  5
82D
100
AcDbEntity
  8
0
100
AcDbCircle
 62
7
  6
CONTINUOUS
 10
134.4609907383
 20
187.377228891
 40
2.9475922207
100
AcDbArc
 50
261.4151218542
 51
278.5848781458
  0
ARC
  5
82E
100
AcDbEntity
  8
0
100
AcDbCircle
 62
7
  6
CONTINUOUS
 10
131.1609907383
 20
200.877228891
 40
3.0
100
AcDbArc
 50
90.0
 51
123.0134196163
  0
ARC
  5
82F
100
AcDbEntity
  8
0
100
AcDbCircle
 62
7
  6
CONTINUOUS
 10
133.1609907383
 20
198.877228891
 40
2.25
100
AcDbArc
 50
0.0
 51
150.095209929
  0
ARC
  5
830
100
AcDbEntity
  8
0
100
AcDbCircle
 62
7
  6
CONTINUOUS
 10
143.6609907383
 20
198.377228891
 40
3.2
100
AcDbArc
 50
238.7733898905
 51
249.8218009751
  0
ARC
  5
831
100
AcDbEntity
  8
0
100
AcDbCircle
 62
7
  6
CONTINUOUS
 10
143.6609907383
 20
198.377228891
 40
3.2
100
AcDbArc
 50
290.1781990249
 51
152.0292282898
  0
ARC
  5
832
100
AcDbEntity
  8
03_AXES
100
AcDbCircle
 62
7
  6
CONTINUOUS
 10
143.6609907383
 20
198.377228891
 40
3.0
100
AcDbArc
 50
236.5630494525
 51
150.0218330168
  0
ARC
  5
833
100
AcDbEntity
  8
0
100
AcDbCircle
 62
7
  6
CONTINUOUS
 10
143.6609907383
 20
198.377228891
 40
2.9475922207
100
AcDbArc
 50
351.4151218542
 51
8.5848781458
  0
ARC
  5
834
100
AcDbEntity
  8
0
100
AcDbCircle
 62
7
  6
CONTINUOUS
 10
143.6609907383
 20
198.377228891
 40
2.9475922207
100
AcDbArc
 50
261.4151218542
 51
278.5848781458
  0
ARC
  5
835
100
AcDbEntity
  8
0
100
AcDbCircle
 62
7
  6
CONTINUOUS
 10
143.6609907383
 20
198.377228891
 40
2.9475922207
100
AcDbArc
 50
81.4151218542
 51
98.5848781458
  0
ARC
  5
836
100
AcDbEntity
  8
0
100
AcDbCircle
 62
7
  6
CONTINUOUS
 10
143.6609907383
 20
198.377228891
 40
2.6
100
AcDbArc
 50
180.0
 51
230.6085359027
  0
ARC
  5
837
100
AcDbEntity
  8
0
100
AcDbCircle
 62
7
  6
CONTINUOUS
 10
138.6609907383
 20
203.377228891
 40
0.5
100
AcDbArc
 50
90.0
 51
180.0
  0
CIRCLE
  5
838
100
AcDbEntity
  8
0
100
AcDbCircle
 62
7
  6
CONTINUOUS
 10
145.2609907383
 20
145.377228891
 40
3.2
  0
CIRCLE
  5
839
100
AcDbEntity
  8
03_AXES
100
AcDbCircle
 62
7
  6
CONTINUOUS
 10
145.2609907383
 20
145.377228891
 40
3.0
  0
ARC
  5
83A
100
AcDbEntity
  8
0
100
AcDbCircle
 62
7
  6
CONTINUOUS
 10
145.2609907383
 20
145.377228891
 40
2.9475922207
100
AcDbArc
 50
351.4151218542
 51
8.5848781458
  0
ARC
  5
83B
100
AcDbEntity
  8
0
100
AcDbCircle
 62
7
  6
CONTINUOUS
 10
145.2609907383
 20
145.377228891
 40
2.9475922207
100
AcDbArc
 50
171.4151218542
 51
188.5848781458
  0
ARC
  5
83C
100
AcDbEntity
  8
0
100
AcDbCircle
 62
7
  6
CONTINUOUS
 10
145.2609907383
 20
145.377228891
 40
2.9475922207
100
AcDbArc
 50
81.4151218542
 51
98.5848781458
  0
ARC
  5
83D
100
AcDbEntity
  8
0
100
AcDbCircle
 62
7
  6
CONTINUOUS
 10
145.2609907383
 20
145.377228891
 40
2.9475922207
100
AcDbArc
 50
261.4151218542
 51
278.5848781458
  0
ARC
  5
83E
100
AcDbEntity
  8
0
100
AcDbCircle
 62
7
  6
CONTINUOUS
 10
157.6609907383
 20
134.377228891
 40
3.2
100
AcDbArc
 50
58.7733898905
 51
69.8218009751
  0
ARC
  5
83F
100
AcDbEntity
  8
0
100
AcDbCircle
 62
7
  6
CONTINUOUS
 10
157.6609907383
 20
134.377228891
 40
3.2
100
AcDbArc
 50
110.1781990249
 51
332.0292282898
  0
ARC
  5
840
100
AcDbEntity
  8
03_AXES
100
AcDbCircle
 62
7
  6
CONTINUOUS
 10
157.6609907383
 20
134.377228891
 40
3.0
100
AcDbArc
 50
56.5630494525
 51
330.0218330168
  0
ARC
  5
841
100
AcDbEntity
  8
0
100
AcDbCircle
 62
7
  6
CONTINUOUS
 10
157.6609907383
 20
134.377228891
 40
2.9475922207
100
AcDbArc
 50
171.4151218542
 51
188.5848781458
  0
ARC
  5
842
100
AcDbEntity
  8
0
100
AcDbCircle
 62
7
  6
CONTINUOUS
 10
157.6609907383
 20
134.377228891
 40
2.9475922207
100
AcDbArc
 50
261.4151218542
 51
278.5848781458
  0
ARC
  5
843
100
AcDbEntity
  8
0
100
AcDbCircle
 62
7
  6
CONTINUOUS
 10
157.6609907383
 20
134.377228891
 40
2.9475922207
100
AcDbArc
 50
81.4151218542
 51
98.5848781458
  0
ARC
  5
844
100
AcDbEntity
  8
0
100
AcDbCircle
 62
7
  6
CONTINUOUS
 10
157.6609907383
 20
134.377228891
 40
2.6
100
AcDbArc
 50
0.0
 51
50.6085359027
  0
CIRCLE
  5
845
100
AcDbEntity
  8
0
100
AcDbCircle
 62
7
  6
CONTINUOUS
 10
156.0609907383
 20
145.377228891
 40
3.2
  0
CIRCLE
  5
846
100
AcDbEntity
  8
03_AXES
100
AcDbCircle
 62
7
  6
CONTINUOUS
 10
156.0609907383
 20
145.377228891
 40
3.0
  0
ARC
  5
847
100
AcDbEntity
  8
0
100
AcDbCircle
 62
7
  6
CONTINUOUS
 10
156.0609907383
 20
145.377228891
 40
2.9475922207
100
AcDbArc
 50
351.4151218542
 51
8.5848781458
  0
ARC
  5
848
100
AcDbEntity
  8
0
100
AcDbCircle
 62
7
  6
CONTINUOUS
 10
156.0609907383
 20
145.377228891
 40
2.9475922207
100
AcDbArc
 50
171.4151218542
 51
188.5848781458
  0
ARC
  5
849
100
AcDbEntity
  8
0
100
AcDbCircle
 62
7
  6
CONTINUOUS
 10
156.0609907383
 20
145.377228891
 40
2.9475922207
100
AcDbArc
 50
81.4151218542
 51
98.5848781458
  0
ARC
  5
84A
100
AcDbEntity
  8
0
100
AcDbCircle
 62
7
  6
CONTINUOUS
 10
156.0609907383
 20
145.377228891
 40
2.9475922207
100
AcDbArc
 50
261.4151218542
 51
278.5848781458
  0
CIRCLE
  5
84B
100
AcDbEntity
  8
0
100
AcDbCircle
 62
7
  6
CONTINUOUS
 10
145.2609907383
 20
158.377228891
 40
3.2
  0
CIRCLE
  5
84C
100
AcDbEntity
  8
03_AXES
100
AcDbCircle
 62
7
  6
CONTINUOUS
 10
145.2609907383
 20
158.377228891
 40
3.0
  0
ARC
  5
84D
100
AcDbEntity
  8
0
100
AcDbCircle
 62
7
  6
CONTINUOUS
 10
145.2609907383
 20
158.377228891
 40
2.9475922207
100
AcDbArc
 50
171.4151218542
 51
188.5848781458
  0
ARC
  5
84E
100
AcDbEntity
  8
0
100
AcDbCircle
 62
7
  6
CONTINUOUS
 10
145.2609907383
 20
158.377228891
 40
2.9475922207
100
AcDbArc
 50
351.4151218542
 51
8.5848781458
  0
ARC
  5
84F
100
AcDbEntity
  8
0
100
AcDbCircle
 62
7
  6
CONTINUOUS
 10
145.2609907383
 20
158.377228891
 40
2.9475922207
100
AcDbArc
 50
261.4151218542
 51
278.5848781458
  0
ARC
  5
850
100
AcDbEntity
  8
0
100
AcDbCircle
 62
7
  6
CONTINUOUS
 10
145.2609907383
 20
158.377228891
 40
2.9475922207
100
AcDbArc
 50
81.4151218542
 51
98.5848781458
  0
ARC
  5
851
100
AcDbEntity
  8
0
100
AcDbCircle
 62
7
  6
CONTINUOUS
 10
147.2609907383
 20
156.377228891
 40
2.0000442619
100
AcDbArc
 50
269.9999994686
 51
0.0000014105
  0
ARC
  5
852
100
AcDbEntity
  8
0
100
AcDbCircle
 62
7
  6
CONTINUOUS
 10
148.2609907383
 20
161.377228891
 40
1.0000204432
100
AcDbArc
 50
0.0000016743
 51
89.9999994779
  0
CIRCLE
  5
853
100
AcDbEntity
  8
0
100
AcDbCircle
 62
7
  6
CONTINUOUS
 10
156.0609907383
 20
158.377228891
 40
3.2
  0
CIRCLE
  5
854
100
AcDbEntity
  8
03_AXES
100
AcDbCircle
 62
7
  6
CONTINUOUS
 10
156.0609907383
 20
158.377228891
 40
3.0
  0
ARC
  5
855
100
AcDbEntity
  8
0
100
AcDbCircle
 62
7
  6
CONTINUOUS
 10
156.0609907383
 20
158.377228891
 40
2.9475922207
100
AcDbArc
 50
171.4151218542
 51
188.5848781458
  0
ARC
  5
856
100
AcDbEntity
  8
0
100
AcDbCircle
 62
7
  6
CONTINUOUS
 10
156.0609907383
 20
158.377228891
 40
2.9475922207
100
AcDbArc
 50
351.4151218542
 51
8.5848781458
  0
ARC
  5
857
100
AcDbEntity
  8
0
100
AcDbCircle
 62
7
  6
CONTINUOUS
 10
156.0609907383
 20
158.377228891
 40
2.9475922207
100
AcDbArc
 50
261.4151218542
 51
278.5848781458
  0
ARC
  5
858
100
AcDbEntity
  8
0
100
AcDbCircle
 62
7
  6
CONTINUOUS
 10
156.0609907383
 20
158.377228891
 40
2.9475922207
100
AcDbArc
 50
81.4151218542
 51
98.5848781458
  0
ARC
  5
859
100
AcDbEntity
  8
0
100
AcDbCircle
 62
7
  6
CONTINUOUS
 10
154.0609907383
 20
156.377228891
 40
2.0000442619
100
AcDbArc
 50
179.9999985895
 51
270.0000005314
  0
ARC
  5
85A
100
AcDbEntity
  8
0
100
AcDbCircle
 62
7
  6
CONTINUOUS
 10
158.0609907383
 20
156.377228891
 40
2.0000442619
100
AcDbArc
 50
269.9999985895
 51
0.0000005314
  0
ARC
  5
85B
100
AcDbEntity
  8
0
100
AcDbCircle
 62
7
  6
CONTINUOUS
 10
153.0609907383
 20
161.377228891
 40
1.0000204432
100
AcDbArc
 50
90.0000005221
 51
179.9999983257
  0
CIRCLE
  5
85C
100
AcDbEntity
  8
0
100
AcDbCircle
 62
7
  6
CONTINUOUS
 10
166.8609907383
 20
140.277228891
 40
3.2
  0
CIRCLE
  5
85D
100
AcDbEntity
  8
03_AXES
100
AcDbCircle
 62
7
  6
CONTINUOUS
 10
166.8609907383
 20
140.277228891
 40
3.0
  0
ARC
  5
85E
100
AcDbEntity
  8
0
100
AcDbCircle
 62
7
  6
CONTINUOUS
 10
170.1609907383
 20
131.877228891
 40
3.0
100
AcDbArc
 50
270.0
 51
303.0134196163
  0
ARC
  5
85F
100
AcDbEntity
  8
0
100
AcDbCircle
 62
7
  6
CONTINUOUS
 10
166.8609907383
 20
140.277228891
 40
2.9475922207
100
AcDbArc
 50
351.4151218542
 51
8.5848781458
  0
ARC
  5
860
100
AcDbEntity
  8
0
100
AcDbCircle
 62
7
  6
CONTINUOUS
 10
166.8609907383
 20
140.277228891
 40
2.9475922207
100
AcDbArc
 50
171.4151218542
 51
188.5848781458
  0
ARC
  5
861
100
AcDbEntity
  8
0
100
AcDbCircle
 62
7
  6
CONTINUOUS
 10
166.8609907383
 20
140.277228891
 40
2.9475922207
100
AcDbArc
 50
81.4151218542
 51
98.5848781458
  0
ARC
  5
862
100
AcDbEntity
  8
0
100
AcDbCircle
 62
7
  6
CONTINUOUS
 10
166.8609907383
 20
140.277228891
 40
2.9475922207
100
AcDbArc
 50
261.4151218542
 51
278.5848781458
  0
ARC
  5
863
100
AcDbEntity
  8
0
100
AcDbCircle
 62
7
  6
CONTINUOUS
 10
168.1609907383
 20
133.877228891
 40
2.25
100
AcDbArc
 50
180.0
 51
360.0
  0
ARC
  5
864
100
AcDbEntity
  8
0
100
AcDbCircle
 62
7
  6
CONTINUOUS
 10
161.2609907383
 20
137.877228891
 40
0.5
100
AcDbArc
 50
270.0
 51
360.0
  0
ARC
  5
865
100
AcDbEntity
  8
0
100
AcDbCircle
 62
7
  6
CONTINUOUS
 10
172.6609907383
 20
129.877228891
 40
0.5
100
AcDbArc
 50
270.0
 51
360.0
  0
ARC
  5
866
100
AcDbEntity
  8
0
100
AcDbCircle
 62
7
  6
CONTINUOUS
 10
172.6609907383
 20
133.377228891
 40
0.5
100
AcDbArc
 50
270.0
 51
360.0
  0
ARC
  5
867
100
AcDbEntity
  8
0
100
AcDbCircle
 62
7
  6
CONTINUOUS
 10
162.6609907383
 20
129.377228891
 40
0.5
100
AcDbArc
 50
270.0
 51
360.0
  0
ARC
  5
868
100
AcDbEntity
  8
0
100
AcDbCircle
 62
7
  6
CONTINUOUS
 10
162.0609907383
 20
143.177228891
 40
0.3
100
AcDbArc
 50
90.0
 51
180.0
  0
ARC
  5
869
100
AcDbEntity
  8
0
100
AcDbCircle
 62
7
  6
CONTINUOUS
 10
164.8609907383
 20
156.377228891
 40
2.0000442619
100
AcDbArc
 50
179.9999994686
 51
270.0000014105
  0
ARC
  5
86A
100
AcDbEntity
  8
0
100
AcDbCircle
 62
7
  6
CONTINUOUS
 10
159.0609907383
 20
161.377228891
 40
1.0000204432
100
AcDbArc
 50
0.0000005221
 51
89.9999983257
  0
ARC
  5
86B
100
AcDbEntity
  8
0
100
AcDbCircle
 62
7
  6
CONTINUOUS
 10
163.8609907383
 20
161.377228891
 40
1.0
100
AcDbArc
 50
90.0000212308
 51
180.0000000003
  0
ARC
  5
86C
100
AcDbEntity
  8
0
100
AcDbCircle
 62
7
  6
CONTINUOUS
 10
164.8609907383
 20
165.377228891
 40
0.5
100
AcDbArc
 50
180.0
 51
270.0
  0
ARC
  5
86D
100
AcDbEntity
  8
0
100
AcDbCircle
 62
7
  6
CONTINUOUS
 10
165.1609907383
 20
165.677228891
 40
0.3
100
AcDbArc
 50
180.0
 51
270.0
  0
ARC
  5
86E
100
AcDbEntity
  8
0
100
AcDbCircle
 62
7
  6
CONTINUOUS
 10
166.8609907383
 20
148.877228891
 40
3.2
100
AcDbArc
 50
128.5981150981
 51
51.385740235
  0
ARC
  5
86F
100
AcDbEntity
  8
03_AXES
100
AcDbCircle
 62
7
  6
CONTINUOUS
 10
166.8609907383
 20
148.877228891
 40
3.0
100
AcDbArc
 50
123.3987548154
 51
56.6012451846
  0
ARC
  5
870
100
AcDbEntity
  8
0
100
AcDbCircle
 62
7
  6
CONTINUOUS
 10
166.8609907383
 20
148.877228891
 40
2.9475922207
100
AcDbArc
 50
351.4151218542
 51
8.5848781458
  0
ARC
  5
871
100
AcDbEntity
  8
0
100
AcDbCircle
 62
7
  6
CONTINUOUS
 10
166.8609907383
 20
148.877228891
 40
2.9475922207
100
AcDbArc
 50
171.4151218542
 51
188.5848781458
  0
ARC
  5
872
100
AcDbEntity
  8
0
100
AcDbCircle
 62
7
  6
CONTINUOUS
 10
166.8609907383
 20
148.877228891
 40
2.9475922207
100
AcDbArc
 50
261.4151218542
 51
278.5848781458
  0
ARC
  5
873
100
AcDbEntity
  8
0
100
AcDbCircle
 62
7
  6
CONTINUOUS
 10
168.8609907383
 20
156.377228891
 40
2.0000442619
100
AcDbArc
 50
269.9999994686
 51
0.0000014105
  0
ARC
  5
874
100
AcDbEntity
  8
0
100
AcDbCircle
 62
7
  6
CONTINUOUS
 10
172.8609907383
 20
147.877228891
 40
0.3
100
AcDbArc
 50
270.0
 51
360.0
  0
CIRCLE
  5
875
100
AcDbEntity
  8
0
100
AcDbCircle
 62
7
  6
CONTINUOUS
 10
166.8609907383
 20
158.377228891
 40
3.2
  0
CIRCLE
  5
876
100
AcDbEntity
  8
03_AXES
100
AcDbCircle
 62
7
  6
CONTINUOUS
 10
166.8609907383
 20
158.377228891
 40
3.0
  0
ARC
  5
877
100
AcDbEntity
  8
0
100
AcDbCircle
 62
7
  6
CONTINUOUS
 10
166.8609907383
 20
158.377228891
 40
2.9475922207
100
AcDbArc
 50
171.4151218542
 51
188.5848781458
  0
ARC
  5
878
100
AcDbEntity
  8
0
100
AcDbCircle
 62
7
  6
CONTINUOUS
 10
166.8609907383
 20
158.377228891
 40
2.9475922207
100
AcDbArc
 50
351.4151218542
 51
8.5848781458
  0
ARC
  5
879
100
AcDbEntity
  8
0
100
AcDbCircle
 62
7
  6
CONTINUOUS
 10
166.8609907383
 20
158.377228891
 40
2.9475922207
100
AcDbArc
 50
261.4151218542
 51
278.5848781458
  0
ARC
  5
87A
100
AcDbEntity
  8
0
100
AcDbCircle
 62
7
  6
CONTINUOUS
 10
166.8609907383
 20
158.377228891
 40
2.9475922207
100
AcDbArc
 50
81.4151218542
 51
98.5848781458
  0
ARC
  5
87B
100
AcDbEntity
  8
0
100
AcDbCircle
 62
7
  6
CONTINUOUS
 10
169.8609907383
 20
161.377228891
 40
1.0
100
AcDbArc
 50
0.0
 51
89.9999401203
  0
ARC
  5
87C
100
AcDbEntity
  8
0
100
AcDbCircle
 62
7
  6
CONTINUOUS
 10
168.8609907383
 20
165.377228891
 40
0.5
100
AcDbArc
 50
270.0
 51
360.0
  0
ARC
  5
87D
100
AcDbEntity
  8
0
100
AcDbCircle
 62
7
  6
CONTINUOUS
 10
168.5609907383
 20
165.677228891
 40
0.3
100
AcDbArc
 50
270.0
 51
360.0
  0
CIRCLE
  5
87E
100
AcDbEntity
  8
0
100
AcDbCircle
 62
7
  6
CONTINUOUS
 10
145.2609907383
 20
174.377228891
 40
3.2
  0
CIRCLE
  5
87F
100
AcDbEntity
  8
03_AXES
100
AcDbCircle
 62
7
  6
CONTINUOUS
 10
145.2609907383
 20
174.377228891
 40
3.0
  0
ARC
  5
880
100
AcDbEntity
  8
0
100
AcDbCircle
 62
7
  6
CONTINUOUS
 10
145.2609907383
 20
174.377228891
 40
2.9475922207
100
AcDbArc
 50
171.4151218542
 51
188.5848781458
  0
ARC
  5
881
100
AcDbEntity
  8
0
100
AcDbCircle
 62
7
  6
CONTINUOUS
 10
145.2609907383
 20
174.377228891
 40
2.9475922207
100
AcDbArc
 50
351.4151218542
 51
8.5848781458
  0
ARC
  5
882
100
AcDbEntity
  8
0
100
AcDbCircle
 62
7
  6
CONTINUOUS
 10
145.2609907383
 20
174.377228891
 40
2.9475922207
100
AcDbArc
 50
261.4151218542
 51
278.5848781458
  0
ARC
  5
883
100
AcDbEntity
  8
0
100
AcDbCircle
 62
7
  6
CONTINUOUS
 10
145.2609907383
 20
174.377228891
 40
2.9475922207
100
AcDbArc
 50
81.4151218542
 51
98.5848781458
  0
ARC
  5
884
100
AcDbEntity
  8
0
100
AcDbCircle
 62
7
  6
CONTINUOUS
 10
147.2609907383
 20
176.377228891
 40
2.0000442619
100
AcDbArc
 50
359.9999985895
 51
90.0000005314
  0
ARC
  5
885
100
AcDbEntity
  8
0
100
AcDbCircle
 62
7
  6
CONTINUOUS
 10
148.2609907383
 20
171.377228891
 40
1.0000204432
100
AcDbArc
 50
270.0000005221
 51
359.9999983257
  0
ARC
  5
886
100
AcDbEntity
  8
0
100
AcDbCircle
 62
7
  6
CONTINUOUS
 10
149.6609907383
 20
184.377228891
 40
1.0
100
AcDbArc
 50
90.0
 51
180.0
  0
CIRCLE
  5
887
100
AcDbEntity
  8
0
100
AcDbCircle
 62
7
  6
CONTINUOUS
 10
156.0609907383
 20
174.377228891
 40
3.2
  0
CIRCLE
  5
888
100
AcDbEntity
  8
03_AXES
100
AcDbCircle
 62
7
  6
CONTINUOUS
 10
156.0609907383
 20
174.377228891
 40
3.0
  0
ARC
  5
889
100
AcDbEntity
  8
0
100
AcDbCircle
 62
7
  6
CONTINUOUS
 10
156.0609907383
 20
174.377228891
 40
2.9475922207
100
AcDbArc
 50
171.4151218542
 51
188.5848781458
  0
ARC
  5
88A
100
AcDbEntity
  8
0
100
AcDbCircle
 62
7
  6
CONTINUOUS
 10
156.0609907383
 20
174.377228891
 40
2.9475922207
100
AcDbArc
 50
351.4151218542
 51
8.5848781458
  0
ARC
  5
88B
100
AcDbEntity
  8
0
100
AcDbCircle
 62
7
  6
CONTINUOUS
 10
156.0609907383
 20
174.377228891
 40
2.9475922207
100
AcDbArc
 50
261.4151218542
 51
278.5848781458
  0
ARC
  5
88C
100
AcDbEntity
  8
0
100
AcDbCircle
 62
7
  6
CONTINUOUS
 10
156.0609907383
 20
174.377228891
 40
2.9475922207
100
AcDbArc
 50
81.4151218542
 51
98.5848781458
  0
ARC
  5
88D
100
AcDbEntity
  8
0
100
AcDbCircle
 62
7
  6
CONTINUOUS
 10
154.0609907383
 20
176.377228891
 40
2.0000442619
100
AcDbArc
 50
89.9999994686
 51
180.0000014105
  0
ARC
  5
88E
100
AcDbEntity
  8
0
100
AcDbCircle
 62
7
  6
CONTINUOUS
 10
158.0609907383
 20
176.377228891
 40
2.0000442619
100
AcDbArc
 50
359.9999994686
 51
90.0000014105
  0
ARC
  5
88F
100
AcDbEntity
  8
0
100
AcDbCircle
 62
7
  6
CONTINUOUS
 10
153.0609907383
 20
171.377228891
 40
1.0000204432
100
AcDbArc
 50
180.0000016743
 51
269.9999994779
  0
ARC
  5
890
100
AcDbEntity
  8
0
100
AcDbCircle
 62
7
  6
CONTINUOUS
 10
151.6609907383
 20
184.377228891
 40
1.0
100
AcDbArc
 50
0.0
 51
90.0
  0
CIRCLE
  5
891
100
AcDbEntity
  8
0
100
AcDbCircle
 62
7
  6
CONTINUOUS
 10
145.2609907383
 20
187.377228891
 40
3.2
  0
CIRCLE
  5
892
100
AcDbEntity
  8
03_AXES
100
AcDbCircle
 62
7
  6
CONTINUOUS
 10
145.2609907383
 20
187.377228891
 40
3.0
  0
ARC
  5
893
100
AcDbEntity
  8
0
100
AcDbCircle
 62
7
  6
CONTINUOUS
 10
145.2609907383
 20
187.377228891
 40
2.9475922207
100
AcDbArc
 50
351.4151218542
 51
8.5848781458
  0
ARC
  5
894
100
AcDbEntity
  8
0
100
AcDbCircle
 62
7
  6
CONTINUOUS
 10
145.2609907383
 20
187.377228891
 40
2.9475922207
100
AcDbArc
 50
171.4151218542
 51
188.5848781458
  0
ARC
  5
895
100
AcDbEntity
  8
0
100
AcDbCircle
 62
7
  6
CONTINUOUS
 10
145.2609907383
 20
187.377228891
 40
2.9475922207
100
AcDbArc
 50
81.4151218542
 51
98.5848781458
  0
ARC
  5
896
100
AcDbEntity
  8
0
100
AcDbCircle
 62
7
  6
CONTINUOUS
 10
145.2609907383
 20
187.377228891
 40
2.9475922207
100
AcDbArc
 50
261.4151218542
 51
278.5848781458
  0
CIRCLE
  5
897
100
AcDbEntity
  8
0
100
AcDbCircle
 62
7
  6
CONTINUOUS
 10
156.0609907383
 20
187.377228891
 40
3.2
  0
CIRCLE
  5
898
100
AcDbEntity
  8
03_AXES
100
AcDbCircle
 62
7
  6
CONTINUOUS
 10
156.0609907383
 20
187.377228891
 40
3.0
  0
ARC
  5
899
100
AcDbEntity
  8
0
100
AcDbCircle
 62
7
  6
CONTINUOUS
 10
156.0609907383
 20
187.377228891
 40
2.9475922207
100
AcDbArc
 50
351.4151218542
 51
8.5848781458
  0
ARC
  5
89A
100
AcDbEntity
  8
0
100
AcDbCircle
 62
7
  6
CONTINUOUS
 10
156.0609907383
 20
187.377228891
 40
2.9475922207
100
AcDbArc
 50
171.4151218542
 51
188.5848781458
  0
ARC
  5
89B
100
AcDbEntity
  8
0
100
AcDbCircle
 62
7
  6
CONTINUOUS
 10
156.0609907383
 20
187.377228891
 40
2.9475922207
100
AcDbArc
 50
81.4151218542
 51
98.5848781458
  0
ARC
  5
89C
100
AcDbEntity
  8
0
100
AcDbCircle
 62
7
  6
CONTINUOUS
 10
156.0609907383
 20
187.377228891
 40
2.9475922207
100
AcDbArc
 50
261.4151218542
 51
278.5848781458
  0
ARC
  5
89D
100
AcDbEntity
  8
0
100
AcDbCircle
 62
7
  6
CONTINUOUS
 10
157.6609907383
 20
198.377228891
 40
3.2
100
AcDbArc
 50
290.1781990249
 51
301.2266101095
  0
ARC
  5
89E
100
AcDbEntity
  8
0
100
AcDbCircle
 62
7
  6
CONTINUOUS
 10
157.6609907383
 20
198.377228891
 40
3.2
100
AcDbArc
 50
27.9707717102
 51
249.8218009751
  0
ARC
  5
89F
100
AcDbEntity
  8
03_AXES
100
AcDbCircle
 62
7
  6
CONTINUOUS
 10
157.6609907383
 20
198.377228891
 40
3.0
100
AcDbArc
 50
29.9781669832
 51
303.4369505475
  0
ARC
  5
8A0
100
AcDbEntity
  8
0
100
AcDbCircle
 62
7
  6
CONTINUOUS
 10
157.6609907383
 20
198.377228891
 40
2.9475922207
100
AcDbArc
 50
171.4151218542
 51
188.5848781458
  0
ARC
  5
8A1
100
AcDbEntity
  8
0
100
AcDbCircle
 62
7
  6
CONTINUOUS
 10
157.6609907383
 20
198.377228891
 40
2.9475922207
100
AcDbArc
 50
261.4151218542
 51
278.5848781458
  0
ARC
  5
8A2
100
AcDbEntity
  8
0
100
AcDbCircle
 62
7
  6
CONTINUOUS
 10
157.6609907383
 20
198.377228891
 40
2.9475922207
100
AcDbArc
 50
81.4151218542
 51
98.5848781458
  0
ARC
  5
8A3
100
AcDbEntity
  8
0
100
AcDbCircle
 62
7
  6
CONTINUOUS
 10
157.6609907383
 20
198.377228891
 40
2.6
100
AcDbArc
 50
309.3914640973
 51
360.0
  0
ARC
  5
8A4
100
AcDbEntity
  8
0
100
AcDbCircle
 62
7
  6
CONTINUOUS
 10
159.0609907383
 20
171.377228891
 40
1.0000204432
100
AcDbArc
 50
270.0000016743
 51
359.9999994779
  0
ARC
  5
8A5
100
AcDbEntity
  8
0
100
AcDbCircle
 62
7
  6
CONTINUOUS
 10
163.8609907383
 20
171.377228891
 40
1.0
100
AcDbArc
 50
179.9999999997
 51
269.9999788584
  0
ARC
  5
8A6
100
AcDbEntity
  8
0
100
AcDbCircle
 62
7
  6
CONTINUOUS
 10
164.8609907383
 20
167.377228891
 40
0.5
100
AcDbArc
 50
90.0
 51
180.0
  0
ARC
  5
8A7
100
AcDbEntity
  8
0
100
AcDbCircle
 62
7
  6
CONTINUOUS
 10
165.1609907383
 20
167.077228891
 40
0.3
100
AcDbArc
 50
90.0
 51
180.0
  0
ARC
  5
8A8
100
AcDbEntity
  8
0
100
AcDbCircle
 62
7
  6
CONTINUOUS
 10
164.8609907383
 20
176.377228891
 40
2.0000442619
100
AcDbArc
 50
89.9999994686
 51
180.0000014105
  0
CIRCLE
  5
8A9
100
AcDbEntity
  8
0
100
AcDbCircle
 62
7
  6
CONTINUOUS
 10
166.8609907383
 20
174.377228891
 40
3.2
  0
CIRCLE
  5
8AA
100
AcDbEntity
  8
03_AXES
100
AcDbCircle
 62
7
  6
CONTINUOUS
 10
166.8609907383
 20
174.377228891
 40
3.0
  0
ARC
  5
8AB
100
AcDbEntity
  8
0
100
AcDbCircle
 62
7
  6
CONTINUOUS
 10
166.8609907383
 20
174.377228891
 40
2.9475922207
100
AcDbArc
 50
171.4151218542
 51
188.5848781458
  0
ARC
  5
8AC
100
AcDbEntity
  8
0
100
AcDbCircle
 62
7
  6
CONTINUOUS
 10
166.8609907383
 20
174.377228891
 40
2.9475922207
100
AcDbArc
 50
351.4151218542
 51
8.5848781458
  0
ARC
  5
8AD
100
AcDbEntity
  8
0
100
AcDbCircle
 62
7
  6
CONTINUOUS
 10
166.8609907383
 20
174.377228891
 40
2.9475922207
100
AcDbArc
 50
261.4151218542
 51
278.5848781458
  0
ARC
  5
8AE
100
AcDbEntity
  8
0
100
AcDbCircle
 62
7
  6
CONTINUOUS
 10
166.8609907383
 20
174.377228891
 40
2.9475922207
100
AcDbArc
 50
81.4151218542
 51
98.5848781458
  0
ARC
  5
8AF
100
AcDbEntity
  8
0
100
AcDbCircle
 62
7
  6
CONTINUOUS
 10
169.8609907383
 20
171.377228891
 40
1.0
100
AcDbArc
 50
270.0000601675
 51
360.0
  0
ARC
  5
8B0
100
AcDbEntity
  8
0
100
AcDbCircle
 62
7
  6
CONTINUOUS
 10
168.8609907383
 20
167.377228891
 40
0.5
100
AcDbArc
 50
0.0
 51
90.0
  0
ARC
  5
8B1
100
AcDbEntity
  8
0
100
AcDbCircle
 62
7
  6
CONTINUOUS
 10
168.5609907383
 20
167.077228891
 40
0.3
100
AcDbArc
 50
0.0
 51
90.0
  0
ARC
  5
8B2
100
AcDbEntity
  8
0
100
AcDbCircle
 62
7
  6
CONTINUOUS
 10
166.8609907383
 20
183.877228891
 40
3.2
100
AcDbArc
 50
308.5962056497
 51
231.3917562454
  0
ARC
  5
8B3
100
AcDbEntity
  8
03_AXES
100
AcDbCircle
 62
7
  6
CONTINUOUS
 10
166.8609907383
 20
183.877228891
 40
3.0
100
AcDbArc
 50
303.3987548154
 51
236.6012451846
  0
ARC
  5
8B4
100
AcDbEntity
  8
0
100
AcDbCircle
 62
7
  6
CONTINUOUS
 10
166.8609907383
 20
183.877228891
 40
2.9475922207
100
AcDbArc
 50
351.4151218542
 51
8.5848781458
  0
ARC
  5
8B5
100
AcDbEntity
  8
0
100
AcDbCircle
 62
7
  6
CONTINUOUS
 10
166.8609907383
 20
183.877228891
 40
2.9475922207
100
AcDbArc
 50
171.4151218542
 51
188.5848781458
  0
ARC
  5
8B6
100
AcDbEntity
  8
0
100
AcDbCircle
 62
7
  6
CONTINUOUS
 10
166.8609907383
 20
183.877228891
 40
2.9475922207
100
AcDbArc
 50
81.4151218542
 51
98.5848781458
  0
ARC
  5
8B7
100
AcDbEntity
  8
0
100
AcDbCircle
 62
7
  6
CONTINUOUS
 10
168.8609907383
 20
176.377228891
 40
2.0000442619
100
AcDbArc
 50
359.9999994686
 51
90.0000014105
  0
ARC
  5
8B8
100
AcDbEntity
  8
0
100
AcDbCircle
 62
7
  6
CONTINUOUS
 10
172.8609907383
 20
184.877228891
 40
0.3
100
AcDbArc
 50
0.0
 51
90.0
  0
CIRCLE
  5
8B9
100
AcDbEntity
  8
0
100
AcDbCircle
 62
7
  6
CONTINUOUS
 10
166.8609907383
 20
192.477228891
 40
3.2
  0
CIRCLE
  5
8BA
100
AcDbEntity
  8
03_AXES
100
AcDbCircle
 62
7
  6
CONTINUOUS
 10
166.8609907383
 20
192.477228891
 40
3.0
  0
ARC
  5
8BB
100
AcDbEntity
  8
0
100
AcDbCircle
 62
7
  6
CONTINUOUS
 10
170.1609907383
 20
200.877228891
 40
3.0
100
AcDbArc
 50
56.9865803861
 51
90.0
  0
ARC
  5
8BC
100
AcDbEntity
  8
0
100
AcDbCircle
 62
7
  6
CONTINUOUS
 10
166.8609907383
 20
192.477228891
 40
2.9475922207
100
AcDbArc
 50
351.4151218542
 51
8.5848781458
  0
ARC
  5
8BD
100
AcDbEntity
  8
0
100
AcDbCircle
 62
7
  6
CONTINUOUS
 10
166.8609907383
 20
192.477228891
 40
2.9475922207
100
AcDbArc
 50
171.4151218542
 51
188.5848781458
  0
ARC
  5
8BE
100
AcDbEntity
  8
0
100
AcDbCircle
 62
7
  6
CONTINUOUS
 10
166.8609907383
 20
192.477228891
 40
2.9475922207
100
AcDbArc
 50
81.4151218542
 51
98.5848781458
  0
ARC
  5
8BF
100
AcDbEntity
  8
0
100
AcDbCircle
 62
7
  6
CONTINUOUS
 10
166.8609907383
 20
192.477228891
 40
2.9475922207
100
AcDbArc
 50
261.4151218542
 51
278.5848781458
  0
ARC
  5
8C0
100
AcDbEntity
  8
0
100
AcDbCircle
 62
7
  6
CONTINUOUS
 10
168.1609907383
 20
198.877228891
 40
2.25
100
AcDbArc
 50
0.0
 51
180.0
  0
ARC
  5
8C1
100
AcDbEntity
  8
0
100
AcDbCircle
 62
7
  6
CONTINUOUS
 10
161.2609907383
 20
194.877228891
 40
0.5
100
AcDbArc
 50
0.0
 51
90.0
  0
ARC
  5
8C2
100
AcDbEntity
  8
0
100
AcDbCircle
 62
7
  6
CONTINUOUS
 10
172.6609907383
 20
199.377228891
 40
0.5
100
AcDbArc
 50
0.0
 51
90.0
  0
ARC
  5
8C3
100
AcDbEntity
  8
0
100
AcDbCircle
 62
7
  6
CONTINUOUS
 10
172.6609907383
 20
202.877228891
 40
0.5
100
AcDbArc
 50
0.0
 51
90.0
  0
ARC
  5
8C4
100
AcDbEntity
  8
0
100
AcDbCircle
 62
7
  6
CONTINUOUS
 10
162.6609907383
 20
203.377228891
 40
0.5
100
AcDbArc
 50
0.0
 51
90.0
  0
ARC
  5
8C5
100
AcDbEntity
  8
0
100
AcDbCircle
 62
7
  6
CONTINUOUS
 10
162.0609907383
 20
189.577228891
 40
0.3
100
AcDbArc
 50
180.0
 51
270.0
  0
ARC
  5
8C6
100
AcDbEntity
  8
0
100
AcDbCircle
 62
7
  6
CONTINUOUS
 10
253.3506970118
 20
129.877228891
 40
1.0
100
AcDbArc
 50
180.0
 51
270.0
  0
ARC
  5
8C7
100
AcDbEntity
  8
0
100
AcDbCircle
 62
7
  6
CONTINUOUS
 10
257.3506970118
 20
130.377228891
 40
1.0
100
AcDbArc
 50
180.0
 51
270.0
  0
ARC
  5
8C8
100
AcDbEntity
  8
0
100
AcDbCircle
 62
7
  6
CONTINUOUS
 10
227.8506970118
 20
146.377228891
 40
0.5
100
AcDbArc
 50
90.0
 51
180.0
  0
ARC
  5
8C9
100
AcDbEntity
  8
0
100
AcDbCircle
 62
7
  6
CONTINUOUS
 10
227.8506970118
 20
129.377228891
 40
0.5
100
AcDbArc
 50
180.0
 51
270.0
  0
ARC
  5
8CA
100
AcDbEntity
  8
0
100
AcDbCircle
 62
7
  6
CONTINUOUS
 10
234.3506970118
 20
129.377228891
 40
0.5
100
AcDbArc
 50
270.0
 51
360.0
  0
ARC
  5
8CB
100
AcDbEntity
  8
0
100
AcDbCircle
 62
7
  6
CONTINUOUS
 10
235.2506970118
 20
134.9843356722
 40
0.5
100
AcDbArc
 50
180.0
 51
225.0
  0
ARC
  5
8CC
100
AcDbEntity
  8
0
100
AcDbCircle
 62
7
  6
CONTINUOUS
 10
238.957803793
 20
131.277228891
 40
0.5
100
AcDbArc
 50
225.0
 51
270.0
  0
ARC
  5
8CD
100
AcDbEntity
  8
0
100
AcDbCircle
 62
7
  6
CONTINUOUS
 10
258.5313102666
 20
135.177228891
 40
0.2
100
AcDbArc
 50
315.0
 51
90.0
  0
ARC
  5
8CE
100
AcDbEntity
  8
0
100
AcDbCircle
 62
7
  6
CONTINUOUS
 10
251.4602424547
 20
135.177228891
 40
0.2
100
AcDbArc
 50
315.0
 51
90.0
  0
ARC
  5
8CF
100
AcDbEntity
  8
0
100
AcDbCircle
 62
7
  6
CONTINUOUS
 10
244.3891746429
 20
135.177228891
 40
0.2
100
AcDbArc
 50
315.0
 51
90.0
  0
ARC
  5
8D0
100
AcDbEntity
  8
0
100
AcDbCircle
 62
7
  6
CONTINUOUS
 10
240.2335397243
 20
132.577228891
 40
0.2
100
AcDbArc
 50
135.0
 51
270.0
  0
ARC
  5
8D1
100
AcDbEntity
  8
0
100
AcDbCircle
 62
7
  6
CONTINUOUS
 10
247.3046075361
 20
132.577228891
 40
0.2
100
AcDbArc
 50
135.0
 51
270.0
  0
ARC
  5
8D2
100
AcDbEntity
  8
0
100
AcDbCircle
 62
7
  6
CONTINUOUS
 10
254.375675348
 20
132.577228891
 40
0.2
100
AcDbArc
 50
135.0
 51
270.0
  0
ARC
  5
8D3
100
AcDbEntity
  8
0
100
AcDbCircle
 62
7
  6
CONTINUOUS
 10
234.8506970118
 20
162.377228891
 40
1.0
100
AcDbArc
 50
180.0
 51
264.068393941
  0
ARC
  5
8D4
100
AcDbEntity
  8
0
100
AcDbCircle
 62
7
  6
CONTINUOUS
 10
245.2506970118
 20
163.377228891
 40
1.0
100
AcDbArc
 50
270.0
 51
360.0
  0
ARC
  5
8D5
100
AcDbEntity
  8
0
100
AcDbCircle
 62
7
  6
CONTINUOUS
 10
237.2506970118
 20
163.377228891
 40
1.0
100
AcDbArc
 50
180.0
 51
270.0
  0
ARC
  5
8D6
100
AcDbEntity
  8
0
100
AcDbCircle
 62
7
  6
CONTINUOUS
 10
234.9506970118
 20
162.477228891
 40
0.5
100
AcDbArc
 50
180.0
 51
246.3250503108
  0
ARC
  5
8D7
100
AcDbEntity
  8
0
100
AcDbCircle
 62
7
  6
CONTINUOUS
 10
229.5999386665
 20
149.577228891
 40
0.5
100
AcDbArc
 50
90.0
 51
140.0
  0
ARC
  5
8D8
100
AcDbEntity
  8
0
100
AcDbCircle
 62
7
  6
CONTINUOUS
 10
240.6135054305
 20
165.2342819214
 40
0.4883212385
100
AcDbArc
 50
120.6421696663
 51
277.7314199785
  0
ARC
  5
8D9
100
AcDbEntity
  8
0
100
AcDbCircle
 62
7
  6
CONTINUOUS
 10
240.6135054305
 20
165.2342819214
 40
0.4883212385
100
AcDbArc
 50
5.6186735998
 51
98.8351594467
  0
ARC
  5
8DA
100
AcDbEntity
  8
0
100
AcDbCircle
 62
7
  6
CONTINUOUS
 10
248.9506970118
 20
153.027228891
 40
0.3
100
AcDbArc
 50
270.0
 51
360.0
  0
ARC
  5
8DB
100
AcDbEntity
  8
0
100
AcDbCircle
 62
7
  6
CONTINUOUS
 10
236.5506970118
 20
155.927228891
 40
0.3
100
AcDbArc
 50
90.0
 51
180.0
  0
ARC
  5
8DC
100
AcDbEntity
  8
0
100
AcDbCircle
 62
7
  6
CONTINUOUS
 10
236.5506970118
 20
152.727228891
 40
0.3
100
AcDbArc
 50
180.0
 51
270.0
  0
ARC
  5
8DD
100
AcDbEntity
  8
0
100
AcDbCircle
 62
7
  6
CONTINUOUS
 10
241.0506970118
 20
155.927228891
 40
0.3
100
AcDbArc
 50
0.0
 51
90.0
  0
ARC
  5
8DE
100
AcDbEntity
  8
0
100
AcDbCircle
 62
7
  6
CONTINUOUS
 10
241.0506970118
 20
152.727228891
 40
0.3
100
AcDbArc
 50
270.0
 51
360.0
  0
ARC
  5
8DF
100
AcDbEntity
  8
0
100
AcDbCircle
 62
7
  6
CONTINUOUS
 10
248.9506970118
 20
155.627228891
 40
0.3
100
AcDbArc
 50
0.0
 51
90.0
  0
ARC
  5
8E0
100
AcDbEntity
  8
0
100
AcDbCircle
 62
7
  6
CONTINUOUS
 10
244.5506970118
 20
155.627228891
 40
0.3
100
AcDbArc
 50
90.0
 51
180.0
  0
ARC
  5
8E1
100
AcDbEntity
  8
0
100
AcDbCircle
 62
7
  6
CONTINUOUS
 10
244.5506970118
 20
153.027228891
 40
0.3
100
AcDbArc
 50
180.0
 51
270.0
  0
CIRCLE
  5
8E2
100
AcDbEntity
  8
0
100
AcDbCircle
 62
7
  6
CONTINUOUS
 10
240.6135054305
 20
165.2342819214
 40
0.2570456643
  0
ARC
  5
8E3
100
AcDbEntity
  8
0
100
AcDbCircle
 62
7
  6
CONTINUOUS
 10
244.5914952796
 20
164.7601432067
 40
0.2261288086
100
AcDbArc
 50
155.7513774002
 51
54.1687805877
  0
ARC
  5
8E4
100
AcDbEntity
  8
0
100
AcDbCircle
 62
7
  6
CONTINUOUS
 10
231.4506970118
 20
165.327228891
 40
0.2
100
AcDbArc
 50
180.0
 51
239.3636473565
  0
CIRCLE
  5
8E5
100
AcDbEntity
  8
0
100
AcDbCircle
 62
7
  6
CONTINUOUS
 10
240.6135054305
 20
165.2342819214
 40
0.1662623359
  0
ARC
  5
8E6
100
AcDbEntity
  8
0
100
AcDbCircle
 62
7
  6
CONTINUOUS
 10
285.522269887
 20
131.377228891
 40
2.0
100
AcDbArc
 50
270.0
 51
315.0
  0
ARC
  5
8E7
100
AcDbEntity
  8
0
100
AcDbCircle
 62
7
  6
CONTINUOUS
 10
270.9435902306
 20
129.377228891
 40
0.5
100
AcDbArc
 50
270.0
 51
315.0
  0
ARC
  5
8E8
100
AcDbEntity
  8
0
100
AcDbCircle
 62
7
  6
CONTINUOUS
 10
275.7506970118
 20
138.877228891
 40
0.5
100
AcDbArc
 50
90.0
 51
180.0
  0
ARC
  5
8E9
100
AcDbEntity
  8
0
100
AcDbCircle
 62
7
  6
CONTINUOUS
 10
271.0435902306
 20
131.277228891
 40
0.5
100
AcDbArc
 50
270.0
 51
315.0
  0
ARC
  5
8EA
100
AcDbEntity
  8
0
100
AcDbCircle
 62
7
  6
CONTINUOUS
 10
274.7506970118
 20
134.9843356722
 40
0.5
100
AcDbArc
 50
315.0
 51
360.0
  0
ARC
  5
8EB
100
AcDbEntity
  8
0
100
AcDbCircle
 62
7
  6
CONTINUOUS
 10
268.3006970118
 20
134.427228891
 40
0.3
100
AcDbArc
 50
180.0
 51
270.0
  0
ARC
  5
8EC
100
AcDbEntity
  8
0
100
AcDbCircle
 62
7
  6
CONTINUOUS
 10
268.3006970118
 20
136.077228891
 40
0.3
100
AcDbArc
 50
90.0
 51
180.0
  0
ARC
  5
8ED
100
AcDbEntity
  8
0
100
AcDbCircle
 62
7
  6
CONTINUOUS
 10
271.3006970118
 20
134.427228891
 40
0.3
100
AcDbArc
 50
270.0
 51
360.0
  0
ARC
  5
8EE
100
AcDbEntity
  8
0
100
AcDbCircle
 62
7
  6
CONTINUOUS
 10
271.3006970118
 20
136.077228891
 40
0.3
100
AcDbArc
 50
0.0
 51
90.0
  0
ARC
  5
8EF
100
AcDbEntity
  8
0
100
AcDbCircle
 62
7
  6
CONTINUOUS
 10
271.4178976269
 20
134.477228891
 40
0.2
100
AcDbArc
 50
135.0
 51
270.0
  0
ARC
  5
8F0
100
AcDbEntity
  8
0
100
AcDbCircle
 62
7
  6
CONTINUOUS
 10
278.7718081512
 20
134.477228891
 40
0.2
100
AcDbArc
 50
135.0
 51
270.0
  0
ARC
  5
8F1
100
AcDbEntity
  8
0
100
AcDbCircle
 62
7
  6
CONTINUOUS
 10
286.1257186756
 20
134.477228891
 40
0.2
100
AcDbArc
 50
135.0
 51
270.0
  0
ARC
  5
8F2
100
AcDbEntity
  8
0
100
AcDbCircle
 62
7
  6
CONTINUOUS
 10
289.4570895255
 20
136.677228891
 40
0.2
100
AcDbArc
 50
315.0
 51
90.0
  0
ARC
  5
8F3
100
AcDbEntity
  8
0
100
AcDbCircle
 62
7
  6
CONTINUOUS
 10
282.1031790011
 20
136.677228891
 40
0.2
100
AcDbArc
 50
315.0
 51
90.0
  0
ARC
  5
8F4
100
AcDbEntity
  8
0
100
AcDbCircle
 62
7
  6
CONTINUOUS
 10
265.6023780785
 20
135.177228891
 40
0.2
100
AcDbArc
 50
315.0
 51
90.0
  0
ARC
  5
8F5
100
AcDbEntity
  8
0
100
AcDbCircle
 62
7
  6
CONTINUOUS
 10
261.4467431599
 20
132.577228891
 40
0.2
100
AcDbArc
 50
135.0
 51
270.0
  0
ARC
  5
8F6
100
AcDbEntity
  8
0
100
AcDbCircle
 62
7
  6
CONTINUOUS
 10
287.2506970118
 20
165.927228891
 40
0.5
100
AcDbArc
 50
270.0000002424
 51
360.0
  0
ARC
  5
8F7
100
AcDbEntity
  8
0
100
AcDbCircle
 62
7
  6
CONTINUOUS
 10
286.8506970118
 20
165.927228891
 40
0.5
100
AcDbArc
 50
180.0000002424
 51
270.0
  0
ARC
  5
8F8
100
AcDbEntity
  8
0
100
AcDbCircle
 62
7
  6
CONTINUOUS
 10
286.0506970118
 20
165.027228891
 40
0.5
100
AcDbArc
 50
180.0000002424
 51
270.0
  0
ARC
  5
8F9
100
AcDbEntity
  8
0
100
AcDbCircle
 62
7
  6
CONTINUOUS
 10
288.2506970118
 20
165.027228891
 40
0.5
100
AcDbArc
 50
270.0000002424
 51
360.0
  0
ARC
  5
8FA
100
AcDbEntity
  8
0
100
AcDbCircle
 62
7
  6
CONTINUOUS
 10
275.7506970118
 20
164.377228891
 40
0.5
100
AcDbArc
 50
180.0
 51
270.0
  0
ARC
  5
8FB
100
AcDbEntity
  8
0
100
AcDbCircle
 62
7
  6
CONTINUOUS
 10
273.0506970118
 20
153.677228891
 40
0.3
100
AcDbArc
 50
270.0
 51
360.0
  0
ARC
  5
8FC
100
AcDbEntity
  8
0
100
AcDbCircle
 62
7
  6
CONTINUOUS
 10
260.4506970118
 20
153.677228891
 40
0.3
100
AcDbArc
 50
180.0
 51
270.0
  0
ARC
  5
8FD
100
AcDbEntity
  8
0
100
AcDbCircle
 62
7
  6
CONTINUOUS
 10
273.0506970118
 20
155.577228891
 40
0.3
100
AcDbArc
 50
0.0
 51
90.0
  0
ARC
  5
8FE
100
AcDbEntity
  8
0
100
AcDbCircle
 62
7
  6
CONTINUOUS
 10
260.4506970118
 20
155.577228891
 40
0.3
100
AcDbArc
 50
90.0
 51
180.0
  0
ARC
  5
8FF
100
AcDbEntity
  8
0
100
AcDbCircle
 62
7
  6
CONTINUOUS
 10
234.8506970118
 20
170.377228891
 40
1.0
100
AcDbArc
 50
95.931606059
 51
180.0
  0
CIRCLE
  5
900
100
AcDbEntity
  8
02___PRT_ALL_AXES
100
AcDbCircle
 62
7
  6
CONTINUOUS
 10
248.2506970118
 20
166.377228891
 40
1.0
  0
ARC
  5
901
100
AcDbEntity
  8
0
100
AcDbCircle
 62
7
  6
CONTINUOUS
 10
237.2506970118
 20
169.377228891
 40
1.0
100
AcDbArc
 50
90.0
 51
180.0
  0
ARC
  5
902
100
AcDbEntity
  8
0
100
AcDbCircle
 62
7
  6
CONTINUOUS
 10
245.2506970118
 20
169.377228891
 40
1.0
100
AcDbArc
 50
0.0
 51
90.0
  0
CIRCLE
  5
903
100
AcDbEntity
  8
0
100
AcDbCircle
 62
7
  6
CONTINUOUS
 10
230.7506970118
 20
183.177228891
 40
0.6
  0
ARC
  5
904
100
AcDbEntity
  8
0
100
AcDbCircle
 62
7
  6
CONTINUOUS
 10
234.9506970118
 20
170.277228891
 40
0.5
100
AcDbArc
 50
113.6749496892
 51
180.0
  0
ARC
  5
905
100
AcDbEntity
  8
0
100
AcDbCircle
 62
7
  6
CONTINUOUS
 10
229.2550881071
 20
182.877228891
 40
0.5
100
AcDbArc
 50
270.0
 51
355.0
  0
ARC
  5
906
100
AcDbEntity
  8
0
100
AcDbCircle
 62
7
  6
CONTINUOUS
 10
229.095231185
 20
182.877228891
 40
0.5
100
AcDbArc
 50
195.2436023754
 51
270.0
  0
ARC
  5
907
100
AcDbEntity
  8
0
100
AcDbCircle
 62
7
  6
CONTINUOUS
 10
236.5506970118
 20
180.027228891
 40
0.3
100
AcDbArc
 50
90.0
 51
180.0
  0
ARC
  5
908
100
AcDbEntity
  8
0
100
AcDbCircle
 62
7
  6
CONTINUOUS
 10
236.5506970118
 20
176.827228891
 40
0.3
100
AcDbArc
 50
180.0
 51
270.0
  0
ARC
  5
909
100
AcDbEntity
  8
0
100
AcDbCircle
 62
7
  6
CONTINUOUS
 10
241.0506970118
 20
176.827228891
 40
0.3
100
AcDbArc
 50
270.0
 51
360.0
  0
ARC
  5
90A
100
AcDbEntity
  8
0
100
AcDbCircle
 62
7
  6
CONTINUOUS
 10
241.0506970118
 20
180.027228891
 40
0.3
100
AcDbArc
 50
0.0
 51
90.0
  0
ARC
  5
90B
100
AcDbEntity
  8
0
100
AcDbCircle
 62
7
  6
CONTINUOUS
 10
244.5506970118
 20
179.727228891
 40
0.3
100
AcDbArc
 50
90.0
 51
180.0
  0
ARC
  5
90C
100
AcDbEntity
  8
0
100
AcDbCircle
 62
7
  6
CONTINUOUS
 10
244.5506970118
 20
177.127228891
 40
0.3
100
AcDbArc
 50
180.0
 51
270.0
  0
ARC
  5
90D
100
AcDbEntity
  8
0
100
AcDbCircle
 62
7
  6
CONTINUOUS
 10
248.9506970118
 20
177.127228891
 40
0.3
100
AcDbArc
 50
270.0
 51
360.0
  0
ARC
  5
90E
100
AcDbEntity
  8
0
100
AcDbCircle
 62
7
  6
CONTINUOUS
 10
248.9506970118
 20
179.727228891
 40
0.3
100
AcDbArc
 50
0.0
 51
90.0
  0
ARC
  5
90F
100
AcDbEntity
  8
0
100
AcDbCircle
 62
7
  6
CONTINUOUS
 10
231.4506970118
 20
167.427228891
 40
0.2
100
AcDbArc
 50
120.6363526435
 51
180.0
  0
ARC
  5
910
100
AcDbEntity
  8
0
100
AcDbCircle
 62
7
  6
CONTINUOUS
 10
240.4518648829
 20
167.1449311554
 40
0.0872444739
100
AcDbArc
 50
94.9229716429
 51
168.3144544364
  0
ARC
  5
911
100
AcDbEntity
  8
0
100
AcDbCircle
 62
7
  6
CONTINUOUS
 10
253.3506970118
 20
202.877228891
 40
1.0
100
AcDbArc
 50
90.0
 51
180.0
  0
ARC
  5
912
100
AcDbEntity
  8
0
100
AcDbCircle
 62
7
  6
CONTINUOUS
 10
257.3506970118
 20
202.377228891
 40
1.0
100
AcDbArc
 50
90.0
 51
180.0
  0
ARC
  5
913
100
AcDbEntity
  8
0
100
AcDbCircle
 62
7
  6
CONTINUOUS
 10
227.8506970118
 20
187.877228891
 40
0.5
100
AcDbArc
 50
180.0
 51
270.0
  0
ARC
  5
914
100
AcDbEntity
  8
0
100
AcDbCircle
 62
7
  6
CONTINUOUS
 10
227.8506970118
 20
203.377228891
 40
0.5
100
AcDbArc
 50
90.0
 51
180.0
  0
ARC
  5
915
100
AcDbEntity
  8
0
100
AcDbCircle
 62
7
  6
CONTINUOUS
 10
234.3506970118
 20
203.377228891
 40
0.5
100
AcDbArc
 50
0.0
 51
90.0
  0
ARC
  5
916
100
AcDbEntity
  8
0
100
AcDbCircle
 62
7
  6
CONTINUOUS
 10
238.957803793
 20
201.477228891
 40
0.5
100
AcDbArc
 50
90.0
 51
135.0
  0
ARC
  5
917
100
AcDbEntity
  8
0
100
AcDbCircle
 62
7
  6
CONTINUOUS
 10
235.2506970118
 20
197.7701221098
 40
0.5
100
AcDbArc
 50
135.0
 51
180.0
  0
ARC
  5
918
100
AcDbEntity
  8
0
100
AcDbCircle
 62
7
  6
CONTINUOUS
 10
258.5313102666
 20
197.577228891
 40
0.2
100
AcDbArc
 50
270.0
 51
45.0
  0
ARC
  5
919
100
AcDbEntity
  8
0
100
AcDbCircle
 62
7
  6
CONTINUOUS
 10
251.4602424547
 20
197.577228891
 40
0.2
100
AcDbArc
 50
270.0
 51
45.0
  0
ARC
  5
91A
100
AcDbEntity
  8
0
100
AcDbCircle
 62
7
  6
CONTINUOUS
 10
244.3891746429
 20
197.577228891
 40
0.2
100
AcDbArc
 50
270.0
 51
45.0
  0
ARC
  5
91B
100
AcDbEntity
  8
0
100
AcDbCircle
 62
7
  6
CONTINUOUS
 10
240.2335397243
 20
200.177228891
 40
0.2
100
AcDbArc
 50
90.0
 51
225.0
  0
ARC
  5
91C
100
AcDbEntity
  8
0
100
AcDbCircle
 62
7
  6
CONTINUOUS
 10
247.3046075361
 20
200.177228891
 40
0.2
100
AcDbArc
 50
90.0
 51
225.0
  0
ARC
  5
91D
100
AcDbEntity
  8
0
100
AcDbCircle
 62
7
  6
CONTINUOUS
 10
254.375675348
 20
200.177228891
 40
0.2
100
AcDbArc
 50
90.0
 51
225.0
  0
ARC
  5
91E
100
AcDbEntity
  8
0
100
AcDbCircle
 62
7
  6
CONTINUOUS
 10
286.8506970118
 20
166.827228891
 40
0.5
100
AcDbArc
 50
90.0000002424
 51
180.0
  0
ARC
  5
91F
100
AcDbEntity
  8
0
100
AcDbCircle
 62
7
  6
CONTINUOUS
 10
287.2506970118
 20
166.827228891
 40
0.5
100
AcDbArc
 50
0.0000002424
 51
90.0
  0
ARC
  5
920
100
AcDbEntity
  8
0
100
AcDbCircle
 62
7
  6
CONTINUOUS
 10
286.0506970118
 20
167.727228891
 40
0.5
100
AcDbArc
 50
90.0000002424
 51
180.0
  0
ARC
  5
921
100
AcDbEntity
  8
0
100
AcDbCircle
 62
7
  6
CONTINUOUS
 10
288.2506970118
 20
167.727228891
 40
0.5
100
AcDbArc
 50
0.0000002424
 51
90.0
  0
ARC
  5
922
100
AcDbEntity
  8
0
100
AcDbCircle
 62
7
  6
CONTINUOUS
 10
275.7506970118
 20
168.377228891
 40
0.5
100
AcDbArc
 50
90.0
 51
180.0
  0
ARC
  5
923
100
AcDbEntity
  8
0
100
AcDbCircle
 62
7
  6
CONTINUOUS
 10
260.4506970118
 20
177.177228891
 40
0.3
100
AcDbArc
 50
180.0
 51
270.0
  0
ARC
  5
924
100
AcDbEntity
  8
0
100
AcDbCircle
 62
7
  6
CONTINUOUS
 10
273.0506970118
 20
177.177228891
 40
0.3
100
AcDbArc
 50
270.0
 51
360.0
  0
ARC
  5
925
100
AcDbEntity
  8
0
100
AcDbCircle
 62
7
  6
CONTINUOUS
 10
260.4506970118
 20
179.077228891
 40
0.3
100
AcDbArc
 50
90.0
 51
180.0
  0
ARC
  5
926
100
AcDbEntity
  8
0
100
AcDbCircle
 62
7
  6
CONTINUOUS
 10
273.0506970118
 20
179.077228891
 40
0.3
100
AcDbArc
 50
0.0
 51
90.0
  0
ARC
  5
927
100
AcDbEntity
  8
0
100
AcDbCircle
 62
7
  6
CONTINUOUS
 10
285.522269887
 20
201.377228891
 40
2.0
100
AcDbArc
 50
45.0
 51
90.0
  0
ARC
  5
928
100
AcDbEntity
  8
0
100
AcDbCircle
 62
7
  6
CONTINUOUS
 10
270.9435902306
 20
203.377228891
 40
0.5
100
AcDbArc
 50
45.0
 51
90.0
  0
ARC
  5
929
100
AcDbEntity
  8
0
100
AcDbCircle
 62
7
  6
CONTINUOUS
 10
275.7506970118
 20
193.877228891
 40
0.5
100
AcDbArc
 50
180.0
 51
270.0
  0
ARC
  5
92A
100
AcDbEntity
  8
0
100
AcDbCircle
 62
7
  6
CONTINUOUS
 10
274.7506970118
 20
197.7701221098
 40
0.5
100
AcDbArc
 50
0.0
 51
45.0
  0
ARC
  5
92B
100
AcDbEntity
  8
0
100
AcDbCircle
 62
7
  6
CONTINUOUS
 10
271.0435902306
 20
201.477228891
 40
0.5
100
AcDbArc
 50
45.0
 51
90.0
  0
ARC
  5
92C
100
AcDbEntity
  8
0
100
AcDbCircle
 62
7
  6
CONTINUOUS
 10
268.3006970118
 20
198.327228891
 40
0.3
100
AcDbArc
 50
90.0
 51
180.0
  0
ARC
  5
92D
100
AcDbEntity
  8
0
100
AcDbCircle
 62
7
  6
CONTINUOUS
 10
271.3006970118
 20
198.327228891
 40
0.3
100
AcDbArc
 50
0.0
 51
90.0
  0
ARC
  5
92E
100
AcDbEntity
  8
0
100
AcDbCircle
 62
7
  6
CONTINUOUS
 10
268.3006970118
 20
196.677228891
 40
0.3
100
AcDbArc
 50
180.0
 51
270.0
  0
ARC
  5
92F
100
AcDbEntity
  8
0
100
AcDbCircle
 62
7
  6
CONTINUOUS
 10
271.3006970118
 20
196.677228891
 40
0.3
100
AcDbArc
 50
270.0
 51
360.0
  0
ARC
  5
930
100
AcDbEntity
  8
0
100
AcDbCircle
 62
7
  6
CONTINUOUS
 10
289.4570895255
 20
196.077228891
 40
0.2
100
AcDbArc
 50
270.0
 51
45.0
  0
ARC
  5
931
100
AcDbEntity
  8
0
100
AcDbCircle
 62
7
  6
CONTINUOUS
 10
282.1031790011
 20
196.077228891
 40
0.2
100
AcDbArc
 50
270.0
 51
45.0
  0
ARC
  5
932
100
AcDbEntity
  8
0
100
AcDbCircle
 62
7
  6
CONTINUOUS
 10
271.4178976269
 20
198.277228891
 40
0.2
100
AcDbArc
 50
90.0
 51
225.0
  0
ARC
  5
933
100
AcDbEntity
  8
0
100
AcDbCircle
 62
7
  6
CONTINUOUS
 10
278.7718081512
 20
198.277228891
 40
0.2
100
AcDbArc
 50
90.0
 51
225.0
  0
ARC
  5
934
100
AcDbEntity
  8
0
100
AcDbCircle
 62
7
  6
CONTINUOUS
 10
286.1257186756
 20
198.277228891
 40
0.2
100
AcDbArc
 50
90.0
 51
225.0
  0
ARC
  5
935
100
AcDbEntity
  8
0
100
AcDbCircle
 62
7
  6
CONTINUOUS
 10
265.6023780785
 20
197.577228891
 40
0.2
100
AcDbArc
 50
270.0
 51
45.0
  0
ARC
  5
936
100
AcDbEntity
  8
0
100
AcDbCircle
 62
7
  6
CONTINUOUS
 10
261.4467431599
 20
200.177228891
 40
0.2
100
AcDbArc
 50
90.0
 51
225.0
  0
ARC
  5
937
100
AcDbEntity
  8
0
100
AcDbCircle
 62
7
  6
CONTINUOUS
 10
290.6791241365
 20
130.877228891
 40
2.0
100
AcDbArc
 50
90.0
 51
135.0
  0
ARC
  5
938
100
AcDbEntity
  8
0
100
AcDbCircle
 62
7
  6
CONTINUOUS
 10
307.8506970118
 20
138.2056560158
 40
2.0
100
AcDbArc
 50
315.0
 51
360.0
  0
ARC
  5
939
100
AcDbEntity
  8
0
100
AcDbCircle
 62
7
  6
CONTINUOUS
 10
304.522269887
 20
134.877228891
 40
2.0
100
AcDbArc
 50
270.0
 51
315.0
  0
ARC
  5
93A
100
AcDbEntity
  8
0
100
AcDbCircle
 62
7
  6
CONTINUOUS
 10
320.857803793
 20
148.077228891
 40
0.5
100
AcDbArc
 50
225.0
 51
270.0
  0
ARC
  5
93B
100
AcDbEntity
  8
0
100
AcDbCircle
 62
7
  6
CONTINUOUS
 10
351.3506970118
 20
151.7843356722
 40
0.5
100
AcDbArc
 50
315.0
 51
360.0
  0
ARC
  5
93C
100
AcDbEntity
  8
0
100
AcDbCircle
 62
7
  6
CONTINUOUS
 10
310.3506970118
 20
152.377228891
 40
0.5
100
AcDbArc
 50
180.0
 51
270.0
  0
ARC
  5
93D
100
AcDbEntity
  8
0
100
AcDbCircle
 62
7
  6
CONTINUOUS
 10
347.6435902306
 20
148.077228891
 40
0.5
100
AcDbArc
 50
270.0
 51
315.0
  0
ARC
  5
93E
100
AcDbEntity
  8
0
100
AcDbCircle
 62
7
  6
CONTINUOUS
 10
309.3506970118
 20
137.877228891
 40
0.5
100
AcDbArc
 50
319.5785618368
 51
360.0
  0
ARC
  5
93F
100
AcDbEntity
  8
0
100
AcDbCircle
 62
7
  6
CONTINUOUS
 10
292.7506970118
 20
164.377228891
 40
0.5
100
AcDbArc
 50
270.0
 51
360.0
  0
ARC
  5
940
100
AcDbEntity
  8
0
100
AcDbCircle
 62
7
  6
CONTINUOUS
 10
302.2506970118
 20
143.5843356722
 40
0.5
100
AcDbArc
 50
315.0
 51
360.0
  0
ARC
  5
941
100
AcDbEntity
  8
0
100
AcDbCircle
 62
7
  6
CONTINUOUS
 10
298.5435902306
 20
139.877228891
 40
0.5
100
AcDbArc
 50
270.0
 51
315.0
  0
ARC
  5
942
100
AcDbEntity
  8
0
100
AcDbCircle
 62
7
  6
CONTINUOUS
 10
295.8006970118
 20
144.927228891
 40
0.3
100
AcDbArc
 50
180.0
 51
270.0
  0
ARC
  5
943
100
AcDbEntity
  8
0
100
AcDbCircle
 62
7
  6
CONTINUOUS
 10
295.8006970118
 20
146.577228891
 40
0.3
100
AcDbArc
 50
90.0
 51
180.0
  0
ARC
  5
944
100
AcDbEntity
  8
0
100
AcDbCircle
 62
7
  6
CONTINUOUS
 10
298.8006970118
 20
144.927228891
 40
0.3
100
AcDbArc
 50
270.0
 51
360.0
  0
ARC
  5
945
100
AcDbEntity
  8
0
100
AcDbCircle
 62
7
  6
CONTINUOUS
 10
298.8006970118
 20
146.577228891
 40
0.3
100
AcDbArc
 50
0.0
 51
90.0
  0
ARC
  5
946
100
AcDbEntity
  8
0
100
AcDbCircle
 62
7
  6
CONTINUOUS
 10
344.3952712973
 20
149.177228891
 40
0.2
100
AcDbArc
 50
135.0
 51
270.0
  0
ARC
  5
947
100
AcDbEntity
  8
0
100
AcDbCircle
 62
7
  6
CONTINUOUS
 10
337.0413607729
 20
149.177228891
 40
0.2
100
AcDbArc
 50
135.0
 51
270.0
  0
ARC
  5
948
100
AcDbEntity
  8
0
100
AcDbCircle
 62
7
  6
CONTINUOUS
 10
329.6874502486
 20
149.177228891
 40
0.2
100
AcDbArc
 50
135.0
 51
270.0
  0
ARC
  5
949
100
AcDbEntity
  8
0
100
AcDbCircle
 62
7
  6
CONTINUOUS
 10
322.3335397243
 20
149.177228891
 40
0.2
100
AcDbArc
 50
135.0
 51
270.0
  0
ARC
  5
94A
100
AcDbEntity
  8
0
100
AcDbCircle
 62
7
  6
CONTINUOUS
 10
325.6649105742
 20
151.377228891
 40
0.2
100
AcDbArc
 50
315.0
 51
90.0
  0
ARC
  5
94B
100
AcDbEntity
  8
0
100
AcDbCircle
 62
7
  6
CONTINUOUS
 10
333.0188210985
 20
151.377228891
 40
0.2
100
AcDbArc
 50
315.0
 51
90.0
  0
ARC
  5
94C
100
AcDbEntity
  8
0
100
AcDbCircle
 62
7
  6
CONTINUOUS
 10
340.3727316228
 20
151.377228891
 40
0.2
100
AcDbArc
 50
315.0
 51
90.0
  0
ARC
  5
94D
100
AcDbEntity
  8
0
100
AcDbCircle
 62
7
  6
CONTINUOUS
 10
347.7266421472
 20
151.377228891
 40
0.2
100
AcDbArc
 50
315.0
 51
90.0
  0
ARC
  5
94E
100
AcDbEntity
  8
0
100
AcDbCircle
 62
7
  6
CONTINUOUS
 10
293.4796291999
 20
134.477228891
 40
0.2
100
AcDbArc
 50
135.0
 51
270.0
  0
ARC
  5
94F
100
AcDbEntity
  8
0
100
AcDbCircle
 62
7
  6
CONTINUOUS
 10
300.8335397243
 20
134.477228891
 40
0.2
100
AcDbArc
 50
135.0
 51
270.0
  0
ARC
  5
950
100
AcDbEntity
  8
0
100
AcDbCircle
 62
7
  6
CONTINUOUS
 10
304.1649105742
 20
136.677228891
 40
0.2
100
AcDbArc
 50
315.0
 51
90.0
  0
ARC
  5
951
100
AcDbEntity
  8
0
100
AcDbCircle
 62
7
  6
CONTINUOUS
 10
296.8110000498
 20
136.677228891
 40
0.2
100
AcDbArc
 50
315.0
 51
90.0
  0
ARC
  5
952
100
AcDbEntity
  8
0
100
AcDbCircle
 62
7
  6
CONTINUOUS
 10
304.522269887
 20
197.877228891
 40
2.0
100
AcDbArc
 50
45.0
 51
90.0
  0
ARC
  5
953
100
AcDbEntity
  8
0
100
AcDbCircle
 62
7
  6
CONTINUOUS
 10
307.8506970118
 20
194.5488017663
 40
2.0
100
AcDbArc
 50
0.0
 51
45.0
  0
ARC
  5
954
100
AcDbEntity
  8
0
100
AcDbCircle
 62
7
  6
CONTINUOUS
 10
290.6791241365
 20
201.877228891
 40
2.0
100
AcDbArc
 50
225.0
 51
270.0
  0
ARC
  5
955
100
AcDbEntity
  8
0
100
AcDbCircle
 62
7
  6
CONTINUOUS
 10
320.857803793
 20
184.677228891
 40
0.5
100
AcDbArc
 50
90.0
 51
135.0
  0
ARC
  5
956
100
AcDbEntity
  8
0
100
AcDbCircle
 62
7
  6
CONTINUOUS
 10
351.3506970118
 20
180.9701221098
 40
0.5
100
AcDbArc
 50
0.0
 51
45.0
  0
ARC
  5
957
100
AcDbEntity
  8
0
100
AcDbCircle
 62
7
  6
CONTINUOUS
 10
310.3506970118
 20
180.377228891
 40
0.5
100
AcDbArc
 50
90.0
 51
180.0
  0
ARC
  5
958
100
AcDbEntity
  8
0
100
AcDbCircle
 62
7
  6
CONTINUOUS
 10
347.6435902306
 20
184.677228891
 40
0.5
100
AcDbArc
 50
45.0
 51
90.0
  0
ARC
  5
959
100
AcDbEntity
  8
0
100
AcDbCircle
 62
7
  6
CONTINUOUS
 10
309.3506970118
 20
194.877228891
 40
0.5
100
AcDbArc
 50
0.0
 51
40.4214381632
  0
ARC
  5
95A
100
AcDbEntity
  8
0
100
AcDbCircle
 62
7
  6
CONTINUOUS
 10
292.7506970118
 20
168.377228891
 40
0.5
100
AcDbArc
 50
0.0
 51
90.0
  0
ARC
  5
95B
100
AcDbEntity
  8
0
100
AcDbCircle
 62
7
  6
CONTINUOUS
 10
298.5435902306
 20
192.877228891
 40
0.5
100
AcDbArc
 50
45.0
 51
90.0
  0
ARC
  5
95C
100
AcDbEntity
  8
0
100
AcDbCircle
 62
7
  6
CONTINUOUS
 10
302.2506970118
 20
189.1701221098
 40
0.5
100
AcDbArc
 50
0.0
 51
45.0
  0
ARC
  5
95D
100
AcDbEntity
  8
0
100
AcDbCircle
 62
7
  6
CONTINUOUS
 10
295.8006970118
 20
187.827228891
 40
0.3
100
AcDbArc
 50
90.0
 51
180.0
  0
ARC
  5
95E
100
AcDbEntity
  8
0
100
AcDbCircle
 62
7
  6
CONTINUOUS
 10
298.8006970118
 20
187.827228891
 40
0.3
100
AcDbArc
 50
0.0
 51
90.0
  0
ARC
  5
95F
100
AcDbEntity
  8
0
100
AcDbCircle
 62
7
  6
CONTINUOUS
 10
295.8006970118
 20
186.177228891
 40
0.3
100
AcDbArc
 50
180.0
 51
270.0
  0
ARC
  5
960
100
AcDbEntity
  8
0
100
AcDbCircle
 62
7
  6
CONTINUOUS
 10
298.8006970118
 20
186.177228891
 40
0.3
100
AcDbArc
 50
270.0
 51
360.0
  0
ARC
  5
961
100
AcDbEntity
  8
0
100
AcDbCircle
 62
7
  6
CONTINUOUS
 10
333.0188210985
 20
181.377228891
 40
0.2
100
AcDbArc
 50
270.0
 51
45.0
  0
ARC
  5
962
100
AcDbEntity
  8
0
100
AcDbCircle
 62
7
  6
CONTINUOUS
 10
325.6649105742
 20
181.377228891
 40
0.2
100
AcDbArc
 50
270.0
 51
45.0
  0
ARC
  5
963
100
AcDbEntity
  8
0
100
AcDbCircle
 62
7
  6
CONTINUOUS
 10
322.3335397243
 20
183.577228891
 40
0.2
100
AcDbArc
 50
90.0
 51
225.0
  0
ARC
  5
964
100
AcDbEntity
  8
0
100
AcDbCircle
 62
7
  6
CONTINUOUS
 10
329.6874502486
 20
183.577228891
 40
0.2
100
AcDbArc
 50
90.0
 51
225.0
  0
ARC
  5
965
100
AcDbEntity
  8
0
100
AcDbCircle
 62
7
  6
CONTINUOUS
 10
337.0413607729
 20
183.577228891
 40
0.2
100
AcDbArc
 50
90.0
 51
225.0
  0
ARC
  5
966
100
AcDbEntity
  8
0
100
AcDbCircle
 62
7
  6
CONTINUOUS
 10
340.3727316228
 20
181.377228891
 40
0.2
100
AcDbArc
 50
270.0
 51
45.0
  0
ARC
  5
967
100
AcDbEntity
  8
0
100
AcDbCircle
 62
7
  6
CONTINUOUS
 10
344.3952712973
 20
183.577228891
 40
0.2
100
AcDbArc
 50
90.0
 51
225.0
  0
ARC
  5
968
100
AcDbEntity
  8
0
100
AcDbCircle
 62
7
  6
CONTINUOUS
 10
347.7266421472
 20
181.377228891
 40
0.2
100
AcDbArc
 50
270.0
 51
45.0
  0
ARC
  5
969
100
AcDbEntity
  8
0
100
AcDbCircle
 62
7
  6
CONTINUOUS
 10
304.1649105742
 20
196.077228891
 40
0.2
100
AcDbArc
 50
270.0
 51
45.0
  0
ARC
  5
96A
100
AcDbEntity
  8
0
100
AcDbCircle
 62
7
  6
CONTINUOUS
 10
296.8110000498
 20
196.077228891
 40
0.2
100
AcDbArc
 50
270.0
 51
45.0
  0
ARC
  5
96B
100
AcDbEntity
  8
0
100
AcDbCircle
 62
7
  6
CONTINUOUS
 10
293.4796291999
 20
198.277228891
 40
0.2
100
AcDbArc
 50
90.0
 51
225.0
  0
ARC
  5
96C
100
AcDbEntity
  8
0
100
AcDbCircle
 62
7
  6
CONTINUOUS
 10
300.8335397243
 20
198.277228891
 40
0.2
100
AcDbArc
 50
90.0
 51
225.0
  0
SPLINE
  5
96D
100
AcDbEntity
  8
0
100
AcDbSpline
 62
7
  6
CONTINUOUS
 70
0
 71
3
 72
13
 73
9
 74
0
 42
0.0000001
 43
0.0000001
 44
0.0000000001
 40
0.0
 40
0.0
 40
0.0
 40
0.0
 40
0.3006961262
 40
0.5863123477
 40
0.7167984143
 40
0.8334449156
 40
0.9299482173
 40
1.0
 40
1.0
 40
1.0
 40
1.0
 10
259.6506970118
 20
129.377228891
 30
0.0
 10
259.5799135485
 20
129.3212696499
 30
0.0
 10
259.4418972849
 20
129.2121900613
 30
0.0
 10
259.2710663477
 20
129.0813358951
 30
0.0
 10
259.1406208024
 20
128.9890233228
 30
0.0
 10
259.0537354195
 20
128.9329957502
 30
0.0
 10
258.9790126473
 20
128.8933869201
 30
0.0
 10
258.9300979926
 20
128.877228891
 30
0.0
 10
258.9090771631
 20
128.877228891
 30
0.0
  0
SPLINE
  5
96E
100
AcDbEntity
  8
0
100
AcDbSpline
 62
7
  6
CONTINUOUS
 70
0
 71
3
 72
13
 73
9
 74
0
 42
0.0000001
 43
0.0000001
 44
0.0000000001
 40
0.0
 40
0.0
 40
0.0
 40
0.0
 40
0.3006937438
 40
0.5863083788
 40
0.7167896021
 40
0.8334357154
 40
0.9299433848
 40
1.0
 40
1.0
 40
1.0
 40
1.0
 10
263.6506970118
 20
203.377228891
 30
0.0
 10
263.7214798995
 20
203.4331876772
 30
0.0
 10
263.8594952028
 20
203.5422664593
 30
0.0
 10
264.0303238632
 20
203.6731193175
 30
0.0
 10
264.160768163
 20
203.7654298433
 30
0.0
 10
264.2476519423
 20
203.8214597167
 30
0.0
 10
264.3223778365
 20
203.8610676508
 30
0.0
 10
264.3712945853
 20
203.877228891
 30
0.0
 10
264.3923168605
 20
203.877228891
 30
0.0
  0
SPLINE
  5
96F
100
AcDbEntity
  8
0
100
AcDbSpline
 62
7
  6
CONTINUOUS
 70
0
 71
3
 72
13
 73
9
 74
0
 42
0.0000001
 43
0.0000001
 44
0.0000000001
 40
0.0
 40
0.0
 40
0.0
 40
0.0
 40
0.0700533583
 40
0.1665619429
 40
0.2832167883
 40
0.4136937196
 40
0.6993049698
 40
1.0
 40
1.0
 40
1.0
 40
1.0
 10
264.3923168605
 20
128.877228891
 30
0.0
 10
264.3712955595
 20
128.877228891
 30
0.0
 10
264.3223793702
 20
128.8933890504
 30
0.0
 10
264.2476512255
 20
128.9329971459
 30
0.0
 10
264.1607670687
 20
128.9890294441
 30
0.0
 10
264.0303220975
 20
129.0813395596
 30
0.0
 10
263.8594951177
 20
129.2121915612
 30
0.0
 10
263.7214802129
 20
129.3212698571
 30
0.0
 10
263.6506970118
 20
129.377228891
 30
0.0
  0
SPLINE
  5
970
100
AcDbEntity
  8
0
100
AcDbSpline
 62
7
  6
CONTINUOUS
 70
0
 71
3
 72
13
 73
9
 74
0
 42
0.0000001
 43
0.0000001
 44
0.0000000001
 40
0.0
 40
0.0
 40
0.0
 40
0.0
 40
0.0700092251
 40
0.1664839266
 40
0.2830628125
 40
0.413559329
 40
0.6992128547
 40
1.0
 40
1.0
 40
1.0
 40
1.0
 10
258.9090771631
 20
203.877228891
 30
0.0
 10
258.9300852678
 20
203.877228891
 30
0.0
 10
258.9789918336
 20
203.8611202265
 30
0.0
 10
259.0536434245
 20
203.8214549808
 30
0.0
 10
259.1405471894
 20
203.7655119243
 30
0.0
 10
259.2709728548
 20
203.6731752961
 30
0.0
 10
259.4418492583
 20
203.5423153321
 30
0.0
 10
259.5798919685
 20
203.4332051927
 30
0.0
 10
259.6506970118
 20
203.377228891
 30
0.0
  0
SPLINE
  5
971
100
AcDbEntity
  8
0
100
AcDbSpline
 62
7
  6
CONTINUOUS
 70
0
 71
3
 72
21
 73
17
 74
0
 42
0.0000001
 43
0.0000001
 44
0.0000000001
 40
0.0
 40
0.0
 40
0.0
 40
0.0
 40
0.1094762137
 40
0.2215485809
 40
0.3946222892
 40
0.546405302
 40
0.6282763784
 40
0.6933573106
 40
0.7673921014
 40
0.8402903914
 40
0.8750375013
 40
0.9018120676
 40
0.9396593389
 40
0.9620002619
 40
0.991490112
 40
1.0
 40
1.0
 40
1.0
 40
1.0
 10
244.8861496626
 20
165.7084778179
 30
0.0
 10
244.8828236704
 20
165.6803215476
 30
0.0
 10
244.8749219311
 20
165.6234777323
 30
0.0
 10
244.8564141004
 20
165.5229442555
 30
0.0
 10
244.8290055059
 20
165.4130310814
 30
0.0
 10
244.7947299003
 20
165.3132656825
 30
0.0
 10
244.7637196735
 20
165.2423370505
 30
0.0
 10
244.7375544228
 20
165.1914038134
 30
0.0
 10
244.7090277603
 20
165.1444224941
 30
0.0
 10
244.6807460655
 20
165.1066784467
 30
0.0
 10
244.6571838084
 20
165.0810137727
 30
0.0
 10
244.6384979678
 20
165.0633024295
 30
0.0
 10
244.6208488714
 20
165.0492217395
 30
0.0
 10
244.6013048377
 20
165.0366465923
 30
0.0
 10
244.5873253179
 20
165.0295382691
 30
0.0
 10
244.5781784364
 20
165.0259161145
 30
0.0
 10
244.5761132549
 20
165.0251449227
 30
0.0
  0
SPLINE
  5
972
100
AcDbEntity
  8
0
100
AcDbSpline
 62
7
  6
CONTINUOUS
 70
0
 71
3
 72
10
 73
6
 74
0
 42
0.0000001
 43
0.0000001
 44
0.0000000001
 40
0.0
 40
0.0
 40
0.0
 40
0.0
 40
0.1759511072
 40
0.5735436611
 40
1.0
 40
1.0
 40
1.0
 40
1.0
 10
244.8477060849
 20
166.9713243256
 30
0.0
 10
244.8539870303
 20
166.9451343027
 30
0.0
 10
244.8724063766
 20
166.8592540828
 30
0.0
 10
244.8944701691
 20
166.7076142267
 30
0.0
 10
244.8989728079
 20
166.5815644957
 30
0.0
 10
244.9013029838
 20
166.5163320717
 30
0.0
  0
SPLINE
  5
973
100
AcDbEntity
  8
0
100
AcDbSpline
 62
7
  6
CONTINUOUS
 70
0
 71
3
 72
13
 73
9
 74
0
 42
0.0000001
 43
0.0000001
 44
0.0000000001
 40
0.0
 40
0.0
 40
0.0
 40
0.0
 40
0.2210629959
 40
0.4705451986
 40
0.6779351859
 40
0.8648026055
 40
0.9833763711
 40
1.0
 40
1.0
 40
1.0
 40
1.0
 10
244.9039697942
 20
167.2640467872
 30
0.0
 10
244.8894073123
 20
167.2962433244
 30
0.0
 10
244.8552385225
 20
167.3633328138
 30
0.0
 10
244.7936075079
 20
167.4530118299
 30
0.0
 10
244.7201868011
 20
167.5259859893
 30
0.0
 10
244.6494235375
 20
167.5692003676
 30
0.0
 10
244.5999638539
 20
167.5847003261
 30
0.0
 10
244.5787306137
 20
167.5886597385
 30
0.0
 10
244.5761132549
 20
167.5891075879
 30
0.0
  0
SPLINE
  5
974
100
AcDbEntity
  8
0
100
AcDbSpline
 62
7
  6
CONTINUOUS
 70
0
 71
3
 72
19
 73
15
 74
0
 42
0.0000001
 43
0.0000001
 44
0.0000000001
 40
0.0
 40
0.0
 40
0.0
 40
0.0
 40
0.0152089094
 40
0.0315499853
 40
0.0490825008
 40
0.0724867016
 40
0.095924093
 40
0.1222491282
 40
0.1947118107
 40
0.3026787061
 40
0.3982829702
 40
0.6149327203
 40
0.8592206106
 40
1.0
 40
1.0
 40
1.0
 40
1.0
 10
244.723870976
 20
164.943476
 30
0.0
 10
244.7271540024
 20
164.9462141174
 30
0.0
 10
244.7339644469
 20
164.9518941806
 30
0.0
 10
244.744213411
 20
164.9611332974
 30
0.0
 10
244.7558583098
 20
164.9722520824
 30
0.0
 10
244.7684894086
 20
164.9852138181
 30
0.0
 10
244.7822822493
 20
165.0004728776
 30
0.0
 10
244.804354579
 20
165.0268065284
 30
0.0
 10
244.8386034362
 20
165.073860538
 30
0.0
 10
244.8777452232
 20
165.1410289756
 30
0.0
 10
244.9280359048
 20
165.2479969497
 30
0.0
 10
244.9790404738
 20
165.3963825153
 30
0.0
 10
245.015309962
 20
165.5619114253
 30
0.0
 10
245.0301268852
 20
165.6691541081
 30
0.0
 10
245.0345877606
 20
165.7084778179
 30
0.0
  0
SPLINE
  5
975
100
AcDbEntity
  8
0
100
AcDbSpline
 62
7
  6
CONTINUOUS
 70
0
 71
3
 72
10
 73
6
 74
0
 42
0.0000001
 43
0.0000001
 44
0.0000000001
 40
0.0
 40
0.0
 40
0.0
 40
0.0
 40
0.2167820304
 40
0.7187348236
 40
1.0
 40
1.0
 40
1.0
 40
1.0
 10
245.0492032279
 20
166.5163320717
 30
0.0
 10
245.0483722236
 20
166.5494510348
 30
0.0
 10
245.0456170518
 20
166.6592560409
 30
0.0
 10
245.0297996615
 20
166.8115990646
 30
0.0
 10
245.0079141864
 20
166.9293445703
 30
0.0
 10
244.9986227129
 20
166.9713243256
 30
0.0
  0
SPLINE
  5
976
100
AcDbEntity
  8
0
100
AcDbSpline
 62
7
  6
CONTINUOUS
 70
0
 71
3
 72
13
 73
9
 74
0
 42
0.0000001
 43
0.0000001
 44
0.0000000001
 40
0.0
 40
0.0
 40
0.0
 40
0.0
 40
0.0254484244
 40
0.1233485921
 40
0.210149271
 40
0.4198822465
 40
0.6418027242
 40
1.0
 40
1.0
 40
1.0
 40
1.0
 10
244.5761132549
 20
167.4365894656
 30
0.0
 10
244.5780414328
 20
167.4358660335
 30
0.0
 10
244.5873194493
 20
167.4322061178
 30
0.0
 10
244.6025263796
 20
167.4244723476
 30
0.0
 10
244.6291870329
 20
167.4068868375
 30
0.0
 10
244.6605469917
 20
167.3786745549
 30
0.0
 10
244.7014566251
 20
167.3294367722
 30
0.0
 10
244.7263701799
 20
167.2895004112
 30
0.0
 10
244.7403166287
 20
167.2640467872
 30
0.0
  0
ELLIPSE
  5
977
100
AcDbEntity
  8
0
100
AcDbEllipse
 62
7
  6
CONTINUOUS
 10
121.0609907383
 20
190.5624906911
 30
0.0
 11
0.0
 21
0.5107354447
 31
0.0
 40
0.9789804197
 41
-1.5707963268
 42
-1.0235345958
  0
ELLIPSE
  5
978
100
AcDbEntity
  8
0
100
AcDbEllipse
 62
7
  6
CONTINUOUS
 10
121.2331260424
 20
192.977228891
 30
0.0
 11
0.7990778141
 21
0.0
 31
0.0
 40
0.6257212892
 41
-1.5707963268
 42
-1.1953234196
  0
ELLIPSE
  5
979
100
AcDbEntity
  8
0
100
AcDbEllipse
 62
7
  6
CONTINUOUS
 10
120.8489023449
 20
192.977228891
 30
0.0
 11
0.5576574145
 21
0.1346974023
 31
0.0
 40
0.863460072
 41
-1.2962991434
 42
-1.0475416914
  0
ELLIPSE
  5
97A
100
AcDbEntity
  8
0
100
AcDbEllipse
 62
7
  6
CONTINUOUS
 10
120.8489023449
 20
190.777228891
 30
0.0
 11
0.5576574145
 21
-0.1346974023
 31
0.0
 40
0.863460072
 41
1.0475416914
 42
1.2962991434
  0
ELLIPSE
  5
97B
100
AcDbEntity
  8
0
100
AcDbEllipse
 62
7
  6
CONTINUOUS
 10
121.0609907383
 20
190.9493641951
 30
0.0
 11
-0.0
 21
0.7990778141
 31
0.0
 40
0.6257212892
 41
-1.5707963268
 42
-1.1953234196
  0
ELLIPSE
  5
97C
100
AcDbEntity
  8
0
100
AcDbEllipse
 62
7
  6
CONTINUOUS
 10
121.0609907383
 20
190.5651404976
 30
0.0
 11
-0.1346974023
 21
0.5576574145
 31
0.0
 40
0.863460072
 41
-1.2962991434
 42
-1.0475416914
  0
ELLIPSE
  5
97D
100
AcDbEntity
  8
0
100
AcDbEllipse
 62
7
  6
CONTINUOUS
 10
123.0888554342
 20
190.777228891
 30
0.0
 11
0.7990778141
 21
-0.0
 31
0.0
 40
0.6257212892
 41
1.5707963268
 42
1.946269234
  0
ELLIPSE
  5
97E
100
AcDbEntity
  8
0
100
AcDbEllipse
 62
7
  6
CONTINUOUS
 10
123.4730791317
 20
190.777228891
 30
0.0
 11
0.5576574145
 21
0.1346974023
 31
0.0
 40
0.863460072
 41
1.8452935101
 42
2.0940509622
  0
ELLIPSE
  5
97F
100
AcDbEntity
  8
0
100
AcDbEllipse
 62
7
  6
CONTINUOUS
 10
123.0888554342
 20
192.977228891
 30
0.0
 11
0.7990778141
 21
0.0
 31
0.0
 40
0.6257212892
 41
-1.946269234
 42
-1.5707963268
  0
ELLIPSE
  5
980
100
AcDbEntity
  8
0
100
AcDbEllipse
 62
7
  6
CONTINUOUS
 10
121.2331260424
 20
190.777228891
 30
0.0
 11
0.7990778141
 21
0.0
 31
0.0
 40
0.6257212892
 41
1.1953234196
 42
1.5707963268
  0
ELLIPSE
  5
981
100
AcDbEntity
  8
0
100
AcDbEllipse
 62
7
  6
CONTINUOUS
 10
123.2609907383
 20
190.5651404976
 30
0.0
 11
0.1346974023
 21
0.5576574145
 31
0.0
 40
0.863460072
 41
1.0475416914
 42
1.2962991434
  0
ELLIPSE
  5
982
100
AcDbEntity
  8
0
100
AcDbEllipse
 62
7
  6
CONTINUOUS
 10
123.2609907383
 20
192.8050935869
 30
0.0
 11
-0.0
 21
0.7990778141
 31
0.0
 40
0.6257212892
 41
-4.7123889804
 42
-4.3369160731
  0
ELLIPSE
  5
983
100
AcDbEntity
  8
0
100
AcDbEllipse
 62
7
  6
CONTINUOUS
 10
123.2609907383
 20
193.1893172844
 30
0.0
 11
-0.1346974023
 21
0.5576574145
 31
0.0
 40
0.863460072
 41
-4.437891797
 42
-4.189134345
  0
ELLIPSE
  5
984
100
AcDbEntity
  8
0
100
AcDbEllipse
 62
7
  6
CONTINUOUS
 10
123.4730791317
 20
192.977228891
 30
0.0
 11
0.5576574145
 21
-0.1346974023
 31
0.0
 40
0.863460072
 41
-2.0940509622
 42
-1.8452935101
  0
ELLIPSE
  5
985
100
AcDbEntity
  8
0
100
AcDbEllipse
 62
7
  6
CONTINUOUS
 10
123.4757289382
 20
192.977228891
 30
0.0
 11
0.5107354447
 21
-0.0
 31
0.0
 40
0.9789804197
 41
-2.1180580578
 42
-1.5707963268
  0
ELLIPSE
  5
986
100
AcDbEntity
  8
0
100
AcDbEllipse
 62
7
  6
CONTINUOUS
 10
123.2609907383
 20
193.1919670909
 30
0.0
 11
0.0
 21
-0.5107354447
 31
0.0
 40
0.9789804197
 41
-1.5707963268
 42
-1.0235345958
  0
ELLIPSE
  5
987
100
AcDbEntity
  8
0
100
AcDbEllipse
 62
7
  6
CONTINUOUS
 10
121.0609907383
 20
193.1919670909
 30
0.0
 11
0.0
 21
0.5107354447
 31
0.0
 40
0.9789804197
 41
-2.1180580578
 42
-1.5707963268
  0
ELLIPSE
  5
988
100
AcDbEntity
  8
0
100
AcDbEllipse
 62
7
  6
CONTINUOUS
 10
123.2609907383
 20
190.5624906911
 30
0.0
 11
0.0
 21
-0.5107354447
 31
0.0
 40
0.9789804197
 41
-2.1180580578
 42
-1.5707963268
  0
ELLIPSE
  5
989
100
AcDbEntity
  8
0
100
AcDbEllipse
 62
7
  6
CONTINUOUS
 10
123.4757289382
 20
190.777228891
 30
0.0
 11
-0.5107354447
 21
0.0
 31
0.0
 40
0.9789804197
 41
-1.5707963268
 42
-1.0235345958
  0
ELLIPSE
  5
98A
100
AcDbEntity
  8
0
100
AcDbEllipse
 62
7
  6
CONTINUOUS
 10
120.8462525384
 20
190.777228891
 30
0.0
 11
-0.5107354447
 21
-0.0
 31
0.0
 40
0.9789804197
 41
-2.1180580578
 42
-1.5707963268
  0
ELLIPSE
  5
98B
100
AcDbEntity
  8
0
100
AcDbEllipse
 62
7
  6
CONTINUOUS
 10
120.8462525384
 20
192.977228891
 30
0.0
 11
0.5107354447
 21
0.0
 31
0.0
 40
0.9789804197
 41
-1.5707963268
 42
-1.0235345958
  0
ELLIPSE
  5
98C
100
AcDbEntity
  8
0
100
AcDbEllipse
 62
7
  6
CONTINUOUS
 10
121.0609907383
 20
193.1893172844
 30
0.0
 11
0.1346974023
 21
0.5576574145
 31
0.0
 40
0.863460072
 41
-2.0940509622
 42
-1.8452935101
  0
ELLIPSE
  5
98D
100
AcDbEntity
  8
0
100
AcDbEllipse
 62
7
  6
CONTINUOUS
 10
123.2609907383
 20
190.9493641951
 30
0.0
 11
0.0
 21
0.7990778141
 31
0.0
 40
0.6257212892
 41
1.1953234196
 42
1.5707963268
  0
ELLIPSE
  5
98E
100
AcDbEntity
  8
0
100
AcDbEllipse
 62
7
  6
CONTINUOUS
 10
121.0609907383
 20
192.8050935869
 30
0.0
 11
0.0
 21
0.7990778141
 31
0.0
 40
0.6257212892
 41
-1.946269234
 42
-1.5707963268
  0
ELLIPSE
  5
98F
100
AcDbEntity
  8
0
100
AcDbEllipse
 62
7
  6
CONTINUOUS
 10
123.2609907383
 20
142.1919670909
 30
0.0
 11
0.0
 21
-0.5107354447
 31
0.0
 40
0.9789804197
 41
-1.5707963268
 42
-1.0235345958
  0
ELLIPSE
  5
990
100
AcDbEntity
  8
0
100
AcDbEllipse
 62
7
  6
CONTINUOUS
 10
123.0888554342
 20
139.777228891
 30
0.0
 11
0.7990778141
 21
-0.0
 31
0.0
 40
0.6257212892
 41
1.5707963268
 42
1.946269234
  0
ELLIPSE
  5
991
100
AcDbEntity
  8
0
100
AcDbEllipse
 62
7
  6
CONTINUOUS
 10
123.4730791317
 20
139.777228891
 30
0.0
 11
0.5576574145
 21
0.1346974023
 31
0.0
 40
0.863460072
 41
1.8452935101
 42
2.0940509622
  0
ELLIPSE
  5
992
100
AcDbEntity
  8
0
100
AcDbEllipse
 62
7
  6
CONTINUOUS
 10
123.4730791317
 20
141.977228891
 30
0.0
 11
0.5576574145
 21
-0.1346974023
 31
0.0
 40
0.863460072
 41
-2.0940509622
 42
-1.8452935101
  0
ELLIPSE
  5
993
100
AcDbEntity
  8
0
100
AcDbEllipse
 62
7
  6
CONTINUOUS
 10
123.2609907383
 20
141.8050935869
 30
0.0
 11
0.0
 21
0.7990778141
 31
0.0
 40
0.6257212892
 41
-4.7123889804
 42
-4.3369160731
  0
ELLIPSE
  5
994
100
AcDbEntity
  8
0
100
AcDbEllipse
 62
7
  6
CONTINUOUS
 10
123.2609907383
 20
142.1893172844
 30
0.0
 11
-0.1346974023
 21
0.5576574145
 31
0.0
 40
0.863460072
 41
-4.437891797
 42
-4.189134345
  0
ELLIPSE
  5
995
100
AcDbEntity
  8
0
100
AcDbEllipse
 62
7
  6
CONTINUOUS
 10
121.2331260424
 20
141.977228891
 30
0.0
 11
0.7990778141
 21
0.0
 31
0.0
 40
0.6257212892
 41
-1.5707963268
 42
-1.1953234196
  0
ELLIPSE
  5
996
100
AcDbEntity
  8
0
100
AcDbEllipse
 62
7
  6
CONTINUOUS
 10
120.8489023449
 20
141.977228891
 30
0.0
 11
0.5576574145
 21
0.1346974023
 31
0.0
 40
0.863460072
 41
-1.2962991434
 42
-1.0475416914
  0
ELLIPSE
  5
997
100
AcDbEntity
  8
0
100
AcDbEllipse
 62
7
  6
CONTINUOUS
 10
121.2331260424
 20
139.777228891
 30
0.0
 11
0.7990778141
 21
-0.0
 31
0.0
 40
0.6257212892
 41
1.1953234196
 42
1.5707963268
  0
ELLIPSE
  5
998
100
AcDbEntity
  8
0
100
AcDbEllipse
 62
7
  6
CONTINUOUS
 10
123.0888554342
 20
141.977228891
 30
0.0
 11
0.7990778141
 21
0.0
 31
0.0
 40
0.6257212892
 41
-1.946269234
 42
-1.5707963268
  0
ELLIPSE
  5
999
100
AcDbEntity
  8
0
100
AcDbEllipse
 62
7
  6
CONTINUOUS
 10
121.0609907383
 20
142.1893172844
 30
0.0
 11
0.1346974023
 21
0.5576574145
 31
0.0
 40
0.863460072
 41
-2.0940509622
 42
-1.8452935101
  0
ELLIPSE
  5
99A
100
AcDbEntity
  8
0
100
AcDbEllipse
 62
7
  6
CONTINUOUS
 10
121.0609907383
 20
139.9493641951
 30
0.0
 11
0.0
 21
0.7990778141
 31
0.0
 40
0.6257212892
 41
-1.5707963268
 42
-1.1953234196
  0
ELLIPSE
  5
99B
100
AcDbEntity
  8
0
100
AcDbEllipse
 62
7
  6
CONTINUOUS
 10
121.0609907383
 20
139.5651404976
 30
0.0
 11
-0.1346974023
 21
0.5576574145
 31
0.0
 40
0.863460072
 41
-1.2962991434
 42
-1.0475416914
  0
ELLIPSE
  5
99C
100
AcDbEntity
  8
0
100
AcDbEllipse
 62
7
  6
CONTINUOUS
 10
120.8489023449
 20
139.777228891
 30
0.0
 11
0.5576574145
 21
-0.1346974023
 31
0.0
 40
0.863460072
 41
1.0475416914
 42
1.2962991434
  0
ELLIPSE
  5
99D
100
AcDbEntity
  8
0
100
AcDbEllipse
 62
7
  6
CONTINUOUS
 10
120.8462525384
 20
139.777228891
 30
0.0
 11
-0.5107354447
 21
0.0
 31
0.0
 40
0.9789804197
 41
-2.1180580578
 42
-1.5707963268
  0
ELLIPSE
  5
99E
100
AcDbEntity
  8
0
100
AcDbEllipse
 62
7
  6
CONTINUOUS
 10
121.0609907383
 20
139.5624906911
 30
0.0
 11
0.0
 21
0.5107354447
 31
0.0
 40
0.9789804197
 41
-1.5707963268
 42
-1.0235345958
  0
ELLIPSE
  5
99F
100
AcDbEntity
  8
0
100
AcDbEllipse
 62
7
  6
CONTINUOUS
 10
123.2609907383
 20
139.5624906911
 30
0.0
 11
0.0
 21
-0.5107354447
 31
0.0
 40
0.9789804197
 41
-2.1180580578
 42
-1.5707963268
  0
ELLIPSE
  5
9A0
100
AcDbEntity
  8
0
100
AcDbEllipse
 62
7
  6
CONTINUOUS
 10
121.0609907383
 20
142.1919670909
 30
0.0
 11
0.0
 21
0.5107354447
 31
0.0
 40
0.9789804197
 41
-2.1180580578
 42
-1.5707963268
  0
ELLIPSE
  5
9A1
100
AcDbEntity
  8
0
100
AcDbEllipse
 62
7
  6
CONTINUOUS
 10
120.8462525384
 20
141.977228891
 30
0.0
 11
0.5107354447
 21
-0.0
 31
0.0
 40
0.9789804197
 41
-1.5707963268
 42
-1.0235345958
  0
ELLIPSE
  5
9A2
100
AcDbEntity
  8
0
100
AcDbEllipse
 62
7
  6
CONTINUOUS
 10
123.4757289382
 20
141.977228891
 30
0.0
 11
0.5107354447
 21
0.0
 31
0.0
 40
0.9789804197
 41
-2.1180580578
 42
-1.5707963268
  0
ELLIPSE
  5
9A3
100
AcDbEntity
  8
0
100
AcDbEllipse
 62
7
  6
CONTINUOUS
 10
123.4757289382
 20
139.777228891
 30
0.0
 11
-0.5107354447
 21
-0.0
 31
0.0
 40
0.9789804197
 41
-1.5707963268
 42
-1.0235345958
  0
ELLIPSE
  5
9A4
100
AcDbEntity
  8
0
100
AcDbEllipse
 62
7
  6
CONTINUOUS
 10
123.2609907383
 20
139.5651404976
 30
0.0
 11
0.1346974023
 21
0.5576574145
 31
0.0
 40
0.863460072
 41
1.0475416914
 42
1.2962991434
  0
ELLIPSE
  5
9A5
100
AcDbEntity
  8
0
100
AcDbEllipse
 62
7
  6
CONTINUOUS
 10
121.0609907383
 20
141.8050935869
 30
0.0
 11
0.0
 21
0.7990778141
 31
0.0
 40
0.6257212892
 41
-1.946269234
 42
-1.5707963268
  0
ELLIPSE
  5
9A6
100
AcDbEntity
  8
0
100
AcDbEllipse
 62
7
  6
CONTINUOUS
 10
123.2609907383
 20
139.9493641951
 30
0.0
 11
0.0
 21
0.7990778141
 31
0.0
 40
0.6257212892
 41
1.1953234196
 42
1.5707963268
  0
ELLIPSE
  5
9A7
100
AcDbEntity
  8
0
100
AcDbEllipse
 62
7
  6
CONTINUOUS
 10
123.2609907383
 20
182.6919670909
 30
0.0
 11
0.0
 21
-0.5107354447
 31
0.0
 40
0.9789804197
 41
-1.5707963268
 42
-1.0235345958
  0
ELLIPSE
  5
9A8
100
AcDbEntity
  8
0
100
AcDbEllipse
 62
7
  6
CONTINUOUS
 10
123.0888554342
 20
180.277228891
 30
0.0
 11
0.7990778141
 21
0.0
 31
0.0
 40
0.6257212892
 41
1.5707963268
 42
1.946269234
  0
ELLIPSE
  5
9A9
100
AcDbEntity
  8
0
100
AcDbEllipse
 62
7
  6
CONTINUOUS
 10
123.4730791317
 20
180.277228891
 30
0.0
 11
0.5576574145
 21
0.1346974023
 31
0.0
 40
0.863460072
 41
1.8452935101
 42
2.0940509622
  0
ELLIPSE
  5
9AA
100
AcDbEntity
  8
0
100
AcDbEllipse
 62
7
  6
CONTINUOUS
 10
123.4730791317
 20
182.477228891
 30
0.0
 11
0.5576574145
 21
-0.1346974023
 31
0.0
 40
0.863460072
 41
-2.0940509622
 42
-1.8452935101
  0
ELLIPSE
  5
9AB
100
AcDbEntity
  8
0
100
AcDbEllipse
 62
7
  6
CONTINUOUS
 10
123.2609907383
 20
182.3050935869
 30
0.0
 11
0.0
 21
0.7990778141
 31
0.0
 40
0.6257212892
 41
-4.7123889804
 42
-4.3369160731
  0
ELLIPSE
  5
9AC
100
AcDbEntity
  8
0
100
AcDbEllipse
 62
7
  6
CONTINUOUS
 10
123.2609907383
 20
182.6893172844
 30
0.0
 11
-0.1346974023
 21
0.5576574145
 31
0.0
 40
0.863460072
 41
-4.437891797
 42
-4.189134345
  0
ELLIPSE
  5
9AD
100
AcDbEntity
  8
0
100
AcDbEllipse
 62
7
  6
CONTINUOUS
 10
121.2331260424
 20
182.477228891
 30
0.0
 11
0.7990778141
 21
0.0
 31
0.0
 40
0.6257212892
 41
-1.5707963268
 42
-1.1953234196
  0
ELLIPSE
  5
9AE
100
AcDbEntity
  8
0
100
AcDbEllipse
 62
7
  6
CONTINUOUS
 10
120.8489023449
 20
182.477228891
 30
0.0
 11
0.5576574145
 21
0.1346974023
 31
0.0
 40
0.863460072
 41
-1.2962991434
 42
-1.0475416914
  0
ELLIPSE
  5
9AF
100
AcDbEntity
  8
0
100
AcDbEllipse
 62
7
  6
CONTINUOUS
 10
121.2331260424
 20
180.277228891
 30
0.0
 11
0.7990778141
 21
0.0
 31
0.0
 40
0.6257212892
 41
1.1953234196
 42
1.5707963268
  0
ELLIPSE
  5
9B0
100
AcDbEntity
  8
0
100
AcDbEllipse
 62
7
  6
CONTINUOUS
 10
123.0888554342
 20
182.477228891
 30
0.0
 11
0.7990778141
 21
-0.0
 31
0.0
 40
0.6257212892
 41
-1.946269234
 42
-1.5707963268
  0
ELLIPSE
  5
9B1
100
AcDbEntity
  8
0
100
AcDbEllipse
 62
7
  6
CONTINUOUS
 10
121.0609907383
 20
182.6893172844
 30
0.0
 11
0.1346974023
 21
0.5576574145
 31
0.0
 40
0.863460072
 41
-2.0940509622
 42
-1.8452935101
  0
ELLIPSE
  5
9B2
100
AcDbEntity
  8
0
100
AcDbEllipse
 62
7
  6
CONTINUOUS
 10
121.0609907383
 20
180.4493641951
 30
0.0
 11
-0.0
 21
0.7990778141
 31
0.0
 40
0.6257212892
 41
-1.5707963268
 42
-1.1953234196
  0
ELLIPSE
  5
9B3
100
AcDbEntity
  8
0
100
AcDbEllipse
 62
7
  6
CONTINUOUS
 10
121.0609907383
 20
180.0651404976
 30
0.0
 11
-0.1346974023
 21
0.5576574145
 31
0.0
 40
0.863460072
 41
-1.2962991434
 42
-1.0475416914
  0
ELLIPSE
  5
9B4
100
AcDbEntity
  8
0
100
AcDbEllipse
 62
7
  6
CONTINUOUS
 10
120.8489023449
 20
180.277228891
 30
0.0
 11
0.5576574145
 21
-0.1346974023
 31
0.0
 40
0.863460072
 41
1.0475416914
 42
1.2962991434
  0
ELLIPSE
  5
9B5
100
AcDbEntity
  8
0
100
AcDbEllipse
 62
7
  6
CONTINUOUS
 10
120.8462525384
 20
180.277228891
 30
0.0
 11
-0.5107354447
 21
0.0
 31
0.0
 40
0.9789804197
 41
-2.1180580578
 42
-1.5707963268
  0
ELLIPSE
  5
9B6
100
AcDbEntity
  8
0
100
AcDbEllipse
 62
7
  6
CONTINUOUS
 10
121.0609907383
 20
180.0624906911
 30
0.0
 11
0.0
 21
0.5107354447
 31
0.0
 40
0.9789804197
 41
-1.5707963268
 42
-1.0235345958
  0
ELLIPSE
  5
9B7
100
AcDbEntity
  8
0
100
AcDbEllipse
 62
7
  6
CONTINUOUS
 10
123.2609907383
 20
180.0624906911
 30
0.0
 11
0.0
 21
-0.5107354447
 31
0.0
 40
0.9789804197
 41
-2.1180580578
 42
-1.5707963268
  0
ELLIPSE
  5
9B8
100
AcDbEntity
  8
0
100
AcDbEllipse
 62
7
  6
CONTINUOUS
 10
121.0609907383
 20
182.6919670909
 30
0.0
 11
0.0
 21
0.5107354447
 31
0.0
 40
0.9789804197
 41
-2.1180580578
 42
-1.5707963268
  0
ELLIPSE
  5
9B9
100
AcDbEntity
  8
0
100
AcDbEllipse
 62
7
  6
CONTINUOUS
 10
120.8462525384
 20
182.477228891
 30
0.0
 11
0.5107354447
 21
-0.0
 31
0.0
 40
0.9789804197
 41
-1.5707963268
 42
-1.0235345958
  0
ELLIPSE
  5
9BA
100
AcDbEntity
  8
0
100
AcDbEllipse
 62
7
  6
CONTINUOUS
 10
123.4757289382
 20
182.477228891
 30
0.0
 11
0.5107354447
 21
0.0
 31
0.0
 40
0.9789804197
 41
-2.1180580578
 42
-1.5707963268
  0
ELLIPSE
  5
9BB
100
AcDbEntity
  8
0
100
AcDbEllipse
 62
7
  6
CONTINUOUS
 10
123.4757289382
 20
180.277228891
 30
0.0
 11
-0.5107354447
 21
-0.0
 31
0.0
 40
0.9789804197
 41
-1.5707963268
 42
-1.0235345958
  0
ELLIPSE
  5
9BC
100
AcDbEntity
  8
0
100
AcDbEllipse
 62
7
  6
CONTINUOUS
 10
123.2609907383
 20
180.0651404976
 30
0.0
 11
0.1346974023
 21
0.5576574145
 31
0.0
 40
0.863460072
 41
1.0475416914
 42
1.2962991434
  0
ELLIPSE
  5
9BD
100
AcDbEntity
  8
0
100
AcDbEllipse
 62
7
  6
CONTINUOUS
 10
121.0609907383
 20
182.3050935869
 30
0.0
 11
-0.0
 21
0.7990778141
 31
0.0
 40
0.6257212892
 41
-1.946269234
 42
-1.5707963268
  0
ELLIPSE
  5
9BE
100
AcDbEntity
  8
0
100
AcDbEllipse
 62
7
  6
CONTINUOUS
 10
123.2609907383
 20
180.4493641951
 30
0.0
 11
-0.0
 21
0.7990778141
 31
0.0
 40
0.6257212892
 41
1.1953234196
 42
1.5707963268
  0
ELLIPSE
  5
9BF
100
AcDbEntity
  8
0
100
AcDbEllipse
 62
7
  6
CONTINUOUS
 10
121.0609907383
 20
150.0624906911
 30
0.0
 11
0.0
 21
0.5107354447
 31
0.0
 40
0.9789804197
 41
-1.5707963268
 42
-1.0235345958
  0
ELLIPSE
  5
9C0
100
AcDbEntity
  8
0
100
AcDbEllipse
 62
7
  6
CONTINUOUS
 10
121.2331260424
 20
152.477228891
 30
0.0
 11
0.7990778141
 21
0.0
 31
0.0
 40
0.6257212892
 41
-1.5707963268
 42
-1.1953234196
  0
ELLIPSE
  5
9C1
100
AcDbEntity
  8
0
100
AcDbEllipse
 62
7
  6
CONTINUOUS
 10
120.8489023449
 20
152.477228891
 30
0.0
 11
0.5576574145
 21
0.1346974023
 31
0.0
 40
0.863460072
 41
-1.2962991434
 42
-1.0475416914
  0
ELLIPSE
  5
9C2
100
AcDbEntity
  8
0
100
AcDbEllipse
 62
7
  6
CONTINUOUS
 10
120.8489023449
 20
150.277228891
 30
0.0
 11
0.5576574145
 21
-0.1346974023
 31
0.0
 40
0.863460072
 41
1.0475416914
 42
1.2962991434
  0
ELLIPSE
  5
9C3
100
AcDbEntity
  8
0
100
AcDbEllipse
 62
7
  6
CONTINUOUS
 10
121.0609907383
 20
150.4493641951
 30
0.0
 11
0.0
 21
0.7990778141
 31
0.0
 40
0.6257212892
 41
-1.5707963268
 42
-1.1953234196
  0
ELLIPSE
  5
9C4
100
AcDbEntity
  8
0
100
AcDbEllipse
 62
7
  6
CONTINUOUS
 10
121.0609907383
 20
150.0651404976
 30
0.0
 11
-0.1346974023
 21
0.5576574145
 31
0.0
 40
0.863460072
 41
-1.2962991434
 42
-1.0475416914
  0
ELLIPSE
  5
9C5
100
AcDbEntity
  8
0
100
AcDbEllipse
 62
7
  6
CONTINUOUS
 10
123.0888554342
 20
150.277228891
 30
0.0
 11
0.7990778141
 21
-0.0
 31
0.0
 40
0.6257212892
 41
1.5707963268
 42
1.946269234
  0
ELLIPSE
  5
9C6
100
AcDbEntity
  8
0
100
AcDbEllipse
 62
7
  6
CONTINUOUS
 10
123.4730791317
 20
150.277228891
 30
0.0
 11
0.5576574145
 21
0.1346974023
 31
0.0
 40
0.863460072
 41
1.8452935101
 42
2.0940509622
  0
ELLIPSE
  5
9C7
100
AcDbEntity
  8
0
100
AcDbEllipse
 62
7
  6
CONTINUOUS
 10
123.0888554342
 20
152.477228891
 30
0.0
 11
0.7990778141
 21
-0.0
 31
0.0
 40
0.6257212892
 41
-1.946269234
 42
-1.5707963268
  0
ELLIPSE
  5
9C8
100
AcDbEntity
  8
0
100
AcDbEllipse
 62
7
  6
CONTINUOUS
 10
121.2331260424
 20
150.277228891
 30
0.0
 11
0.7990778141
 21
-0.0
 31
0.0
 40
0.6257212892
 41
1.1953234196
 42
1.5707963268
  0
ELLIPSE
  5
9C9
100
AcDbEntity
  8
0
100
AcDbEllipse
 62
7
  6
CONTINUOUS
 10
123.2609907383
 20
150.0651404976
 30
0.0
 11
0.1346974023
 21
0.5576574145
 31
0.0
 40
0.863460072
 41
1.0475416914
 42
1.2962991434
  0
ELLIPSE
  5
9CA
100
AcDbEntity
  8
0
100
AcDbEllipse
 62
7
  6
CONTINUOUS
 10
123.2609907383
 20
152.3050935869
 30
0.0
 11
-0.0
 21
0.7990778141
 31
0.0
 40
0.6257212892
 41
-4.7123889804
 42
-4.3369160731
  0
ELLIPSE
  5
9CB
100
AcDbEntity
  8
0
100
AcDbEllipse
 62
7
  6
CONTINUOUS
 10
123.2609907383
 20
152.6893172844
 30
0.0
 11
-0.1346974023
 21
0.5576574145
 31
0.0
 40
0.863460072
 41
-4.437891797
 42
-4.189134345
  0
ELLIPSE
  5
9CC
100
AcDbEntity
  8
0
100
AcDbEllipse
 62
7
  6
CONTINUOUS
 10
123.4730791317
 20
152.477228891
 30
0.0
 11
0.5576574145
 21
-0.1346974023
 31
0.0
 40
0.863460072
 41
-2.0940509622
 42
-1.8452935101
  0
ELLIPSE
  5
9CD
100
AcDbEntity
  8
0
100
AcDbEllipse
 62
7
  6
CONTINUOUS
 10
123.4757289382
 20
152.477228891
 30
0.0
 11
0.5107354447
 21
-0.0
 31
0.0
 40
0.9789804197
 41
-2.1180580578
 42
-1.5707963268
  0
ELLIPSE
  5
9CE
100
AcDbEntity
  8
0
100
AcDbEllipse
 62
7
  6
CONTINUOUS
 10
123.2609907383
 20
152.6919670909
 30
0.0
 11
0.0
 21
-0.5107354447
 31
0.0
 40
0.9789804197
 41
-1.5707963268
 42
-1.0235345958
  0
ELLIPSE
  5
9CF
100
AcDbEntity
  8
0
100
AcDbEllipse
 62
7
  6
CONTINUOUS
 10
121.0609907383
 20
152.6919670909
 30
0.0
 11
0.0
 21
0.5107354447
 31
0.0
 40
0.9789804197
 41
-2.1180580578
 42
-1.5707963268
  0
ELLIPSE
  5
9D0
100
AcDbEntity
  8
0
100
AcDbEllipse
 62
7
  6
CONTINUOUS
 10
123.2609907383
 20
150.0624906911
 30
0.0
 11
0.0
 21
-0.5107354447
 31
0.0
 40
0.9789804197
 41
-2.1180580578
 42
-1.5707963268
  0
ELLIPSE
  5
9D1
100
AcDbEntity
  8
0
100
AcDbEllipse
 62
7
  6
CONTINUOUS
 10
123.4757289382
 20
150.277228891
 30
0.0
 11
-0.5107354447
 21
0.0
 31
0.0
 40
0.9789804197
 41
-1.5707963268
 42
-1.0235345958
  0
ELLIPSE
  5
9D2
100
AcDbEntity
  8
0
100
AcDbEllipse
 62
7
  6
CONTINUOUS
 10
120.8462525384
 20
150.277228891
 30
0.0
 11
-0.5107354447
 21
-0.0
 31
0.0
 40
0.9789804197
 41
-2.1180580578
 42
-1.5707963268
  0
ELLIPSE
  5
9D3
100
AcDbEntity
  8
0
100
AcDbEllipse
 62
7
  6
CONTINUOUS
 10
120.8462525384
 20
152.477228891
 30
0.0
 11
0.5107354447
 21
0.0
 31
0.0
 40
0.9789804197
 41
-1.5707963268
 42
-1.0235345958
  0
ELLIPSE
  5
9D4
100
AcDbEntity
  8
0
100
AcDbEllipse
 62
7
  6
CONTINUOUS
 10
121.0609907383
 20
152.6893172844
 30
0.0
 11
0.1346974023
 21
0.5576574145
 31
0.0
 40
0.863460072
 41
-2.0940509622
 42
-1.8452935101
  0
ELLIPSE
  5
9D5
100
AcDbEntity
  8
0
100
AcDbEllipse
 62
7
  6
CONTINUOUS
 10
123.2609907383
 20
150.4493641951
 30
0.0
 11
0.0
 21
0.7990778141
 31
0.0
 40
0.6257212892
 41
1.1953234196
 42
1.5707963268
  0
ELLIPSE
  5
9D6
100
AcDbEntity
  8
0
100
AcDbEllipse
 62
7
  6
CONTINUOUS
 10
121.0609907383
 20
152.3050935869
 30
0.0
 11
-0.0
 21
0.7990778141
 31
0.0
 40
0.6257212892
 41
-1.946269234
 42
-1.5707963268
  0
ELLIPSE
  5
9D7
100
AcDbEntity
  8
0
100
AcDbEllipse
 62
7
  6
CONTINUOUS
 10
131.3609907383
 20
135.677228891
 30
0.0
 11
1.5
 21
-0.0
 31
0.0
 40
0.4
 41
-1.6718516425
 42
-1.5707963268
  0
ELLIPSE
  5
9D8
100
AcDbEntity
  8
0
100
AcDbEllipse
 62
7
  6
CONTINUOUS
 10
163.3609907383
 20
135.677228891
 30
0.0
 11
1.5
 21
0.0
 31
0.0
 40
0.4
 41
-2.6250944658
 42
-2.5092602581
  0
ELLIPSE
  5
9D9
100
AcDbEntity
  8
0
100
AcDbEllipse
 62
7
  6
CONTINUOUS
 10
163.3609907383
 20
135.677228891
 30
0.0
 11
1.5
 21
0.0
 31
0.0
 40
0.4
 41
-2.146770053
 42
-1.5707963268
  0
ELLIPSE
  5
9DA
100
AcDbEntity
  8
0
100
AcDbEllipse
 62
7
  6
CONTINUOUS
 10
169.9609907383
 20
135.677228891
 30
0.0
 11
1.5
 21
0.0
 31
0.0
 40
0.4
 41
-1.5707963268
 42
-0.9948226006
  0
ELLIPSE
  5
9DB
100
AcDbEntity
  8
0
100
AcDbEllipse
 62
7
  6
CONTINUOUS
 10
169.9609907383
 20
197.077228891
 30
0.0
 11
1.5
 21
0.0
 31
0.0
 40
0.4
 41
0.9948226006
 42
1.5707963268
  0
ELLIPSE
  5
9DC
100
AcDbEntity
  8
0
100
AcDbEllipse
 62
7
  6
CONTINUOUS
 10
163.3609907383
 20
197.077228891
 30
0.0
 11
1.5
 21
0.0
 31
0.0
 40
0.4
 41
1.5707963268
 42
2.146770053
  0
ELLIPSE
  5
9DD
100
AcDbEntity
  8
0
100
AcDbEllipse
 62
7
  6
CONTINUOUS
 10
163.3609907383
 20
197.077228891
 30
0.0
 11
1.5
 21
0.0
 31
0.0
 40
0.4
 41
2.5092602581
 42
2.6250944658
  0
ELLIPSE
  5
9DE
100
AcDbEntity
  8
0
100
AcDbEllipse
 62
7
  6
CONTINUOUS
 10
131.3609907383
 20
197.077228891
 30
0.0
 11
1.5
 21
-0.0
 31
0.0
 40
0.4
 41
1.5707963268
 42
1.6718516425
  0
ENDSEC
  0
SECTION
  2
OBJECTS
  0
DICTIONARY
  5
C
100
AcDbDictionary
280
0
281
1
  3
ACAD_GROUP
350
D
  3
ACAD_MLINESTYLE
350
17
  3
ACAD_LAYOUT
350
1A
  3
ACAD_PLOTSETTINGS
350
19
  3
ACAD_PLOTSTYLENAME
350
E
  0
DICTIONARY
  5
D
102
{ACAD_REACTORS
330
C
102
}
100
AcDbDictionary
280
0
281
1
  0
ACDBDICTIONARYWDFLT
  5
E
102
{ACAD_REACTORS
330
C
102
}
100
AcDbDictionary
281
1
  3
Normal
350
F
100
AcDbDictionaryWithDefault
340
F
  0
DICTIONARY
  5
17
102
{ACAD_REACTORS
330
C
102
}
100
AcDbDictionary
280
0
281
1
  3
Standard
350
18
  0
DICTIONARY
  5
19
102
{ACAD_REACTORS
330
C
102
}
100
AcDbDictionary
281
1
  0
DICTIONARY
  5
1A
102
{ACAD_REACTORS
330
C
102
}
100
AcDbDictionary
281
1
  3
Model
350
9DF
  3
Layout1
350
9E0
  0
ACDBPLACEHOLDER
  5
F
102
{ACAD_REACTORS
330
E
102
}
  0
MLINESTYLE
  5
18
102
{ACAD_REACTORS
330
17
102
}
100
AcDbMlineStyle
  2
STANDARD
 70
0
  3

 62
256
 51
90.0
 52
90.0
 71
2
 49
0.5
 62
256
  6
BYLAYER
 49
-0.5
 62
256
  6
BYLAYER
  0
LAYOUT
  5
9DF
102
{ACAD_REACTORS
330
1A
102
}
100
AcDbPlotSettings
  1

  2
none_device
  4
ISO_A3_(420.00_x_297.00_MM)
  6

 40
0.0
 41
0.0
 42
0.0
 43
0.0
 44
420.0
 45
297.0
 46
0.0
 47
0.0
 48
0.0
 49
0.0
140
0.0
141
0.0
142
1.0
143
1.0
 70
1024
 72
1
 73
0
 74
0
  7

 75
0
147
1.0
148
0.0
149
0.0
100
AcDbLayout
  1
Model
 70
0
 71
0
 10
0.0
 20
0.0
 11
420.0
 21
297.0
 12
0.0
 22
0.0
 32
0.0
 14
0.0
 24
0.0
 34
0.0
 15
0.0
 25
0.0
 35
0.0
146
0.0
 13
0.0
 23
0.0
 33
0.0
 16
1.0
 26
0.0
 36
0.0
 17
0.0
 27
1.0
 37
0.0
 76
0
330
229
345
0
346
0
  0
LAYOUT
  5
9E0
102
{ACAD_REACTORS
330
1A
102
}
100
AcDbPlotSettings
  1

  2
none_device
  4
ISO_A3_(420.00_x_297.00_MM)
  6

 40
0.0
 41
0.0
 42
0.0
 43
0.0
 44
420.0
 45
297.0
 46
0.0
 47
0.0
 48
0.0
 49
0.0
140
0.0
141
0.0
142
1.0
143
1.0
 70
0
 72
1
 73
0
 74
0
  7

 75
0
147
1.0
148
0.0
149
0.0
100
AcDbLayout
  1
Layout1
 70
0
 71
1
 10
0.0
 20
0.0
 11
420.0
 21
297.0
 12
0.0
 22
0.0
 32
0.0
 14
0.0
 24
0.0
 34
0.0
 15
0.0
 25
0.0
 35
0.0
146
0.0
 13
0.0
 23
0.0
 33
0.0
 16
1.0
 26
0.0
 36
0.0
 17
0.0
 27
1.0
 37
0.0
 76
0
330
22A
345
0
346
0
  0
ENDSEC
  0
EOF
